#VERSION:0.83;
#TITLE:Rendez-Vu;
#SUBTITLE:;
#ARTIST:Basement Jaxx;
#TITLETRANSLIT:;
#SUBTITLETRANSLIT:;
#ARTISTTRANSLIT:;
#GENRE:House;
#ORIGIN:;
#CREDIT:;
#BANNER:Rendez-Vu-bn.png;
#BACKGROUND:Rendez-Vu-bg.png;
#PREVIEWVID:;
#JACKET:Rendez-Vu-jacket.png;
#CDIMAGE:;
#DISCIMAGE:;
#LYRICSPATH:;
#CDTITLE:cdtitle.png;
#MUSIC:Rendez-Vu.ogg;
#OFFSET:-0.033000;
#SAMPLESTART:38.326000;
#SAMPLELENGTH:15.317000;
#SELECTABLE:YES;
#BPMS:0.000=125.349;
#STOPS:;
#DELAYS:;
#WARPS:;
#TIMESIGNATURES:0.000=4=4;
#TICKCOUNTS:0.000=4;
#COMBOS:0.000=1;
#SPEEDS:0.000=1.000=0.000=0;
#SCROLLS:0.000=1.000;
#FAKES:;
#LABELS:0.000=Song Start;
#BGCHANGES:0.000=Rendez-Vu.avi=1.000=1=0=1===CrossFade==,
99999=-nosongbg-=1.000=0=0=0 // don't automatically add -songbackground-
;
#KEYSOUNDS:;
#ATTACKS:
;

//---------------dance-single - ----------------
#NOTEDATA:;
#CHARTNAME:X-Scale 7;
#STEPSTYPE:dance-single;
#DESCRIPTION:;
#CHARTSTYLE:;
#DIFFICULTY:Medium;
#METER:5;
#RADARVALUES:0.331193,0.348197,0.071061,0.000000,0.000000,261.000000,253.000000,8.000000,0.000000,0.000000,0.000000,0.000000,0.000000,0.000000,0.331193,0.348197,0.071061,0.000000,0.000000,261.000000,253.000000,8.000000,0.000000,0.000000,0.000000,0.000000,0.000000,0.000000;
#CREDIT:;
#NOTES:
0000
0000
0000
0000
,
0000
0000
0000
0000
,
0000
0000
0000
0000
,
0000
0000
0000
0000
,
1000
0100
0010
0001
,
1000
0100
0010
0001
,
1000
0010
0100
0001
,
1000
0010
0100
0001
,
1000
0100
0010
0001
,
1000
0100
0010
0001
,
1000
0010
0100
0001
,
1000
0010
0100
0001
,
1000
0000
0001
0100
1000
0000
0100
0000
,
1000
0100
0001
0000
1000
0000
0001
0000
,
0100
0000
0010
1000
0001
0000
1000
0000
,
0100
0000
0010
0001
1000
0000
0001
0000
,
0100
0000
0010
0000
0100
0000
0001
0010
,
0100
1000
0010
1000
,
0001
0010
0100
0000
1000
0000
0010
0000
,
0100
0000
0001
1000
0001
0000
0010
0000
,
0011
0010
0100
1000
,
0001
0000
0100
0000
0010
0100
1000
0100
,
0010
0100
0001
0000
1000
0000
0100
0000
,
0010
0000
0001
0000
1000
0010
0001
0010
,
0100
0010
1000
0000
0001
0000
1000
0000
,
0100
0000
0010
0000
0001
0100
1000
0100
,
0010
0100
0001
0000
1000
0000
0010
0000
,
1000
0001
0010
0100
,
0110
0010
0001
1000
,
0001
0000
0010
0100
1000
0000
0001
0000
,
0011
0000
1000
0000
0001
0010
0100
0000
,
1100
0000
0000
1001
0000
0000
0101
0000
,
0100
0000
0001
0100
1000
0000
0100
0000
,
1000
0100
0001
0000
1000
0000
0010
0000
,
0100
0000
0001
0010
0100
0000
1000
0000
,
0001
0000
0100
0010
0100
0000
0001
0000
,
1000
0000
0001
0010
1000
0000
0001
0100
,
1000
0001
0100
0010
,
1000
0100
0010
0000
0001
0000
1000
0000
,
0100
0000
0010
0001
1000
0000
0001
0000
,
1001
1000
0010
0100
,
0001
0000
1000
0000
0001
0010
1000
0010
,
0100
0010
0001
0000
1000
0000
0010
0000
,
1000
0000
0100
0000
1000
0100
0001
0100
,
0010
0100
1000
0000
0001
0000
0100
0000
,
0010
0000
0100
0000
0001
0010
1000
0010
,
0100
0010
0001
0000
1000
0000
0001
0000
,
0100
0010
1000
0001
0010
0000
0100
0000
,
1000
0000
0001
0000
1000
0100
1000
0000
,
0001
0000
0100
0000
0010
0100
0010
0000
,
1000
0000
0100
0000
0010
0001
0010
0000
,
0001
0000
0100
0000
0010
0100
0010
0000
,
1000
0000
0001
0000
1000
0010
1000
0000
,
0001
0000
0010
0000
0100
1000
0100
0000
,
0010
0000
0001
0000
1000
0001
1000
0000
,
0100
0000
0010
0000
0001
0010
0001
0000
,
0011
0000
0000
0000
;

//---------------dance-single - X-Scale 10----------------
#NOTEDATA:;
#CHARTNAME:SC '19 Heavy;
#STEPSTYPE:dance-single;
#DESCRIPTION:X-Scale 10;
#CHARTSTYLE:;
#DIFFICULTY:Edit;
#METER:7;
#RADARVALUES:0.403523,0.422810,0.062178,0.000000,0.000000,318.000000,311.000000,7.000000,0.000000,0.000000,0.000000,0.000000,0.000000,0.000000,0.403523,0.422810,0.062178,0.000000,0.000000,318.000000,311.000000,7.000000,0.000000,0.000000,0.000000,0.000000,0.000000,0.000000;
#CREDIT:;
#NOTES:
// measure 0
0000
0000
0000
0000
,  // measure 1
0000
0000
0000
0000
,  // measure 2
0000
0000
0000
0000
,  // measure 3
0000
0000
0000
0000
,  // measure 4
1000
0100
0000
0010
0001
0000
1000
0010
,  // measure 5
1000
0001
0000
0010
0100
0000
1000
0010
,  // measure 6
1000
0001
0000
0010
0100
0000
1000
0000
,  // measure 7
0001
0000
1000
0100
0001
0000
0001
0100
,  // measure 8
1000
0000
0001
0000
0100
0000
0001
0010
,  // measure 9
0000
0001
0010
0000
0001
0010
1000
0010
,  // measure 10
0001
0000
1000
0000
0100
0000
1000
0100
,  // measure 11
0010
0000
0001
0100
0010
0000
1000
0001
,  // measure 12
1000
0001
0010
0100
1000
0001
1000
0001
,  // measure 13
0010
0100
1000
0000
0001
0000
1000
0100
,  // measure 14
0010
0001
0100
0010
1000
0000
0010
0000
,  // measure 15
1000
0000
0001
0010
0100
0000
0010
0000
,  // measure 16
0001
1000
0100
1000
0001
0000
1000
0100
,  // measure 17
0001
0100
0010
0001
0000
1000
0010
0001
,  // measure 18
1000
0100
0001
0000
0100
0000
0010
0000
,  // measure 19
1000
0100
0010
0001
1000
0000
0001
0000
,  // measure 20
1001
1000
0000
0001
0001
0000
0010
0010
,  // measure 21
0100
0000
1000
0000
0001
0010
1000
0010
,  // measure 22
0100
0010
0001
0000
1000
0000
0010
0100
,  // measure 23
0001
0000
0010
0000
0100
1000
0001
0010
,  // measure 24
1000
0010
0001
0000
1000
0000
0010
1000
,  // measure 25
0001
0000
0010
0000
0100
0010
0001
1000
,  // measure 26
0010
0100
0001
0000
0010
0000
0100
1000
,  // measure 27
0001
0000
0100
0000
0010
0100
0001
0000
,  // measure 28
0101
0000
0100
0000
0010
1000
0001
0000
,  // measure 29
0010
0000
0100
1000
0001
0000
0010
0100
,  // measure 30
0110
0000
0010
0000
0001
1000
0010
0100
,  // measure 31
0110
0000
1000
1001
0001
0000
1000
0001
,  // measure 32
1000
0001
0010
0100
1000
0001
1000
0001
,  // measure 33
0010
0100
1000
0000
0001
0000
1000
0100
,  // measure 34
0010
0001
0100
0010
1000
0000
0001
0000
,  // measure 35
0100
0000
0010
0100
0001
0000
1000
0000
,  // measure 36
0010
0100
0001
1000
0010
0000
1000
0100
,  // measure 37
0001
0100
0010
0001
0000
1000
0010
0001
,  // measure 38
1000
0100
0001
0000
0010
0100
0010
0000
,  // measure 39
0001
0100
0010
1000
0001
0000
1000
0000
,  // measure 40
1001
0001
0000
1000
1000
0000
0100
0100
,  // measure 41
0010
0000
0001
0000
1000
0010
0001
0010
,  // measure 42
0100
0010
1000
0000
0001
0000
0010
0100
,  // measure 43
0010
0000
0001
0000
1000
0100
0010
0001
,  // measure 44
0100
0010
1000
0000
0001
0000
0010
0100
,  // measure 45
0010
0000
0001
0000
1000
0001
1000
0010
,  // measure 46
0001
0010
1000
0000
0100
0000
0010
0001
,  // measure 47
1000
0001
0010
0100
1000
0000
0001
0000
,  // measure 48
1001
0000
1000
0000
0001
0010
0100
0010
,  // measure 49
0001
0000
1000
0000
0010
1000
0001
1000
,  // measure 50
0010
0000
0000
0000
0001
0010
0100
0010
,  // measure 51
0001
0000
0000
0000
0010
1000
0001
1000
,  // measure 52
0010
0000
0100
0000
0001
0010
1000
0010
,  // measure 53
0001
0000
1000
0000
0010
0100
1000
0100
,  // measure 54
0001
0000
0100
0000
0001
0010
1000
0010
,  // measure 55
0001
0000
1000
0000
0010
0100
1000
0100
,  // measure 56
0001
0000
0000
0000
;

//---------------dance-single - ----------------
#NOTEDATA:;
#CHARTNAME:X-Scale 2;
#STEPSTYPE:dance-single;
#DESCRIPTION:;
#CHARTSTYLE:;
#DIFFICULTY:Easy;
#METER:2;
#RADARVALUES:0.159886,0.198970,0.044413,0.000000,0.000000,126.000000,121.000000,5.000000,0.000000,0.000000,0.000000,0.000000,0.000000,0.000000,0.159886,0.198970,0.044413,0.000000,0.000000,126.000000,121.000000,5.000000,0.000000,0.000000,0.000000,0.000000,0.000000,0.000000;
#CREDIT:;
#NOTES:
0000
0000
0000
0000
,
0000
0000
0000
0000
,
0000
0000
0000
0000
,
0000
0000
0000
0000
,
0010
0000
0100
0000
,
0001
0000
1000
0000
,
0100
0000
0010
0000
,
0001
0000
0100
0000
,
0001
0000
1000
0000
,
0001
0000
0010
0000
,
0100
0000
1000
0100
,
0010
0000
0001
0000
,
1000
0000
0100
0000
,
1000
0000
0001
0000
,
0100
0000
0010
1000
,
0001
0000
1000
0000
,
0100
0000
0010
0001
,
1000
0000
0010
0000
,
1000
0000
0001
0000
,
0010
0000
0001
1000
,
1001
0000
0001
0000
,
0010
0000
0100
0000
,
1000
0010
1000
0000
,
0001
0000
0100
0000
,
0001
0010
0001
0000
,
1000
0000
0010
0000
,
1000
0001
1000
0000
,
0010
0000
0100
0000
,
0101
0000
0001
0000
,
1000
0000
0100
0000
,
1100
0000
0001
0000
,
0100
0000
0001
0100
,
0001
0000
0010
0000
,
0100
0000
1000
0000
,
0010
0000
1000
0001
,
0100
0000
0010
0000
,
1000
0000
0100
0010
,
0001
0000
1000
0000
,
0001
0100
0010
0000
,
1000
0000
0001
1000
,
1001
0000
0001
0000
,
0010
0000
0100
0000
,
1000
0010
1000
0000
,
0001
0000
0100
0000
,
0010
0100
0010
0000
,
1000
0000
0001
0000
,
0010
0001
0010
0000
,
0100
0000
1000
0001
,
1001
0000
0100
0000
,
1000
0000
0001
0000
,
0010
0000
0001
0000
,
0100
0000
0010
0000
,
1000
0000
0100
0000
,
0010
0000
0001
0000
,
0100
0000
0010
0000
,
0100
0000
0001
0000
,
1000
0000
0000
0000
;

//---------------dance-single - ----------------
#NOTEDATA:;
#CHARTNAME:X-Scale 12;
#STEPSTYPE:dance-single;
#DESCRIPTION:;
#CHARTSTYLE:;
#DIFFICULTY:Hard;
#METER:8;
#RADARVALUES:0.567216,0.696394,0.062178,0.461894,0.377509,447.000000,440.000000,7.000000,52.000000,0.000000,0.000000,0.000000,0.000000,0.000000,0.567216,0.696394,0.062178,0.461894,0.377509,447.000000,440.000000,7.000000,52.000000,0.000000,0.000000,0.000000,0.000000,0.000000;
#CREDIT:;
#NOTES:
0000
0000
0000
0000
,
0000
0000
0000
0000
,
0000
0000
0000
0000
,
0000
0000
0000
0000
,
1000
0100
0010
0200
1000
0000
0310
0100
,
1000
0001
0100
0002
1000
0000
0013
0010
,
0010
0000
0100
0000
1000
0000
0001
0000
1000
0000
0020
0000
0030
0020
0000
0030
,
0020
0000
0230
0000
0302
0000
1003
0010
,
1000
0001
0020
0000
0230
0300
2000
3020
,
0030
0020
0032
0003
1000
0100
0001
0100
,
2000
0000
3001
0010
0200
0000
1300
0001
,
1000
0000
0000
0000
0010
0000
0000
1000
0100
0000
0100
0000
1000
0001
1000
0001
,
0010
1000
0001
0100
1000
0010
0100
0010
,
0001
0000
0010
0000
0100
0000
0001
0000
1000
0000
0010
1000
0010
0000
0010
0000
,
0100
1000
0100
0001
2000
0000
3020
0000
,
0031
0000
0010
0000
0100
0000
0010
0000
1000
0000
0000
0100
0010
0000
0010
0000
,
0001
1000
0010
1000
0001
0000
0010
0100
,
1000
0000
0001
0000
1000
0000
0010
0000
0000
0000
0100
0010
0100
0000
0100
0000
,
0001
0010
0200
0000
2300
0000
3001
1000
,
0100
0000
0010
0000
0001
0000
1000
0010
0000
0100
0001
0000
0100
0001
0100
0000
,
1001
0000
1000
0000
0100
0000
0010
0000
0001
0010
0001
0010
0001
0000
0100
0000
,
0020
0000
0030
2000
0000
3000
0002
0000
0023
0000
1000
0000
0100
0000
1000
0000
,
0031
0000
0010
0000
0100
0000
0000
0000
1000
0010
1000
0010
1000
0000
0100
0000
,
0020
0000
0030
0200
0000
0300
2000
0000
3002
0000
0010
0000
1000
0000
0100
0000
,
1003
0000
0001
0000
0100
0000
0000
0000
0010
0100
0010
0100
0010
0000
1000
0000
,
0200
0000
0300
0020
0000
0030
0002
0000
0203
0000
1000
0000
0010
0000
1000
0000
,
0301
0000
0100
0010
0000
0000
1000
0000
0001
0100
0001
0100
0001
0000
0010
0000
,
0200
0000
0300
2000
0000
3000
0002
1003
0001
0000
0001
0000
0100
0010
0100
0000
,
0220
0000
0330
0000
1000
0100
1000
0100
0010
0001
0010
0001
1000
0010
1000
0010
,
0100
0001
1000
0001
0010
1000
0010
0100
,
2200
0000
3300
0000
0001
0100
0001
0100
0010
1000
0010
1000
0100
0010
0100
0010
,
0001
0000
0100
0001
0100
0000
0010
0000
0110
0000
0000
0000
1000
0010
1000
0000
,
0001
0010
1000
0010
0001
1000
0100
0001
,
0010
1000
0002
0000
0203
0000
0310
0100
,
1000
0100
0001
1000
0200
0000
0320
0000
,
0031
0000
0010
0000
0100
0000
1000
0000
0010
0000
0000
0100
0010
0000
0010
0000
,
1000
0010
0100
0002
1000
0003
0001
0010
,
0100
1000
0001
2000
3100
1000
0001
0100
,
1000
0000
0100
0000
0001
0000
0000
0010
0001
0000
0000
0000
1000
0000
0010
1000
,
0010
0000
0100
0000
0010
0000
1000
0001
1000
0010
0000
0100
0010
0100
0001
0000
,
0101
0000
0100
0000
0010
0000
1000
0000
0001
0010
0100
1000
0001
0000
1000
0001
,
0100
0000
0000
0010
0100
0000
0010
0000
0001
0000
0010
0000
1000
0000
0100
0000
,
0010
0000
0100
0000
0001
0000
0100
0000
1000
0100
0010
0001
1000
0000
0010
1000
,
0001
0000
0000
1000
0100
0000
1000
0000
0010
0000
0100
0000
1000
0000
0100
0000
,
0001
0000
0100
0000
0010
0000
1000
0000
0001
0010
0100
1000
0001
0000
0010
0001
,
1000
0000
0000
0100
0010
0000
0100
0000
1000
0000
0100
0000
0001
0000
0100
0000
,
0010
0000
0001
0000
1000
0000
0010
0000
0100
0010
1000
0001
0100
0000
0010
0100
,
0001
0000
0010
0000
0001
0000
1000
0100
0000
0100
0000
0100
0010
0000
0100
0000
,
1010
0000
1000
0000
0001
0010
0001
0010
0100
1000
0100
1000
0001
0100
0001
0100
,
0010
0000
1000
0000
0001
0100
0001
0100
0010
1000
0010
1000
0100
0000
0010
0000
,
0002
0000
0003
0200
0300
0020
0030
0000
0200
0000
0000
0000
1000
0000
0010
0000
,
0302
0000
0003
0200
0300
0020
0030
0000
2000
0000
0000
0000
3001
0000
0001
0000
,
0001
0000
1000
0000
0100
0000
0010
0000
0001
0000
1000
0000
0010
1000
0010
0000
,
0100
0000
0010
0000
0001
0000
0010
0000
0100
0000
0010
0000
1000
0010
1000
0000
,
0100
0000
0010
0000
0001
0000
0100
0000
0010
0000
1000
0000
0001
0010
0001
0000
,
1000
0000
0001
0000
0100
0000
0010
1000
0000
1000
0000
0010
0100
0010
0000
0000
,
0101
0000
0000
0000
;

//---------------dance-single - ----------------
#NOTEDATA:;
#CHARTNAME:X-Scale 1;
#STEPSTYPE:dance-single;
#DESCRIPTION:;
#CHARTSTYLE:;
#DIFFICULTY:Beginner;
#METER:1;
#RADARVALUES:0.114205,0.149227,0.017765,0.000000,0.000000,90.000000,88.000000,2.000000,0.000000,0.000000,0.000000,0.000000,0.000000,0.000000,0.114205,0.149227,0.017765,0.000000,0.000000,90.000000,88.000000,2.000000,0.000000,0.000000,0.000000,0.000000,0.000000,0.000000;
#CREDIT:;
#NOTES:
0000
0000
0000
0000
,
0000
0000
0000
0000
,
0000
0000
0000
0000
,
0000
0000
0000
0000
,
1000
0000
0000
0000
,
0100
0000
0000
0000
,
1000
0000
0000
0000
,
0100
0000
0000
0000
,
0010
0000
0000
0000
,
0001
0000
0000
0000
,
0010
0000
0000
0000
,
0001
0000
1000
0000
,
0001
0000
0010
0000
,
0001
0000
0100
0000
,
0010
0000
0100
0000
,
0001
0000
1000
0000
,
0001
0000
0010
0000
,
0001
0000
1000
0000
,
0100
0000
1000
0000
,
0010
0000
0100
0000
,
0001
0000
1000
0000
,
0001
0000
1000
0000
,
0100
0000
0010
0000
,
0100
0000
0010
0000
,
0001
0000
0100
0000
,
0001
0000
0100
0000
,
0010
0000
1000
0000
,
0010
0000
1000
0000
,
1001
0000
0000
0000
,
0100
0000
0000
0000
,
1001
0000
0000
0000
,
0010
0000
0000
0000
,
0001
0000
0100
0000
,
0001
0000
0100
0000
,
0010
0000
1000
0000
,
0010
0000
1000
0000
,
0100
0000
0010
0000
,
0100
0000
0010
0000
,
0001
0000
0100
0000
,
0010
0000
1000
0000
,
0001
0000
0010
0000
,
0001
0000
0100
0000
,
0010
0000
0100
0000
,
0001
0000
1000
0000
,
0100
0000
0010
0000
,
0100
0000
1000
0000
,
0001
0000
0100
0000
,
0001
0000
1000
0000
,
0001
0000
0000
0000
,
0010
0000
0000
0000
,
0100
0000
1000
0000
,
0001
0000
1000
0000
,
0100
0000
0000
0000
,
0010
0000
0000
0000
,
0100
0000
0000
0000
,
1000
0000
0000
0000
,
0001
0000
0000
0000
;

//---------------dance-single - ----------------
#NOTEDATA:;
#CHARTNAME:X-Scale 15;
#STEPSTYPE:dance-single;
#DESCRIPTION:;
#CHARTSTYLE:;
#DIFFICULTY:Challenge;
#METER:10;
#RADARVALUES:0.722026,0.771007,0.088826,0.248712,0.683958,569.000000,559.000000,10.000000,28.000000,0.000000,0.000000,0.000000,0.000000,0.000000,0.722026,0.771007,0.088826,0.248712,0.683958,569.000000,559.000000,10.000000,28.000000,0.000000,0.000000,0.000000,0.000000,0.000000;
#CREDIT:;
#NOTES:
0000
0000
0000
0000
,
0000
0000
0000
0000
,
0000
0000
0000
0000
,
0000
0000
0000
0000
,
1000
0000
0100
0000
0001
0000
1000
0000
0010
0000
0001
0000
1000
0001
1000
0001
,
1000
0000
0010
0000
0001
0000
1000
0000
0100
0000
0001
0100
0010
0000
0010
0000
,
1000
0000
0100
0000
1000
0000
0001
0000
0010
0000
0100
0000
0010
0100
0000
1000
,
0001
0000
0100
0000
1000
0000
0100
0000
0010
0000
0100
0001
0010
0000
0010
0000
,
0100
1000
0002
0010
0203
0310
2000
3200
,
0301
0000
0200
0000
2300
0000
3010
0000
1000
0000
0001
0010
0100
0000
0100
0000
,
1000
0000
0010
0000
0100
0000
0001
0000
1000
0000
0001
0000
0010
0100
0010
0100
,
0010
0000
0001
0000
1000
0000
0100
1000
0001
1000
0000
0010
0100
0010
1000
0000
,
0001
0010
1000
0001
0100
1000
0010
0100
,
0010
0001
0020
1000
0001
1000
0130
0100
,
0010
1000
0001
0010
0200
1000
0320
0001
,
0130
0000
0001
0100
0001
0000
0010
0000
0100
0000
1000
0001
0010
0000
0010
0000
,
0001
0000
0100
0000
0010
0000
1000
0000
0100
0000
0010
0000
0001
0000
1000
0001
,
1000
0000
0010
0000
0100
0000
0001
0000
1000
0000
0001
0100
0010
0000
0010
0000
,
1000
0000
0010
0000
0200
0000
0000
1300
0200
0000
0010
0000
0310
0100
0001
0000
,
0001
0100
0001
0000
1000
0000
0001
0010
0100
0010
0000
0100
0010
0001
0100
0000
,
1010
0010
1000
0010
0100
0000
0001
0010
0100
1000
0001
1000
0010
0000
0100
0000
,
0010
0000
0100
0000
0001
1000
0001
0000
0010
0000
1000
0000
0010
0000
0100
0000
,
0010
0001
1000
0001
0010
0000
0100
0000
1000
0100
0010
0001
1000
0000
0010
0100
,
0010
0000
1000
0000
0001
0010
0001
0000
0100
0000
0010
0100
0001
0000
0001
0000
,
1000
0100
0010
0001
1000
0000
0010
0000
0100
0010
1000
0010
0100
0000
0001
0000
,
0010
0000
0100
0000
1000
0001
1000
0000
0010
0000
0100
0010
0100
0000
0001
0000
,
1000
0000
0100
0010
0100
0000
1000
0000
0001
1000
0100
1000
0001
0000
0100
0000
,
0010
0000
1000
0000
0001
0100
0010
0100
0001
0100
0000
0010
1000
0001
0010
0000
,
0202
0000
0303
0000
1000
0100
0010
0001
1000
0100
0010
0001
1000
0100
0010
0001
,
1000
0000
0001
0000
0100
0010
1000
0001
0100
0010
1000
0001
0100
0010
1000
0001
,
2002
0000
3003
0000
0001
1000
0100
0010
0001
1000
0100
0010
0001
1000
0100
0010
,
0202
0000
0303
1000
2002
3003
0220
0330
2002
3003
1000
0100
0010
0100
1000
0000
,
0001
0100
0010
0100
0001
0010
1000
0010
,
0001
0100
0001
0000
0200
0000
1000
0000
0010
0000
1000
0000
0301
0000
0001
0000
,
0010
1000
0010
0100
2000
0010
3002
0100
,
0103
0000
0001
0000
0010
0000
1000
0000
0010
0000
0001
0010
0100
0000
0100
0000
,
1000
0000
0001
0000
0010
0000
0001
0000
0100
0000
0010
1000
0001
1000
0010
0000
,
0100
0000
0001
0010
0001
0000
1000
0000
0100
0000
0001
0000
0100
0000
1000
0000
,
0100
0000
0010
0000
0002
0000
0000
0103
0020
0000
0001
0030
1000
0010
1000
0000
,
0001
0000
0010
0001
1000
0000
0001
0100
0010
0100
0000
0001
0010
0001
0100
0000
,
1010
0010
1000
0001
1000
0000
0001
0010
0100
1000
0010
0100
0001
0000
1000
0000
,
0100
0000
1000
0000
0001
0100
0001
0000
0010
0000
1000
0000
0010
0000
0100
0000
,
0010
0001
1000
0001
0010
0000
0100
0000
1000
0100
0010
0001
1000
0000
0010
0100
,
0010
0000
1000
0000
0001
0010
0100
0000
0010
0000
0001
1000
0010
0000
1000
0000
,
0001
0010
0100
0010
0001
0000
1000
0000
0010
0100
0001
0100
0010
0000
1000
0010
,
1000
0000
0100
0000
0010
0001
0010
0000
0001
0000
0100
0000
0010
0000
0100
0000
,
0001
1000
0010
0100
0001
0000
0010
0000
0100
1000
0001
0100
0010
0000
1000
0010
,
1000
0000
0100
0000
0001
0000
0100
1000
0001
0100
0000
0010
0100
0010
1000
0000
,
1001
0000
0001
0000
1000
0100
0010
0001
1000
0100
0010
0001
1000
0100
0010
0001
,
1000
0000
0010
0000
0100
0010
1000
0001
0100
0010
1000
0001
0100
0000
0010
0000
,
1000
0000
0100
0000
1000
0001
0010
0100
1000
0001
0010
0100
1000
0001
0010
0100
,
1000
0000
0001
0000
0100
0001
1000
0010
0100
0001
1000
0010
0100
0000
0001
0010
,
0100
0000
0010
0000
0001
1000
0100
1000
0001
1000
0100
1000
0001
0000
0010
0100
,
0010
0000
0001
0000
1000
0100
0010
0100
1000
0100
0010
0100
1000
0000
0001
0100
,
0001
0000
0010
0000
0100
0010
0001
1000
0001
0010
0100
0010
0001
1000
0001
0010
,
0100
0000
1000
0000
0001
0100
0010
0100
0001
1000
0000
0010
0100
0001
1000
0000
,
1001
0000
0000
0000
;
