#TITLE:Realest;
#SUBTITLE:;
#ARTIST:Nostalgix;
#TITLETRANSLIT:;
#SUBTITLETRANSLIT:;
#ARTISTTRANSLIT:;
#GENRE:Bass House;
#CREDIT:;
#BANNER:Realest-bn.png;
#BACKGROUND:Realest-bg.png;
#LYRICSPATH:;
#CDTITLE:cdtitle.png;
#MUSIC:Realest.ogg;
#OFFSET:-0.007000;
#SAMPLESTART:32.131001;
#SAMPLELENGTH:15.118000;
#LASTBEATHINT:272.000122;
#SELECTABLE:YES;
#BPMS:0.000000=126.999992
;
#STOPS:
;
#BGCHANGES:0.000=Realest.avi=1.000=1=0=0=StretchNoLoop==CrossFade==,
99999=-nosongbg-=1.000=0=0=0 // don't automatically add -songbackground-
;
#KEYSOUNDS:;
#ATTACKS:;

//---------------dance-single - ----------------
#NOTES:
     dance-single:
     X-Scale 3:
     Beginner:
     2:
     0.117448,0.175771,0.007756,0.000000,0.000000,106.000000,105.000000,1.000000,0.000000,0.000000,0.000000,0.117448,0.175771,0.007756,0.000000,0.000000,106.000000,105.000000,1.000000,0.000000,0.000000,0.000000:
0000
0000
0000
0000
,
0000
0000
0000
0000
,
0000
0000
0000
0000
,
0000
0000
0000
0000
,
0000
0000
0000
0000
,
0001
0000
0000
0000
,
0100
0000
0000
0000
,
0001
0000
0000
0000
,
0100
0000
0000
0000
,
0001
0000
0000
1000
,
0000
0000
0000
0100
,
0000
0000
0000
1000
,
0000
0000
0000
0000
,
0100
0000
0010
0000
,
0100
0000
1000
0000
,
0100
0000
0010
0000
,
0001
0000
0000
0000
,
1001
0000
1000
0000
,
0010
0000
1000
0000
,
0001
0000
1000
0000
,
0100
0000
0010
0000
,
0001
0000
1000
0000
,
0001
0000
0100
0000
,
0001
0000
1000
0000
,
0010
0000
1000
0000
,
0100
0000
0010
0000
,
0001
0000
1000
0000
,
0001
0000
0100
0000
,
0001
0000
1000
0000
,
0100
0000
1000
0000
,
0001
0000
0010
0000
,
0001
0000
1000
0000
,
0001
0000
0010
0000
,
0100
0000
0000
0000
,
1000
0000
0000
0000
,
0100
0000
0000
0000
,
1000
0000
0000
0000
,
0100
0000
0000
0000
,
0010
0000
0000
0000
,
0100
0000
0000
0000
,
0010
0000
0000
0000
,
0001
0000
0000
0010
,
0000
0000
0000
0001
,
0000
0000
0000
1000
,
0000
0000
0000
0000
,
0010
0000
1000
0000
,
0001
0000
1000
0000
,
0100
0000
0010
0000
,
0001
0000
0000
0000
,
0000
1000
0001
1000
,
0001
1000
0001
0000
,
0000
0100
0000
0001
,
0000
0100
0000
0001
,
0000
1000
0100
1000
,
0100
1000
0100
0000
,
0000
0010
0000
0001
,
0000
0010
0000
0001
,
0000
1000
0001
1000
,
0001
1000
0001
0000
,
1000
0000
0001
0000
,
1000
0000
0001
0000
,
0000
0010
0100
0010
,
0100
0010
0100
0000
,
0001
0000
0000
0000
,
1000
0000
0000
0001
;

//---------------dance-single - ----------------
#NOTES:
     dance-single:
     X-Scale 7:
     Easy:
     5:
     0.303593,0.378106,0.062048,0.271461,0.000000,274.000000,266.000000,8.000000,35.000000,0.000000,0.000000,0.303593,0.378106,0.062048,0.271461,0.000000,274.000000,266.000000,8.000000,35.000000,0.000000,0.000000:
0000
0000
0000
0000
,
0000
0000
0000
0000
,
0000
0000
0000
0000
,
0000
0000
0000
0000
,
0000
0000
0000
0000
,
1000
0000
0001
1001
,
0000
1000
0001
0000
,
1000
0100
2000
0000
3100
0000
0010
0000
,
0001
0100
0002
0000
2003
0000
3100
1000
,
0100
0010
0100
1000
,
0100
0000
0010
0000
0001
0000
1000
0001
,
1000
0010
0100
0010
,
1000
0000
0001
0000
0100
0000
0010
0100
,
0010
1000
0000
0001
0000
1000
0000
0001
,
0000
0010
0000
0100
0000
0010
0000
0100
,
0000
1000
0000
0010
0000
1000
0000
0010
,
0000
0000
0000
1001
,
0110
0000
0100
0001
0000
0000
1000
0010
,
0000
0000
0100
0001
0000
0000
1000
0000
,
0001
0010
0100
0000
0010
0100
1000
0000
,
0001
0010
0100
0010
0001
1000
0010
0000
,
1010
0000
1000
0001
0000
0000
1000
0100
,
0000
0000
1000
0001
0000
0000
0100
0000
,
0001
1000
0010
0000
0100
0001
1000
0000
,
0001
0100
0001
2000
,
3100
1000
0100
0000
0010
0000
0100
0000
,
1000
0001
0200
0000
0302
0000
0013
0100
,
0010
0000
0001
0000
1000
0000
0001
0100
,
0010
2000
3002
0203
,
0310
0100
0010
0000
1000
0000
0001
0000
,
0100
0001
2000
0000
3200
0000
0310
0100
,
1000
0000
0001
0000
0100
0000
0001
0010
,
0200
0300
0200
0300
0200
0300
1100
0000
,
2000
0000
0010
0000
,
3001
0010
0200
0320
,
0032
0000
1003
0001
0200
0000
0310
0100
,
0002
0000
0100
0000
,
2003
0000
0100
0000
,
3001
0100
0002
2003
,
3020
0000
0130
0001
0200
0000
0302
0000
,
0000
0000
1003
0000
1001
0000
0100
1000
,
0100
0000
1000
0000
0001
0000
0100
0010
,
0100
0000
0001
0000
0010
0000
0100
1000
,
0100
0000
0010
0000
0001
0000
1000
0010
,
1000
0000
0001
0000
0100
0000
0001
0010
,
0100
1000
0000
0010
0000
1000
0100
0010
,
0000
0001
0000
1000
0001
0100
0000
0000
,
0001
0010
0100
1000
0010
0100
0001
1000
,
2002
0000
0000
3003
,
0100
1000
0100
0000
1000
0000
0001
0000
,
1000
0000
0010
0000
0100
0000
0001
0100
,
0001
0010
0100
0010
,
0001
1000
0001
0100
,
0010
0100
0010
0000
1000
0000
0100
0000
,
0010
0000
0001
0000
1000
0000
0010
1000
,
0010
0100
0001
1000
,
0001
0010
0100
1000
,
0010
1000
0010
0000
1000
0000
0001
0000
,
0100
0000
0001
0000
1000
0000
0100
0010
,
0100
0000
1000
0001
0100
0000
0001
0000
,
0010
0000
0100
0010
0001
0000
2000
0000
,
3001
0010
0100
1000
,
0010
0000
0100
0000
0001
0000
1000
0001
,
1000
0000
0200
0000
0300
0200
0000
0300
,
0200
0000
0300
0200
0000
0300
2200
0000
,
3300
0000
0000
0000
;

//---------------dance-single - ----------------
#NOTES:
     dance-single:
     X-Scale 11:
     Medium:
     8:
     0.435445,0.529349,0.170633,0.263705,0.081438,393.000000,371.000000,22.000000,34.000000,0.000000,0.000000,0.435445,0.529349,0.170633,0.263705,0.081438,393.000000,371.000000,22.000000,34.000000,0.000000,0.000000:
0000
0000
0000
0000
,
0000
0000
0000
0000
,
0000
0000
0000
0000
,
0000
0000
0000
0000
,
0000
0000
0000
0000
,
0001
1000
1001
0001
,
1000
0100
1100
1000
,
0001
0100
0001
0000
0101
0000
0001
0000
,
1000
0000
0100
0000
1100
0000
0001
0001
,
0001
0000
1000
0000
0100
0000
0010
0010
,
0010
0000
0100
0000
1000
0000
0001
0001
,
0001
0000
0010
0000
0100
0000
1000
1000
,
1000
0000
0010
0000
0100
0000
0001
0001
,
0001
0010
1000
0001
1000
0010
0001
0010
,
0100
0010
0002
0000
2003
0000
3100
0001
,
0100
1000
0001
0100
0010
1000
0001
0010
,
0100
0010
0000
0000
0002
0000
0000
0000
2000
0000
0000
0000
3003
0000
0000
0000
,
1001
0000
1000
0010
1000
0000
0001
0010
,
0001
0000
0000
0000
0100
0000
0010
0000
0100
0000
0000
0000
0001
0000
0010
0001
,
1000
0100
1100
0000
0001
0100
0101
0000
,
1000
0100
0001
1000
0010
0100
1000
0000
,
1100
0000
1000
0010
1000
0000
0001
0010
,
0001
0000
0000
0000
1000
0000
0100
0000
1000
0000
0000
0000
0010
0000
0100
0010
,
0100
0001
0010
0000
0100
1000
0001
0000
,
1000
0001
1000
0010
1000
0001
1000
0001
0010
0200
0000
0000
,
1300
0000
0100
0010
0001
1000
0001
0100
,
0010
1000
0002
0000
0203
0000
0301
0001
,
0001
0000
0100
0010
1000
0001
0010
1000
,
0010
0100
2000
0000
3002
0000
2003
0000
,
3100
0010
0100
0010
0001
0000
1000
0001
,
0100
0001
2000
0000
3020
0000
0130
0100
,
0100
0000
0001
0010
1000
0010
0100
1000
,
0001
0100
0020
0000
2000
3030
1010
0000
,
0012
0000
1003
0001
,
0010
0100
2000
0000
3002
0000
0203
0000
,
0320
2030
3200
0310
,
0100
1000
0000
0000
0001
0000
0000
0000
1000
0000
1001
0000
0000
0110
0000
0000
,
0020
0000
1030
0001
,
1000
0010
0200
0000
0302
0000
0010
0000
,
1003
0001
1000
0000
1001
0000
0100
1000
,
0001
0010
0000
0000
0001
0000
0000
0000
1000
0000
0000
0000
0100
0000
0100
0000
,
0100
0000
1000
0000
0001
0000
0010
0010
,
0010
0000
0001
0000
0010
0000
0100
0100
,
0100
0000
0010
0000
0001
0000
1000
1000
,
1000
0000
0001
0000
0100
0000
0010
0010
,
0010
1000
0100
0001
1000
0010
0100
1000
,
0001
0100
0002
0000
0023
0000
1030
0010
,
0001
0100
0010
1000
0001
0100
0010
0100
,
0001
1000
0000
0000
0020
0000
0000
0000
2000
0000
0000
0000
3030
0000
0000
0000
,
1001
0000
0001
0010
1000
0010
0001
0000
,
1000
0010
0001
0010
1000
0000
0001
0001
,
0001
0000
1000
0000
0001
0100
0001
0000
0010
0000
0100
0010
0200
0000
1000
0000
,
1300
0000
0001
0000
0100
0001
0100
0000
0001
0000
1000
0100
1000
0000
0000
0000
,
1100
0000
1000
0010
0001
0010
1000
0000
,
0001
0010
1000
0010
0001
0000
1000
1000
,
1000
0000
0001
0000
1000
0001
0100
0000
0001
0000
0010
0100
2000
0000
0001
0000
,
3001
0000
0000
1001
0000
0000
0100
0000
0000
0100
1000
0000
1200
0000
0000
0000
,
0310
0100
0010
0001
0100
1000
0100
0001
,
0010
0100
1000
0001
0100
0010
1000
1000
,
0100
0010
0011
0000
0001
0100
0101
0000
,
1000
0100
1100
0000
0001
0100
0102
0000
,
1003
0000
0001
0100
1000
0001
0010
1000
,
0001
1000
0100
0001
0100
0010
0001
0001
,
0010
0100
1000
0100
0001
1000
0010
0001
,
0100
1000
0100
0001
0100
0000
2002
0000
,
3003
0000
0000
0000
;

//---------------dance-single - ----------------
#NOTES:
     dance-single:
     X-Scale 15:
     Hard:
     10:
     0.559542,0.680591,0.263705,0.255949,0.290851,505.000000,471.000000,34.000000,33.000000,26.000000,0.000000,0.559542,0.680591,0.263705,0.255949,0.290851,505.000000,471.000000,34.000000,33.000000,26.000000,0.000000:
// measure 0
0000
0000
0000
0000
,  // measure 1
0000
0000
0000
0000
,  // measure 2
0000
0000
0000
0000
,  // measure 3
0000
0000
0000
0000
,  // measure 4
0000
0000
0000
0000
,  // measure 5
1000
0000
0001
0100
0101
0000
1000
0000
,  // measure 6
0001
1000
0200
0000
0302
0000
1003
0010
,  // measure 7
0001
0001
2000
0000
3010
0000
0002
0000
,  // measure 8
0103
0000
2000
0000
3001
0000
0001
0001
,  // measure 9
0001
1000
0000
0000
0100
0000
1000
0000
0001
0000
0000
0000
0100
0000
0100
0000
,  // measure 10
0100
0001
1000
0000
0110
0000
0001
0001
,  // measure 11
0001
1000
0000
0000
0010
0000
1000
0000
0100
0000
0000
0000
0010
0000
0001
0000
,  // measure 12
1000
0001
0100
0000
1001
0000
0001
1000
,  // measure 13
0010
0100
1000
0100
0001
0100
0010
1000
,  // measure 14
0001
0010
1000
0010
0001
0100
0010
1000
,  // measure 15
0100
0010
0100
0010
0100
0010
0100
0010
0001
0010
0001
0010
0001
0010
0001
0010
,  // measure 16
0200
0000
0300
1010
,  // measure 17
1001
0000
0001
0010
1000
0001
0100
0010
,  // measure 18
0001
0000
1000
0000
0010
0000
1000
0000
0001
0000
0000
0000
1000
0010
1000
0010
,  // measure 19
1000
0010
M1M1
0000
0001
0010
11MM
0000
,  // measure 20
1000
0000
0010
0000
1MM1
0000
1000
0000
0010
0100
0001
1000
0020
0000
0030
0000
,  // measure 21
1001
0000
0001
0100
1000
0100
0010
0100
,  // measure 22
0001
0000
0010
0000
0001
0000
1000
0000
0100
0000
0000
0000
0010
0100
0010
0100
,  // measure 23
0010
0001
11MM
0000
0100
0010
1MM1
0000
,  // measure 24
1000
0001
0100
0010
1000
0001
0010
0100
1000
0020
0000
0000
,  // measure 25
0130
0100
0010
1000
0001
0010
1000
0010
,  // measure 26
0001
0100
0020
0000
2030
0000
3100
0100
,  // measure 27
1000
0010
0100
0001
0010
1000
0010
0100
,  // measure 28
1000
0001
0000
0000
0102
0000
0000
0000
0203
0000
0000
0000
0320
0000
0000
0000
,  // measure 29
0031
0010
0001
0010
1000
0010
0100
0001
,  // measure 30
1000
0100
0020
0000
0032
0000
0103
0100
,  // measure 31
0010
1000
0001
0100
1000
0001
0010
1000
,  // measure 32
2010
3100
1200
0310
0021
0130
1001
0000
,  // measure 33
1002
0000
0100
0000
1003
0000
0100
1000
,  // measure 34
1000
0000
0000
0000
0000
0000
0001
0000
0000
0000
0000
0000
0010
0000
0000
0000
0000
0000
1000
0000
0000
0000
0000
0000
0010
0000
0000
0100
0000
0000
1000
0000
0000
0000
0000
0000
1000
0000
0100
0000
1000
0000
0100
0000
0000
1000
0000
0000
,  // measure 35
0001
0000
0000
0000
0100
0000
0001
0000
1000
0001
0100
0000
0010
0000
0001
0000
,  // measure 36
1000
0000
0100
0000
0010
0000
0000
0000
1000
0000
1010
0000
0000
1001
0000
0000
,  // measure 37
0101
0001
1000
0010
0110
0000
0101
0001
,  // measure 38
1000
0000
0000
0000
0000
0000
0001
0000
0000
0000
0000
0000
0100
0000
0000
0000
0000
0000
0001
0000
0100
0000
0001
0000
0100
0000
0000
0001
0000
0000
0100
0000
0000
0000
0000
0000
0001
0000
0000
1000
0000
0000
0010
0000
0000
0100
0000
0000
,  // measure 39
0001
0000
0001
0000
1000
0000
0100
0000
0010
0100
1000
0000
0001
0000
1000
0000
,  // measure 40
0100
0010
0000
0000
0110
0000
0000
0000
0001
1000
0000
0000
0001
0000
0001
0000
,  // measure 41
0001
0010
0000
0000
0001
0000
1000
0000
0100
0000
0000
0000
0010
0000
0010
0000
,  // measure 42
0010
0001
1000
0000
1010
0000
1000
1000
,  // measure 43
1000
0100
0000
0000
0010
0000
0001
0000
1000
0000
0000
0000
0010
0000
0010
0000
,  // measure 44
0010
0100
0001
0000
1001
0000
0001
0001
,  // measure 45
0001
0100
1000
0100
0010
0100
0001
0010
,  // measure 46
1000
0000
0010
0000
0100
0000
1000
0000
0100
0010
0100
0010
0100
0000
1000
0000
,  // measure 47
0001
0100
0001
0100
0001
0100
0001
0100
0010
1000
0010
1000
0010
1000
0010
1000
,  // measure 48
0001
0020
0000
0000
0032
0000
0000
0000
2003
0000
0000
0000
3010
0000
0000
0000
,  // measure 49
1010
1000
1000
01M0
0100
0001
0M10
0010
,  // measure 50
1000
01M0
0100
0001
0M10
0010
1000
1000
,  // measure 51
1000
0000
0001
0100
0010
1000
0001
0100
0010
1000
0001
0100
0010
0000
0100
0000
,  // measure 52
0001
0000
1000
0100
0010
0001
1000
0100
0010
0001
1000
0100
2000
0000
0000
0000
,  // measure 53
3001
0001
0001
01M0
0100
1000
0M10
0010
,  // measure 54
0001
0000
01M0
0000
0100
0000
1000
0000
0M10
0000
0010
0000
0001
1000
0001
1000
,  // measure 55
0001
0000
1000
0010
0100
0001
1000
0010
0100
0001
1000
0010
0100
0000
0001
0000
,  // measure 56
1000
0100
0001
1000
0010
0100
1000
0001
0100
0020
0000
0000
,  // measure 57
1030
0010
M1M1
0001
0100
1000
0100
0010
,  // measure 58
0100
0001
0010
1000
0010
0100
1000
1000
,  // measure 59
0001
0100
0101
0M0M
1000
0100
2200
3300
,  // measure 60
0001
0000
1000
0000
1001
0000
M00M
0000
0100
0010
1000
0001
2000
0000
0000
0000
,  // measure 61
3100
0000
MM11
1000
0001
1000
0100
0001
,  // measure 62
0100
1000
0001
0100
0001
0010
0100
0100
,  // measure 63
0100
0000
2100
0000
3001
0020
0100
0130
,  // measure 64
1002
0000
0103
0020
1000
1030
2200
0000
,  // measure 65
3300
0000
0000
0000
;

//---------------dance-single - ----------------
#NOTES:
     dance-single:
     X-Scale 14 (DANCERUSH Special):
     Challenge:
     9:
     0.417717,0.579205,0.224925,0.325753,0.062048,377.000000,348.000000,29.000000,42.000000,190.000000,0.000000,0.417717,0.579205,0.224925,0.325753,0.062048,377.000000,348.000000,29.000000,42.000000,190.000000,0.000000:
0000
0000
0000
0000
,
0000
0000
0000
0000
,
0000
0000
0000
0000
,
0000
0000
0000
0000
,
0000
0000
0000
0000
,
2000
0000
0000
0000
3010
M0M0
0011
0000
,
0001
0010
2000
0000
3002
0000
0103
0000
,
1000
0001
2000
3000
MMMM
0000
2000
3000
,
MMMM
0000
2000
3000
0110
0000
0001
0100
,
0001
MMMM
0001
MMMM
0001
0000
1000
0100
,
1000
MMMM
1000
MMMM
1000
0000
0010
0100
,
0001
MMMM
0001
MMMM
0001
0000
0010
0100
,
1000
MMMM
1000
MMMM
1000
0000
0010
0100
,
0001
0010
1000
0001
0100
0010
0001
1000
,
0010
0100
0001
0010
0100
1000
0010
0001
,
0010
1000
0100
0001
1000
0010
0100
1000
,
2200
0000
0000
0000
0000
3300
LL00
0000
,
1001
0000
1000
0100
0010
MMMM
1000
0001
,
0100
0000
MMMM
0000
1000
0000
0001
0000
0010
0000
0000
0000
1100
0000
0100
1000
,
0100
0010
0011
0000
0001
0100
1010
0000
,
1000
0010
0001
0010
1000
0100
1100
0000
,
0101
0000
0001
0100
0010
MMMM
0001
1000
,
0100
0000
MMMM
0000
0001
0000
0010
0000
0100
0000
0000
0000
1001
0000
1000
0001
,
1000
0010
1010
0000
0001
0010
0011
0000
,
0001
0000
0000
0000
0010
0000
0000
0000
0001
0000
0000
0000
1000
0000
0000
0000
0010
0000
0000
0000
1000
0000
0000
0000
0001
0000
0000
0000
0010
0000
0000
0000
0001
0000
0000
0000
0022
0000
0000
0033
0000
0000
00MM
0000
0000
0000
0000
0000
,
1000
0001
1000
MMMM
1000
MMMM
1000
0000
,
0010
0100
0002
0000
0023
0000
1030
0010
,
0001
MMMM
0001
MMMM
0001
0010
1000
0010
,
0001
0000
1001
0000
1000
0010
0200
0000
,
1300
0100
1000
0100
0001
MMMM
0001
MMMM
,
0001
1000
0200
0000
2300
0000
3001
0100
,
0001
MMMM
0001
MMMM
0001
0000
0010
0100
,
2000
3200
0302
0023
,
2030
0000
3001
1001
,
0100
1100
1000
0001
,
0100
0001
0100
0000
0001
0000
0010
0000
,
0100
0000
1000
0000
0100
0000
0000
0000
1000
0000
1100
0000
0000
0101
0000
0000
,
1001
0000
1000
0001
1000
0000
0010
0000
,
0100
0001
0020
0000
0230
0000
1300
0000
,
0001
0100
0002
0003
MMMM
0000
0002
0003
,
MMMM
0000
0002
0003
0010
0000
0001
0100
,
0001
MMMM
0001
MMMM
0001
0000
1000
0100
,
1000
MMMM
1000
MMMM
1000
0000
0100
0010
,
0001
MMMM
0001
MMMM
0001
0000
0100
0010
,
1000
MMMM
1000
MMMM
1000
0000
0010
0100
,
0001
0100
1000
0100
0001
0010
1000
0010
,
0001
1000
0100
0001
1000
0010
0100
1000
,
0010
0001
1000
0100
0001
1000
0001
0010
,
0220
0000
0000
0000
0000
0330
0LL0
0000
,
0001
1000
0001
MMMM
0001
MMMM
0001
0M10
,
1000
MMMM
1000
MMMM
1000
01M0
0001
1000
,
0200
2000
3300
1000
0002
0103
0L0L
0000
,
2000
0020
3030
0000
0200
0301
0L0L
0000
,
1000
0100
1000
MMMM
1000
MMMM
1000
01M0
,
0001
MMMM
0001
MMMM
0001
01M0
1000
0100
,
0020
0002
0033
0001
2000
3010
L0L0
0000
,
0001
0000
0000
0000
0100
0000
0000
0000
0001
0000
0000
0000
1000
0000
0000
0000
0100
0000
0000
0000
1000
0000
0000
0000
0001
0000
0000
0000
0100
0000
0000
0000
0001
0000
0000
0000
0202
0000
0000
0303
0000
0000
0M0M
0000
0000
0000
0000
0000
,
1000
1000
1000
0100
0010
1000
0010
0001
,
0100
0001
0010
0100
1000
0010
0001
0010
,
1000
MMMM
1000
MMMM
1000
0001
1001
0000
,
0001
0000
MMMM
0000
0001
0000
MMMM
0000
0001
0000
0010
0000
0022
0033
00MM
0000
,
1000
0000
0001
0100
1000
0100
0001
0010
,
1000
0001
0100
0010
0001
1000
0010
0010
,
0100
0100
0001
0001
0010
0010
0100
0100
,
1000
0000
1000
0000
0001
0000
0001
0000
0100
0000
0000
0000
2002
0000
3003
M00M
;
