#VERSION:0.83;
#TITLE:Real feat. Cecelia;
#SUBTITLE:;
#ARTIST:Notion;
#TITLETRANSLIT:;
#SUBTITLETRANSLIT:;
#ARTISTTRANSLIT:;
#GENRE:Bassline;
#ORIGIN:;
#CREDIT:;
#BANNER:Real feat. Cecelia-bn.png;
#BACKGROUND:Real feat. Cecelia-bg.png;
#PREVIEWVID:;
#JACKET:Real feat. Cecelia-jacket.png;
#CDIMAGE:;
#DISCIMAGE:;
#LYRICSPATH:;
#CDTITLE:cdtitle.png;
#MUSIC:Real feat. Cecelia.ogg;
#OFFSET:-0.005000;
#SAMPLESTART:46.880001;
#SAMPLELENGTH:15.000000;
#SELECTABLE:YES;
#DISPLAYBPM:64.000000:128.000000;
#BPMS:0.000=64.000,
18.000=128.000,
50.000=64.000,
58.000=128.000,
72.000=256.000,
74.000=128.000;
#STOPS:72.000=0.117,
72.500=0.117,
73.000=0.117,
73.500=0.117;
#DELAYS:;
#WARPS:;
#TIMESIGNATURES:0.000=4=4;
#TICKCOUNTS:0.000=4;
#COMBOS:0.000=1;
#SPEEDS:0.000=1.000=0.000=0;
#SCROLLS:0.000=1.000;
#FAKES:;
#LABELS:0.000=Song Start;
#BGCHANGES:;
#KEYSOUNDS:;
#ATTACKS:
;

//---------------dance-single - ----------------
#NOTEDATA:;
#CHARTNAME:X-Scale 11;
#STEPSTYPE:dance-single;
#DESCRIPTION:;
#CHARTSTYLE:;
#DIFFICULTY:Hard;
#METER:8;
#RADARVALUES:0.502860,0.625197,0.042030,0.199643,0.320479,335.000000,331.000000,4.000000,19.000000,0.000000,0.000000,0.000000,0.000000,0.000000,0.502860,0.625197,0.042030,0.199643,0.320479,335.000000,331.000000,4.000000,19.000000,0.000000,0.000000,0.000000,0.000000,0.000000;
#CREDIT:;
#DISPLAYBPM:64.000000:128.000000;
#NOTES:
// measure 0
0000
0000
0000
0000
0000
0000
0000
0000
1100
0100
1000
0100
0010
0001
0100
0001
,  // measure 1
0010
0000
0100
0000
1000
0000
0010
0000
1000
0000
0000
0100
1000
0000
0000
0001
0100
0000
0010
0000
0200
0000
0000
0000
0000
0000
0000
0000
0301
0000
0100
0000
,  // measure 2
0020
0000
1030
0100
0000
1000
2000
0000
3010
0100
1000
0100
0001
0010
0001
0100
,  // measure 3
0010
1000
0100
0010
0001
0100
0001
0010
0100
1000
0020
0000
0030
0000
1000
0100
,  // measure 4
2000
0000
3001
0100
0000
0001
0002
0000
0013
0000
0000
0000
0001
0000
0000
0000
,  // measure 5
1000
0000
0000
0000
0010
0000
0000
0000
0200
0000
0000
0000
1000
0000
0300
0010
,  // measure 6
0100
0000
0010
0000
0100
0000
0001
0000
1000
0000
0020
0000
0100
0000
0030
0100
,  // measure 7
0020
0000
0000
0000
1030
0000
0200
0000
0000
0000
0300
0010
0200
0000
0000
0000
,  // measure 8
1300
0010
1000
0100
0010
0000
0001
0000
,  // measure 9
0100
0000
0000
0000
0010
0000
0000
0000
1000
0000
0000
0000
0001
0000
0000
1000
,  // measure 10
0100
0000
1000
0000
0010
0000
0100
0000
0001
0000
2000
0000
0010
0000
3000
0100
,  // measure 11
2000
0000
0000
0000
3001
0000
0002
0000
0100
0000
0003
0010
0002
0000
0000
0000
,  // measure 12
0013
0001
1000
0001
1000
0100
0010
0001
,  // measure 13
1000
0000
0000
0000
0000
0000
0000
0100
1000
0000
0000
0000
1000
0000
0000
0000
0000
0000
0010
0000
0010
0000
0000
0000
0100
0010
0100
0000
0000
0000
0010
0100
,  // measure 14
0010
0000
0000
0000
0100
0010
0100
0000
0000
0000
0000
0000
0010
0000
0000
0000
0110
0000
0000
0000
0100
0000
0000
0000
0010
0000
0000
0000
0100
0000
0000
0000
,  // measure 15
0010
1000
0001
1000
0001
0010
0100
0010
,  // measure 16
0100
1000
0010
1000
0010
0010
0010
0010
,  // measure 17
0100
0000
0100
0000
0100
0000
0100
0000
0001
0010
0100
1000
0001
0010
0100
1000
,  // measure 18
0001
0000
0100
0000
0010
0000
1000
0000
1001
0000
0000
0000
0001
0000
0100
0001
,  // measure 19
0100
0000
0010
0000
1000
0000
0000
0000
0010
0000
0000
0000
0100
0000
0001
0100
,  // measure 20
0001
0000
0010
0000
0100
0000
1000
0000
0010
0000
0000
0000
1000
0000
0100
0010
,  // measure 21
0100
0000
1000
0000
0001
0000
0100
0000
0001
0000
0000
0000
0001
0000
0100
0001
,  // measure 22
0100
0000
0010
0100
0010
0000
0010
0000
0110
0000
0100
0000
0001
0000
1000
0001
,  // measure 23
1000
0000
0100
0000
1000
0000
0000
0000
0010
0000
0000
0000
0100
0000
0010
0100
,  // measure 24
0010
0000
0001
0000
0010
0000
1000
0000
0100
0000
0000
0000
1000
0000
0001
1000
,  // measure 25
0001
0010
0100
1000
0010
0000
0100
0000
,  // measure 26
0001
0100
0010
1000
0001
0100
0010
1000
0001
0000
0000
0000
0100
0000
0010
0000
,  // measure 27
0100
0000
0001
0100
0001
0000
0001
0000
,  // measure 28
1000
0000
0010
0000
0001
0000
0010
0000
1000
0000
0000
0000
0100
0000
0010
0100
,  // measure 29
0010
0000
0001
0100
0001
0000
0010
0000
,  // measure 30
0100
0000
1000
0010
1000
0000
0100
0000
0010
0000
0000
0000
0001
0000
0010
0000
,  // measure 31
0100
0010
0001
0000
1000
0010
0100
0010
,  // measure 32
1000
0100
0010
0001
0100
0000
0010
0000
,  // measure 33
1000
0000
0001
0100
0010
0000
1000
0000
,  // measure 34
0001
0010
0100
1000
0001
0010
0100
1000
0100
0000
1000
0000
0010
0000
1000
0000
,  // measure 35
0100
0000
0010
0000
0001
0100
1000
0100
,  // measure 36
0001
0010
0001
0000
1000
0010
0100
0010
,  // measure 37
1000
0000
0100
0010
0002
0000
0203
0000
,  // measure 38
0301
0000
1000
0001
1000
0000
0010
0000
0100
0000
0000
0000
0001
0000
0010
0000
,  // measure 39
0001
0000
1000
0000
0010
0001
0010
1000
,  // measure 40
0010
0100
0001
0000
1000
0100
0010
0100
,  // measure 41
1000
0000
0001
0100
0020
0000
2030
0000
,  // measure 42
3100
0010
0100
0010
0100
0000
0000
0000
;

//---------------dance-single - ----------------
#NOTEDATA:;
#CHARTNAME:X-Scale 10;
#STEPSTYPE:dance-single;
#DESCRIPTION:;
#CHARTSTYLE:;
#DIFFICULTY:Medium;
#METER:7;
#RADARVALUES:0.394782,0.491226,0.031523,0.483346,0.141851,263.000000,260.000000,3.000000,46.000000,0.000000,0.000000,0.000000,0.000000,0.000000,0.394782,0.491226,0.031523,0.483346,0.141851,263.000000,260.000000,3.000000,46.000000,0.000000,0.000000,0.000000,0.000000,0.000000;
#CREDIT:;
#DISPLAYBPM:64.000000:128.000000;
#NOTES:
0000
0000
0000
0000
0000
0000
0000
0000
0101
0000
0001
0010
0100
0000
1000
0010
,
1000
0000
0000
0100
0000
0000
1000
0000
0000
0000
0001
0000
0000
0000
0001
0000
1000
0000
0100
0000
0010
0000
0000
0000
0000
0000
0000
0000
0001
0000
0100
0000
,
0001
0000
0000
0010
0000
0000
0001
0000
0000
0000
0000
0000
0002
0000
0000
0000
1003
0000
0000
0000
0010
0000
0100
0000
0001
0000
0000
0000
1000
0000
0100
0000
,
0010
0000
0000
0001
0000
0000
0100
0000
0000
0000
0001
0000
0000
0000
0001
0000
1000
0000
0100
0000
0010
0000
0000
0000
0000
0000
0000
0000
0001
0000
0100
0000
,
0001
0000
0000
1000
0000
0000
0010
0000
0000
0000
0000
0000
2000
0000
0000
0000
3100
0000
0000
0000
0000
0000
0000
0000
1000
0000
0000
0000
0000
0000
0000
0000
,
0010
0000
0000
0000
1000
0000
0000
0000
0100
0000
2000
0000
0100
0000
3000
0010
,
0200
0000
0001
0000
1300
0100
0010
0000
,
0001
0100
0010
0000
1000
0100
1000
0000
,
0001
0010
0100
0000
1000
0000
0010
0000
,
0001
0000
0000
0000
0010
0000
0000
0000
1000
0000
0200
0000
1000
0000
0300
0010
,
0002
0000
0100
0000
0013
0001
1000
0000
,
0010
0100
0001
0000
1000
0100
0010
0000
,
0001
0100
0010
0000
1000
0100
0010
0001
,
2000
0000
0000
0000
0000
0000
3000
0010
2000
0000
0000
0000
3200
0000
0000
0000
0300
0000
0010
0000
0010
0000
0000
0000
0001
0000
0001
0000
0000
0000
1000
0000
,
1000
0000
0010
0010
0000
0000
0100
0000
0110
0000
0000
0000
0010
0000
0000
0000
,
0100
0010
1000
0001
,
1000
0100
0010
0100
1000
0010
1000
0010
,
0100
0001
0100
0001
0010
0100
1000
0010
,
0100
0001
0010
0001
0021
0000
0032
0000
,
0203
0302
0023
0230
,
1300
0100
0001
0100
2000
0000
3020
0000
,
0230
0000
0301
0010
0200
0000
0320
0000
,
0130
1000
0001
1000
0100
0010
0002
0000
,
2003
3002
0023
0230
,
1300
0010
0001
0010
2000
0000
3200
0000
,
0320
0000
0031
0100
0020
0000
0230
0000
,
0301
0100
1000
0100
0001
0000
1000
0100
,
0010
0000
0100
0010
0001
0000
0001
0000
,
1000
0100
0010
0100
1000
0000
0001
0000
,
1000
0000
0010
0100
0002
0000
0203
0000
,
0301
0010
0100
1000
0001
0100
0002
0000
,
2003
3200
0320
0032
,
1003
0100
0001
0100
2000
0000
3020
0000
,
0230
0000
0301
0010
0200
0000
2300
0000
,
3001
1000
0100
1000
0010
0000
0001
0010
,
0100
0000
0100
0000
0010
0000
0001
0100
,
0001
0000
0001
0000
1000
0000
0100
0010
,
0100
0000
0100
1000
0002
0000
2003
0000
,
3100
0010
0001
1000
0001
0000
0100
0010
,
0100
0000
0100
0000
0001
0000
1000
0010
,
1000
0000
1000
0000
0001
0000
0010
0100
,
0010
0000
0001
1000
0200
0000
0320
0000
,
0031
0100
0001
0100
0001
0000
0000
0000
;

//---------------dance-single - ----------------
#NOTEDATA:;
#CHARTNAME:X-Scale 6;
#STEPSTYPE:dance-single;
#DESCRIPTION:;
#CHARTSTYLE:;
#DIFFICULTY:Easy;
#METER:4;
#RADARVALUES:0.319729,0.401912,0.021015,0.105075,0.031523,213.000000,211.000000,2.000000,10.000000,0.000000,0.000000,0.000000,0.000000,0.000000,0.319729,0.401912,0.021015,0.105075,0.031523,213.000000,211.000000,2.000000,10.000000,0.000000,0.000000,0.000000,0.000000,0.000000;
#CREDIT:;
#DISPLAYBPM:64.000000:128.000000;
#NOTES:
0000
0000
0000
0000
1100
0010
1000
0100
,
0010
0000
0100
0000
1000
0000
0010
0000
1000
0100
0020
0000
0000
0000
0031
0100
,
0002
2003
3000
0200
0310
0100
1000
0001
,
0100
0000
0010
0000
1000
0000
0100
0000
0010
0001
0020
0030
0000
0000
0001
0010
,
0200
2300
3000
0020
1030
0000
0010
0000
,
0100
0001
1000
0100
,
0010
0001
1000
0010
,
0100
0001
1000
0100
,
0010
0001
0001
0010
,
0100
1000
0001
0100
,
0010
1000
0001
0010
,
0100
1000
0001
0100
,
0010
0000
1000
0000
1000
0010
0100
0010
,
1000
0000
0000
0000
0002
0000
0203
0000
0300
0000
0001
0000
0000
0100
0000
0000
,
0010
0000
0000
1000
0000
0000
0001
0000
1000
0000
0000
0000
1000
0000
0000
0000
,
0100
0100
0010
0010
,
0001
0000
0001
0000
1000
0100
1000
0100
,
0010
0001
0010
0001
1000
0000
0010
0000
,
1000
0001
1001
1000
,
0001
0001
0100
0100
,
0001
0010
0001
0001
,
1000
1000
0010
0010
,
0100
0010
1000
0010
0100
0000
0001
0000
,
1000
1000
0100
0100
,
0010
0010
0001
0001
,
1000
1000
0001
0001
,
1000
0010
0100
0010
1000
0000
0001
0000
,
0100
0001
0010
0010
,
0100
1000
0010
1000
0100
0000
0010
0000
,
0001
0001
1000
1000
,
0001
0010
0100
0010
0001
0000
1000
0000
,
0010
0010
0100
0100
,
0001
1000
0010
1000
0001
0000
0100
0000
,
0010
0010
1000
1000
,
0100
0010
0001
0010
0100
0000
1000
0000
,
0010
1000
0100
0010
,
0001
0100
0001
0000
0010
0000
0100
0000
,
1000
0000
0001
0010
0100
0000
1000
0000
,
0010
0100
0001
0100
0010
0000
1000
0000
,
0001
1000
0100
0010
,
0001
0100
0001
0000
0010
0000
0001
0000
,
1000
0000
0001
0010
0100
0000
1000
0000
,
0001
0100
0001
0000
;

//---------------dance-single - ----------------
#NOTEDATA:;
#CHARTNAME:X-Scale 1;
#STEPSTYPE:dance-single;
#DESCRIPTION:;
#CHARTSTYLE:;
#DIFFICULTY:Beginner;
#METER:1;
#RADARVALUES:0.123088,0.111642,0.000000,0.000000,0.000000,82.000000,82.000000,0.000000,0.000000,0.000000,0.000000,0.000000,0.000000,0.000000,0.123088,0.111642,0.000000,0.000000,0.000000,82.000000,82.000000,0.000000,0.000000,0.000000,0.000000,0.000000,0.000000,0.000000;
#CREDIT:;
#DISPLAYBPM:64.000000:128.000000;
#NOTES:
0000
0000
0001
0000
,
1000
0000
0010
0000
,
0100
0000
0001
0000
,
0010
0000
0100
0000
,
1000
0000
0010
0000
,
1000
0000
0001
0000
,
1000
0000
0100
0000
,
0010
0000
0001
0000
,
0100
0000
0010
0000
,
1000
0000
0001
0000
,
1000
0000
0100
0000
,
0010
0000
0001
0000
,
1000
0000
0001
0000
,
0000
0000
0000
0000
,
0000
0000
1000
0000
,
0100
0000
0010
0000
,
0001
0000
1000
0000
,
0010
0000
0100
0000
,
0001
0000
1000
0000
,
0100
0000
1000
0000
,
0010
0000
0100
0000
,
0001
0000
1000
0000
,
0010
0000
0100
0000
,
0010
0000
1000
0000
,
0100
0000
0010
0000
,
0100
0000
1000
0000
,
0001
0000
0100
0000
,
0001
0000
1000
0000
,
0010
0000
0100
0000
,
0001
0000
1000
0000
,
0100
0000
0010
0000
,
0001
0000
1000
0000
,
0001
0000
0100
0000
,
0001
0000
1000
0000
,
0100
0000
1000
0000
,
0010
0000
0100
0000
,
0010
0000
1000
0000
,
0001
0000
0100
0000
,
0010
0000
1000
0000
,
0001
0000
0010
0000
,
0100
0000
1000
0000
,
0001
0000
1000
0000
,
0100
0000
0010
0000
;
