#VERSION:0.83;
#TITLE:Real Love;
#SUBTITLE:;
#ARTIST:Chris Lee -李宇春-;
#TITLETRANSLIT:;
#SUBTITLETRANSLIT:;
#ARTISTTRANSLIT:Chris Lee -Li Yuchun-;
#GENRE:Electro House;
#ORIGIN:;
#CREDIT:;
#BANNER:real love-bn.png;
#BACKGROUND:real love-bg.png;
#PREVIEWVID:;
#JACKET:real love-jacket.png;
#CDIMAGE:;
#DISCIMAGE:;
#LYRICSPATH:;
#CDTITLE:cdtitle.png;
#MUSIC:real love.ogg;
#OFFSET:-0.050000;
#SAMPLESTART:29.608000;
#SAMPLELENGTH:30.000000;
#SELECTABLE:YES;
#BPMS:0.000=130.000,
64.000=65.000,
80.000=130.000,
112.000=65.000,
144.000=130.000,
180.000=65.000;
#STOPS:;
#DELAYS:;
#WARPS:;
#TIMESIGNATURES:0.000=4=4;
#TICKCOUNTS:0.000=4;
#COMBOS:0.000=1;
#SPEEDS:0.000=1.000=0.000=0;
#SCROLLS:0.000=1.000;
#FAKES:;
#LABELS:0.000=Song Start;
#BGCHANGES:0.000=real love.mp4=1.000=0=0=1=====,
99999=-nosongbg-=1.000=0=0=0 // don't automatically add -songbackground-
;
#KEYSOUNDS:;
#ATTACKS:
;

//---------------dance-single - ----------------
#NOTEDATA:;
#CHARTNAME:;
#STEPSTYPE:dance-single;
#DESCRIPTION:;
#CHARTSTYLE:;
#DIFFICULTY:Hard;
#METER:8;
#RADARVALUES:0.400121,0.571061,0.231181,0.071133,0.213398,315.000000,289.000000,26.000000,8.000000,0.000000,0.000000,0.000000,0.000000,0.000000,0.400121,0.571061,0.231181,0.071133,0.213398,315.000000,289.000000,26.000000,8.000000,0.000000,0.000000,0.000000,0.000000,0.000000;
#CREDIT:;
#NOTES:
// measure 0
0000
0000
0000
0000
,  // measure 1
0000
0000
0000
0000
,  // measure 2
0000
0000
0000
0000
,  // measure 3
0000
0000
0000
0000
,  // measure 4
1000
0000
0000
0000
0001
0000
1000
0000
0010
0000
0001
0100
0001
0000
0100
0000
,  // measure 5
0000
0000
0000
0000
0001
0000
0010
0000
0100
0000
1000
0100
1000
0000
0010
0000
,  // measure 6
1000
0000
0001
1000
0001
0010
0100
1000
,  // measure 7
0001
1000
0101
0000
1100
0000
1001
0000
,  // measure 8
0011
0000
0001
0000
0001
0000
0100
0010
,  // measure 9
0000
0100
0000
0000
0001
0000
0000
0000
0001
0000
0000
0001
0000
0000
0010
0000
,  // measure 10
0100
1000
0100
0000
0010
0001
1000
0001
,  // measure 11
0000
0110
0011
1001
,  // measure 12
1100
0000
1000
0000
0010
0000
0100
0001
,  // measure 13
0000
0001
0000
0000
1000
0000
0000
0000
1000
0000
0000
1000
0000
0000
0100
0000
,  // measure 14
0001
0010
1000
0000
0001
0010
0100
1000
,  // measure 15
0000
1100
0110
0011
,  // measure 16
1001
0100
0010
0001
0010
0100
0010
0001
,  // measure 17
1000
0000
0000
0001
0100
0000
0010
0100
0000
0010
1000
0000
0100
0010
0100
0000
,  // measure 18
1000
0010
0100
0001
0010
0100
1000
0100
,  // measure 19
0010
0000
0000
0100
0010
0000
0100
1000
0000
0100
0010
0000
0001
0010
0100
0000
,  // measure 20
0101
0100
0010
0100
,  // measure 21
0001
1000
0001
1000
0010
1000
0010
1000
,  // measure 22
0101
0001
0010
0100
,  // measure 23
1000
0001
1000
0001
0100
0001
0100
0001
,  // measure 24
0110
0100
0001
0010
,  // measure 25
0001
0010
0100
1000
0100
0010
0001
0010
,  // measure 26
0101
0010
0100
1000
,  // measure 27
0010
1000
0010
0100
0001
1000
0001
0100
,  // measure 28
0101
0100
0001
0100
0000
0010
1000
0010
0100
0001
1000
0010
0100
0000
0100
0000
,  // measure 29
0100
0010
0100
0010
0000
0100
1000
0010
1000
0100
0010
0001
0010
0000
0010
0000
,  // measure 30
0100
0010
0001
0100
0000
0100
0010
0100
0001
1000
0010
0100
0010
0000
0010
0000
,  // measure 31
0100
0001
1000
0010
0000
0010
1000
0001
1000
0100
0010
0100
1000
0000
0001
0000
,  // measure 32
0002
0000
0000
0000
0103
0000
0001
1000
0000
0020
0000
0000
0130
0000
0010
0000
,  // measure 33
1100
0000
0010
0000
1000
0001
0010
0001
0000
0000
0010
0000
0100
0000
1000
0000
,  // measure 34
0200
0000
0000
0000
0000
0300
0010
0100
0000
2000
0000
3000
0100
0000
1000
0000
,  // measure 35
1100
0000
0010
0000
0100
0010
0100
0020
0000
0000
0000
0030
0010
0100
0010
0000
,  // measure 36
1010
0010
1000
0100
,  // measure 37
1000
0010
0001
0010
1000
0010
0001
0010
,  // measure 38
0110
0100
0010
1000
,  // measure 39
0001
0100
1000
0100
0001
0100
1000
0100
,  // measure 40
0110
0100
0010
1000
,  // measure 41
1000
0100
0010
0100
0010
0001
0010
0100
,  // measure 42
1001
0100
0010
0100
,  // measure 43
0001
1000
0010
0100
1000
0100
0001
1000
,  // measure 44
2010
0000
0000
0000
0100
0000
0000
0000
0010
0000
0000
0000
0100
0000
0001
3000
,  // measure 45
1001
0000
0000
0000
0000
2002
0000
0000
0000
0000
0000
0000
0000
0000
3003
0000
;

//---------------dance-single - ----------------
#NOTEDATA:;
#CHARTNAME:;
#STEPSTYPE:dance-single;
#DESCRIPTION:;
#CHARTSTYLE:;
#DIFFICULTY:Medium;
#METER:6;
#RADARVALUES:0.312475,0.387506,0.213398,0.080024,0.062241,246.000000,222.000000,24.000000,9.000000,0.000000,0.000000,0.000000,0.000000,0.000000,0.312475,0.387506,0.213398,0.080024,0.062241,246.000000,222.000000,24.000000,9.000000,0.000000,0.000000,0.000000,0.000000,0.000000;
#CREDIT:;
#NOTES:
// measure 0
0000
0000
0000
0000
,  // measure 1
0000
0000
0000
0000
,  // measure 2
0000
0000
0000
0000
,  // measure 3
0000
0000
0000
0000
,  // measure 4
1000
0000
0001
0000
0010
0001
0010
0100
,  // measure 5
0000
0000
0010
0000
0100
1000
0100
0010
,  // measure 6
0100
0000
0001
0010
0001
0010
0100
1000
,  // measure 7
0100
1000
0100
0000
0011
0000
1100
0000
,  // measure 8
0120
0000
0000
0000
0000
0000
0000
0000
1000
0000
0000
0030
0100
0000
0010
0000
,  // measure 9
0000
0100
0000
0000
1000
0000
0000
0000
1000
0000
0000
0000
0000
0000
0000
0000
,  // measure 10
0100
1000
0100
0000
0100
0010
0100
1000
,  // measure 11
0000
1001
0011
1100
,  // measure 12
0102
0000
0000
0000
0000
0000
0000
0000
0010
0000
0000
0003
0100
0000
0001
0000
,  // measure 13
0000
0001
1000
0000
1000
0000
0000
0000
,  // measure 14
0100
0010
0100
0000
0100
0001
0010
0100
,  // measure 15
0000
1100
0110
0011
,  // measure 16
1001
0001
1000
0001
1000
0010
0100
0001
,  // measure 17
0000
0000
0000
0100
0100
0000
0010
0010
0000
1000
0001
0000
0100
0010
0100
0000
,  // measure 18
0001
1000
0001
1000
0001
0100
0010
1000
,  // measure 19
0000
0000
0000
0010
0010
0000
0100
0100
0000
0100
0010
0000
0100
0001
1000
0000
,  // measure 20
0110
0100
0010
0100
,  // measure 21
0001
0100
1000
0100
,  // measure 22
0011
0100
0010
1000
,  // measure 23
0100
0010
0100
0010
,  // measure 24
1100
0010
0001
0010
,  // measure 25
0100
1000
0010
0100
,  // measure 26
0011
0100
0001
1000
,  // measure 27
0010
0100
0001
0010
,  // measure 28
1100
0010
0100
1000
0100
0010
0100
1000
,  // measure 29
0100
0010
0001
0010
0100
0010
0001
0010
,  // measure 30
0100
1000
0100
0010
0001
0010
1000
0010
,  // measure 31
0001
0010
0100
1000
0100
0010
0001
0010
,  // measure 32
0002
0000
0000
0000
0103
0000
0001
0100
0000
0020
0000
0000
0130
0000
0010
0000
,  // measure 33
0011
0010
0100
0010
0100
0010
0100
1000
,  // measure 34
0200
0000
0000
0000
0000
0300
0010
0100
0000
0020
0000
0030
0100
0000
1000
0000
,  // measure 35
1100
0010
0100
0001
0010
0100
0010
0001
,  // measure 36
1001
1000
0001
0010
,  // measure 37
0001
1000
0100
0010
,  // measure 38
0101
0100
0010
1000
,  // measure 39
0001
0010
0100
1000
,  // measure 40
1001
0100
0010
0100
,  // measure 41
1000
0010
0100
0001
,  // measure 42
0110
1000
0010
0001
,  // measure 43
0010
1000
0100
0010
,  // measure 44
0102
0010
0100
0010
,  // measure 45
1003
0000
0000
0000
0000
2002
0000
0000
0000
0000
0000
0000
0000
0000
3003
0000
;

//---------------dance-single - ----------------
#NOTEDATA:;
#CHARTNAME:;
#STEPSTYPE:dance-single;
#DESCRIPTION:;
#CHARTSTYLE:;
#DIFFICULTY:Beginner;
#METER:1;
#RADARVALUES:0.118131,0.142765,0.053349,0.151157,0.035566,93.000000,87.000000,6.000000,17.000000,0.000000,0.000000,0.000000,0.000000,0.000000,0.118131,0.142765,0.053349,0.151157,0.035566,93.000000,87.000000,6.000000,17.000000,0.000000,0.000000,0.000000,0.000000,0.000000;
#CREDIT:;
#NOTES:
// measure 0
0000
0000
0000
0000
,  // measure 1
0000
0000
0000
0000
,  // measure 2
0000
0000
0000
0000
,  // measure 3
0000
0000
0000
0000
,  // measure 4
1000
0000
0000
0000
0100
0000
0000
0010
,  // measure 5
0000
0001
0000
0000
,  // measure 6
0010
0000
0000
0100
,  // measure 7
0000
0010
0010
0010
,  // measure 8
0020
0000
0000
0000
0000
0000
0000
0000
0000
0000
0000
0030
0000
0000
0001
0000
,  // measure 9
0000
0001
0010
0000
,  // measure 10
0100
0000
0010
0000
,  // measure 11
0000
1000
0100
0010
,  // measure 12
0002
0000
0000
0000
0000
0000
0000
0000
0000
0000
0000
0003
0000
0000
1000
0000
,  // measure 13
0000
1000
0100
0000
,  // measure 14
0100
0000
0010
0000
,  // measure 15
0000
0001
0010
0100
,  // measure 16
2000
0000
0000
0000
0000
0000
0000
0000
0000
0000
0000
0000
0000
0000
0000
0000
0000
0000
0000
0000
0000
0000
0000
0000
0000
0000
0000
0000
0000
0000
0000
0000
0000
0000
0000
0000
0000
0000
0000
0000
0000
0000
0000
0000
0000
0000
0000
0000
0000
0000
0000
0000
0000
0000
0000
0000
0000
0000
0000
0000
0000
0000
0000
0000
0000
0000
0000
0000
0000
0000
0000
0000
0000
0000
0000
0000
0000
0000
3000
0000
0000
0000
0000
0000
0200
0000
0000
0000
0000
0000
0000
0000
0000
0000
0000
0000
0000
0000
0000
0000
0000
0000
0000
0000
0000
0000
0000
0000
0000
0000
0000
0000
0000
0000
0000
0000
0000
0000
0000
0000
0000
0000
0000
0000
0000
0000
0000
0000
0000
0000
0000
0000
0000
0000
0000
0000
0000
0000
0000
0000
0000
0000
0000
0000
0000
0000
0000
0000
0000
0000
0000
0000
0000
0000
0000
0000
0000
0000
0000
0000
0000
0000
0000
0000
0000
0000
0000
0000
0000
0000
0000
0000
0000
0000
0000
0000
0300
0000
0000
0000
0000
0000
0000
0000
0000
0000
0000
0000
0000
0000
0000
0000
,  // measure 17
0020
0000
0000
0000
0000
0000
0030
0002
0000
0000
0000
0000
0000
0000
0000
0003
,  // measure 18
0200
0000
0000
0000
0000
0000
0000
0000
0000
0000
0000
0000
0300
0000
0020
0000
0000
0000
0000
0000
0000
0000
0000
0000
0000
0000
0000
0000
0000
0000
0000
0030
,  // measure 19
2000
0000
0000
0000
0000
0000
0000
0000
0000
0000
0000
0000
0000
3000
0020
0000
0000
0000
0000
0000
0000
0000
0000
0000
0000
0000
0000
0000
0000
0000
0000
0030
,  // measure 20
0100
0000
0010
0000
,  // measure 21
1000
0000
0010
0000
,  // measure 22
0100
0000
0001
0000
,  // measure 23
0010
0000
0100
0000
,  // measure 24
1000
0000
0100
0000
,  // measure 25
0010
0000
0001
0000
,  // measure 26
0100
0000
0010
0000
,  // measure 27
1000
0000
0001
0000
,  // measure 28
0101
0000
0100
0000
,  // measure 29
0001
0000
0100
0000
,  // measure 30
1100
0000
0100
0000
,  // measure 31
0001
0000
0200
0000
,  // measure 32
0302
0100
0000
0003
,  // measure 33
1100
0000
0000
0000
0000
0000
0000
0100
0000
0000
0000
0000
0000
0000
0000
0000
,  // measure 34
0200
0000
0000
0000
0000
0000
0300
0020
0000
0000
0000
0030
0200
0000
0000
0000
,  // measure 35
0001
0000
0000
0000
0000
0000
0000
0010
0000
0000
0000
0000
0001
0000
0000
0000
,  // measure 36
0310
0000
1000
0000
,  // measure 37
0100
0000
0010
0000
,  // measure 38
1001
0000
0010
0000
,  // measure 39
0100
0000
0010
0000
,  // measure 40
0110
0000
0010
0000
,  // measure 41
1000
0000
0001
0000
,  // measure 42
1001
0000
0010
0000
,  // measure 43
0001
0000
0010
0000
,  // measure 44
0020
0000
0000
0000
,  // measure 45
0030
0000
0000
0000
0000
2000
0000
0000
0000
0000
0000
0000
0000
0000
3000
0000
;

//---------------dance-single - ----------------
#NOTEDATA:;
#CHARTNAME:;
#STEPSTYPE:dance-single;
#DESCRIPTION:;
#CHARTSTYLE:;
#DIFFICULTY:Easy;
#METER:3;
#RADARVALUES:0.204506,0.244741,0.106699,0.071133,0.026675,161.000000,149.000000,12.000000,8.000000,0.000000,0.000000,0.000000,0.000000,0.000000,0.204506,0.244741,0.106699,0.071133,0.026675,161.000000,149.000000,12.000000,8.000000,0.000000,0.000000,0.000000,0.000000,0.000000;
#CREDIT:;
#NOTES:
// measure 0
0000
0000
0000
0000
,  // measure 1
0000
0000
0000
0000
,  // measure 2
0000
0000
0000
0000
,  // measure 3
0000
0000
0000
0000
,  // measure 4
1000
0000
0100
0000
0010
0000
0010
0010
,  // measure 5
0000
0000
0010
0000
0001
0000
0001
0010
,  // measure 6
0100
0010
0001
1000
,  // measure 7
0001
0010
0100
0010
,  // measure 8
0020
0000
0000
0000
0000
0000
0000
0000
1000
0000
0000
0030
0100
0000
0010
0000
,  // measure 9
0000
0001
1000
0000
,  // measure 10
0001
0000
0100
0000
0010
0000
0100
0100
,  // measure 11
0000
0001
0010
0100
,  // measure 12
1002
0000
0000
0000
0000
0000
0000
0000
0010
0000
0000
0003
0100
0000
0010
0000
,  // measure 13
0000
1000
0001
0000
,  // measure 14
1000
0000
0010
0000
0100
0000
0010
0010
,  // measure 15
0000
1000
0100
0010
,  // measure 16
0011
0000
0010
0100
0010
0000
0001
1000
,  // measure 17
0200
0000
0000
0000
0000
0000
0300
0020
0000
0000
0000
0000
0000
0000
0000
0030
,  // measure 18
0001
0000
0010
0100
0010
0000
0001
1000
,  // measure 19
0020
0000
0000
0000
0000
0000
0030
2000
0000
0000
0000
0000
0000
0000
0000
3000
,  // measure 20
1001
0000
0001
0000
,  // measure 21
1000
0001
1000
0001
,  // measure 22
0011
0000
0100
0000
,  // measure 23
0010
0100
0010
0100
,  // measure 24
0110
0000
0010
0000
,  // measure 25
1000
0100
0010
0001
,  // measure 26
0011
0000
0100
0000
,  // measure 27
0001
0010
0100
1000
,  // measure 28
1100
0100
1000
0001
,  // measure 29
0100
0010
0100
0001
,  // measure 30
0010
0100
0010
1000
,  // measure 31
0100
1000
0001
0100
,  // measure 32
0010
0000
0000
0000
0001
0000
0000
0010
0000
0000
0000
0000
0100
0000
0010
0000
,  // measure 33
0100
0000
0000
0000
0001
0000
0000
0100
0000
0000
0000
0000
0010
0000
0100
0000
,  // measure 34
0010
0000
1000
0000
0100
0000
0100
0010
,  // measure 35
0100
0000
0000
0000
0001
0000
0000
0010
0000
0000
0000
0000
0001
0000
0100
0000
,  // measure 36
0101
0000
0100
0000
,  // measure 37
0100
0001
1000
0010
,  // measure 38
0011
0000
0001
0000
,  // measure 39
0100
0001
0010
0100
,  // measure 40
1010
0000
0100
0000
,  // measure 41
0010
0001
0100
0010
,  // measure 42
1100
0000
0010
0000
,  // measure 43
1000
0100
0010
0001
,  // measure 44
2001
0000
0010
0000
,  // measure 45
3001
0000
0000
0000
0000
0200
0000
0000
0000
0000
0000
0000
0000
0000
0300
0000
;
