#TITLE:Рано-Раненько;
#SUBTITLE:;
#ARTIST:Go_A;
#TITLETRANSLIT:Rano-Ranen'ko;
#SUBTITLETRANSLIT:;
#ARTISTTRANSLIT:;
#GENRE:Folktronica;
#CREDIT:;
#BANNER:Rano-Ranen'ko-bn.png;
#BACKGROUND:Rano-Ranen'ko-bg.png;
#LYRICSPATH:;
#CDTITLE:cdtitle.png;
#MUSIC:Rano-Ranen'ko.ogg;
#OFFSET:0.000000;
#SAMPLESTART:15.000000;
#SAMPLELENGTH:15.000000;
#SELECTABLE:YES;
#BPMS:0.000000=128.000000
;
#STOPS:
;
#BGCHANGES:;
#KEYSOUNDS:;
#ATTACKS:;

//---------------dance-single - ----------------
#NOTES:
     dance-single:
     X-Scale 11:
     Hard:
     8:
     0.440391,0.528635,0.085201,0.077456,0.092947,398.000000,387.000000,11.000000,10.000000,0.000000,0.000000,0.440391,0.528635,0.085201,0.077456,0.092947,398.000000,387.000000,11.000000,10.000000,0.000000,0.000000:
// measure 0
0000
0000
0000
0000
,  // measure 1
0000
0000
0000
0000
,  // measure 2
0000
0000
0000
0000
,  // measure 3
0000
0000
0000
0000
,  // measure 4
0001
0010
0100
1000
,  // measure 5
0001
0100
0010
1000
,  // measure 6
0100
0001
0100
0010
,  // measure 7
0002
0000
0000
0000
,  // measure 8
1003
0001
0100
0010
1000
0100
0010
0000
,  // measure 9
0001
0100
0010
0100
0001
0010
0100
0000
,  // measure 10
1000
0000
0100
1000
0001
0000
0100
0000
,  // measure 11
1000
0000
0100
1000
0001
0000
0100
0000
,  // measure 12
0101
0001
0010
1000
0010
0100
1000
0000
,  // measure 13
0001
0100
0010
0100
1000
0100
0010
0000
,  // measure 14
1000
0000
0100
1000
0001
0000
0010
0000
,  // measure 15
1000
0000
0100
1000
0001
0000
0010
0000
,  // measure 16
0100
0000
0000
0000
1001
0000
0001
0000
1000
0000
0001
0010
0100
0000
0010
0000
,  // measure 17
0001
0000
0000
0000
1000
0000
0010
0000
0100
0000
0010
1000
0100
0000
0010
0000
,  // measure 18
0001
0000
0100
0010
0100
0000
0001
0000
1000
0000
0010
0000
0001
0000
0010
0000
,  // measure 19
1000
0000
0001
0010
0001
0000
0100
0000
0010
0000
0100
0000
1000
0000
0100
0000
,  // measure 20
0010
0000
0000
0000
1001
0000
1000
0000
0100
0000
1000
0001
0100
0000
0010
0000
,  // measure 21
1000
0000
0000
0000
0001
0000
0100
0000
0010
0000
0001
0010
1000
0000
0010
0000
,  // measure 22
0100
0000
0001
1000
0001
0000
0010
0000
1000
0000
0010
0000
0100
0000
0010
0000
,  // measure 23
0001
0000
1000
0010
1000
0000
0010
0000
0001
0000
0010
0000
1000
0000
0001
0000
,  // measure 24
1000
0100
1000
0100
,  // measure 25
1100
1000
0010
0100
,  // measure 26
0002
0010
2003
0100
,  // measure 27
3020
0001
0230
0001
,  // measure 28
0310
0100
0001
1000
,  // measure 29
0010
1000
0001
0010
,  // measure 30
0200
0000
2300
3000
,  // measure 31
0002
0000
2003
0000
,  // measure 32
3100
1000
0001
0100
,  // measure 33
0001
0100
0001
0000
1000
0100
1000
0000
,  // measure 34
0100
0010
0100
0000
1000
0010
1000
0000
,  // measure 35
0001
0100
0001
0000
0010
0100
0010
0000
,  // measure 36
0001
1000
0001
0000
1000
0010
1000
0000
,  // measure 37
0100
0010
0001
0010
1000
0010
0100
1000
,  // measure 38
0001
0100
0010
0100
0001
1000
0010
0001
,  // measure 39
0010
0100
0010
1000
0001
0100
0010
0100
,  // measure 40
0002
0000
0000
1003
,  // measure 41
1100
1000
0100
1000
0001
0010
0100
0000
,  // measure 42
1000
0100
0001
0100
0010
0001
0100
0000
,  // measure 43
0001
0000
0010
0001
1000
0000
0100
0000
,  // measure 44
0001
0000
0010
0001
1000
0000
0100
0000
,  // measure 45
1000
0000
1010
0000
1000
0001
0100
0000
,  // measure 46
0010
0000
0101
0000
0001
0010
0100
0000
,  // measure 47
1000
0000
0100
1000
0001
0000
1001
0000
,  // measure 48
1000
0000
0100
1000
0001
0000
1001
0000
,  // measure 49
0010
0000
1000
0100
1000
0000
0001
0000
0010
0000
0100
0010
0100
0000
1000
0000
,  // measure 50
0001
0000
1000
0010
1000
0000
0001
0000
0100
0000
0010
0100
0010
0000
1000
0000
,  // measure 51
0001
0000
0100
0010
0100
0000
0001
0000
0010
0000
0100
0010
0100
0000
1000
0000
,  // measure 52
0001
0000
0100
0001
0100
0000
0010
0000
1000
0000
0100
1000
0100
0000
0010
0000
,  // measure 53
0001
0000
1000
0010
1000
0000
0001
0000
0010
0000
0100
1000
0100
0000
0010
0000
,  // measure 54
0001
0000
0100
0010
0100
0000
0001
0000
0010
0000
0100
0010
0100
0000
1000
0000
,  // measure 55
0001
0000
0100
0010
0100
0000
0001
0000
1000
0000
0001
0100
0001
0000
0010
0000
,  // measure 56
0100
0000
1000
0010
1000
0000
0100
0000
0010
0000
0001
0010
0001
0000
0000
0000
,  // measure 57
1001
1000
0010
0100
0010
0001
0010
0100
,  // measure 58
0010
1000
0100
0001
0100
1000
0010
1000
,  // measure 59
0001
0000
0010
0001
1000
0000
0100
0000
,  // measure 60
0001
0000
0010
0001
1000
0000
0100
0000
,  // measure 61
0001
0100
0010
0100
1000
0100
0001
0100
,  // measure 62
0010
1000
0010
0100
0001
0010
1000
0010
,  // measure 63
0001
0000
0100
0001
1000
0000
0010
0000
,  // measure 64
0001
0000
0100
0001
1000
0000
0010
0000
,  // measure 65
1001
0000
0000
0000
;

//---------------dance-single - ----------------
#NOTES:
     dance-single:
     X-Scale 7:
     Medium:
     5:
     0.315355,0.402770,0.069710,0.139420,0.000000,285.000000,276.000000,9.000000,18.000000,0.000000,0.000000,0.315355,0.402770,0.069710,0.139420,0.000000,285.000000,276.000000,9.000000,18.000000,0.000000,0.000000:
0000
0000
0000
0000
,
0000
0000
0000
0000
,
0000
0000
0000
0000
,
0000
0000
0000
0000
,
2000
0100
0010
0001
,
0010
0100
0010
0001
,
3020
0001
0100
1000
,
2000
0000
0000
0000
0000
0000
0000
3030
,
1010
0000
1000
0000
0001
0100
0001
0000
,
0010
0000
0100
0000
1000
0100
1000
0000
,
0010
0000
1000
0010
0100
0000
0001
0000
,
1000
0000
0010
1000
0001
0000
0100
0000
,
0101
0000
0001
0000
0010
0100
1000
0000
,
0001
0000
1000
0000
0100
0010
0001
0000
,
1000
0000
0010
1000
0001
0000
0100
0000
,
0001
0000
1000
0001
0010
0000
0100
0000
,
1000
0000
1010
0000
1000
0001
0100
0001
,
1000
0000
0100
0000
0010
0100
1000
0001
,
0100
0000
0010
0100
0001
0000
1000
0000
,
0100
0000
0010
0100
1000
0000
0001
0000
,
0100
0000
0110
0000
0010
1000
0001
1000
,
0100
0000
0010
0000
0001
1000
0010
1000
,
0001
0000
0100
0010
1000
0000
0001
0000
,
0100
0000
0010
1000
0001
0000
0010
0000
,
0001
0000
1000
0000
,
1001
1000
0010
1000
,
0002
0000
0023
0000
,
2030
0000
3200
0000
,
0301
0010
0200
0000
,
1300
0001
0100
0001
,
2000
0000
3200
0300
,
0020
0000
0032
0000
,
0103
0001
1000
0010
,
0100
0001
0010
0100
,
2000
0000
3200
0000
,
0302
0000
0023
0000
,
1030
0001
0010
0001
,
1000
0010
0100
0010
,
2000
0000
3001
0020
,
0001
0000
0000
0000
,
0100
0000
0000
0000
,
0031
0000
0010
0000
0001
1000
0001
0000
,
0010
0000
0100
0000
1000
0100
1000
0000
,
0001
0000
0100
0001
1000
0000
0001
0000
,
0100
0000
0010
0100
0001
0000
0010
0000
,
0100
0000
1100
0000
1000
0001
1000
0000
,
0010
0000
0100
0000
0001
0010
0001
0000
,
1000
0000
0010
1000
0001
0000
0100
0000
,
0010
0000
1000
0100
0010
0000
0011
0000
,
0001
1000
0010
0100
0001
0010
0001
0000
,
1000
0010
0001
0010
0100
0010
1000
0000
,
0001
0000
0100
0001
1000
0000
0100
0000
,
0010
0000
0001
1000
0010
0000
0100
0000
,
0001
0100
1000
0001
0010
1000
0001
0000
,
1000
0100
0001
0100
0010
0001
1000
0000
,
0010
0000
1000
0001
0100
0000
0001
0000
,
1000
0000
0100
1000
0001
0000
0100
0000
,
1001
0000
1000
0010
1000
0000
0001
0100
,
0001
0000
0100
0010
0100
0000
0001
0010
,
0001
0000
1000
0010
1000
0000
0001
0000
,
0010
0000
0100
0010
0100
0000
1000
0000
,
0001
0000
0010
0100
1000
0000
0010
1000
,
0001
0000
0100
0010
1000
0000
0001
0100
,
0001
0000
0010
0100
1000
0000
0100
0000
,
0010
0000
0001
1000
0010
0000
1000
0000
,
1001
0000
0000
0000
;

//---------------dance-single - ----------------
#NOTES:
     dance-single:
     X-Scale 5:
     Easy:
     3:
     0.152698,0.235853,0.038728,0.000000,0.000000,138.000000,133.000000,5.000000,0.000000,0.000000,0.000000,0.152698,0.235853,0.038728,0.000000,0.000000,138.000000,133.000000,5.000000,0.000000,0.000000,0.000000:
0000
0000
0000
0000
,
0000
0000
0000
0000
,
0000
0000
0000
0000
,
0000
0000
0000
0000
,
1000
0000
0010
0000
,
0100
0000
0001
0000
,
0010
0000
0100
0000
,
1000
0000
0000
0000
,
1001
0000
0001
0000
,
0010
0000
0100
0000
,
1000
0000
0001
1000
,
0001
0000
1000
0001
,
1000
0000
0010
0000
,
0100
0000
0001
0000
,
0100
0000
0010
0100
,
0010
0000
0100
0010
,
0100
0000
0001
0000
1000
0000
0010
0100
,
0010
0000
1000
0000
0100
0000
0010
0001
,
0010
0000
0001
0000
1000
0000
0010
1000
,
0010
0000
0100
0000
0001
0000
0010
0100
,
0010
0000
0001
0000
1000
0000
0010
1000
,
0010
0000
0100
0000
0001
0000
0010
0001
,
0010
0000
0100
0000
1000
0000
0010
0100
,
0010
0000
1000
0000
0001
0000
0100
0001
,
0100
0000
0000
0000
,
1001
0000
0000
0000
,
0001
0000
1000
0000
,
0001
0000
0010
0000
,
0100
0000
0010
0000
,
0001
0000
0000
0000
,
1000
0000
0010
0000
,
1000
0000
0001
0000
,
0100
0000
0001
0000
,
1000
0000
0000
0000
,
0100
0000
0010
0000
,
0001
0000
1000
0000
,
0010
0000
0100
0000
,
0001
0000
0000
0000
,
0010
0000
0000
0000
,
0100
0000
0000
0000
,
1000
0000
0000
0000
,
1001
0000
0001
1000
,
0001
0000
0010
0100
,
1000
0000
0100
0010
,
0001
0000
0010
0100
,
1000
0000
1100
0000
0100
0010
0001
0000
,
1000
0000
0010
0000
0100
0001
0010
0000
,
0100
1000
0001
0100
,
0010
1000
0001
0100
,
1001
0000
1000
0000
0001
0100
0001
0000
,
0010
0000
0100
0000
1000
0100
1000
0000
;

//---------------dance-single - ----------------
#NOTES:
     dance-single:
     X-Scale 1:
     Beginner:
     1:
     0.063071,0.095271,0.023237,0.000000,0.000000,57.000000,54.000000,3.000000,0.000000,0.000000,0.000000,0.063071,0.095271,0.023237,0.000000,0.000000,57.000000,54.000000,3.000000,0.000000,0.000000,0.000000:
0000
0000
0000
0000
,
0000
0000
0000
0000
,
0000
0000
0000
0000
,
0000
0000
0000
0000
,
0001
0000
0000
0000
,
0010
0000
0000
0000
,
0100
0000
0000
0000
,
1000
0000
0000
0000
,
1001
0000
1000
0000
,
0001
0000
1000
0000
,
0100
0000
1000
0000
,
0001
0000
0100
0000
,
0001
0000
0010
0000
,
0100
0000
0010
0000
,
0001
0000
1000
0000
,
0010
0000
1000
0000
,
0001
0000
0010
0000
,
0001
0000
1000
0000
,
0100
0000
1000
0000
,
0001
0000
0100
0000
,
0001
0000
0010
0000
,
0100
0000
0010
0000
,
0001
0000
1000
0000
,
0100
0000
1000
0000
,
0001
0000
0000
0000
,
1001
0000
0000
0000
,
1000
0000
0000
0000
,
0100
0000
0000
0000
,
1000
0000
0000
0000
,
0001
0000
0000
0000
,
0100
0000
0000
0000
,
0010
0000
0000
0000
,
0100
0000
0000
0000
,
0001
0000
0000
0000
,
1000
0000
0000
0000
,
0010
0000
0000
0000
,
1000
0000
0000
0000
,
0001
0000
0000
0000
,
0010
0000
0000
0000
,
0100
0000
0000
0000
,
1000
0000
0000
0000
,
1001
0000
0000
0000
;
