#TITLE:RUN & RUN;
#SUBTITLE:;
#ARTIST:H93;
#TITLETRANSLIT:;
#SUBTITLETRANSLIT:;
#ARTISTTRANSLIT:;
#GENRE:H93Techno;
#CREDIT:;
#BANNER:RUN & RUN-bn.png;
#BACKGROUND:RUN & RUN-bg.png;
#LYRICSPATH:;
#CDTITLE:cdtitle.png;
#MUSIC:RUN & RUN.ogg;
#OFFSET:-0.003000;
#SAMPLESTART:22.403000;
#SAMPLELENGTH:12.800000;
#SELECTABLE:YES;
#BPMS:0.000000=150.000000
;
#STOPS:
;
#BGCHANGES:0.000=RUN & RUN.avi=1.000=1=0=0=StretchNoLoop==CrossFade==,
99999=-nosongbg-=1.000=0=0=0 // don't automatically add -songbackground-
;
#KEYSOUNDS:;
#ATTACKS:;

//---------------dance-single - ----------------
#NOTES:
     dance-single:
     X-Scale 3:
     Beginner:
     2:
     0.113089,0.183323,0.013888,0.000000,0.000000,114.000000,112.000000,2.000000,0.000000,0.000000,0.000000,0.113089,0.183323,0.013888,0.000000,0.000000,114.000000,112.000000,2.000000,0.000000,0.000000,0.000000:
// measure 0
0000
0000
0000
0000
,  // measure 1
0000
0000
0000
0000
,  // measure 2
0000
0000
0000
0000
,  // measure 3
0000
0000
0000
0000
,  // measure 4
0001
0000
0000
0000
,  // measure 5
0000
0000
0000
0000
,  // measure 6
1000
0000
0000
0000
,  // measure 7
0000
0000
0000
0000
,  // measure 8
0000
0000
0000
0000
,  // measure 9
0000
0000
0000
0000
,  // measure 10
0100
0000
0000
0000
,  // measure 11
0010
0000
0000
0000
,  // measure 12
0100
0000
0000
0000
,  // measure 13
0010
0000
0000
0000
,  // measure 14
0001
0000
1000
0000
,  // measure 15
0001
0000
1000
0000
,  // measure 16
0010
0000
0100
0000
,  // measure 17
0010
0000
0100
0000
,  // measure 18
0001
0000
1000
0000
,  // measure 19
0001
0000
1000
0000
,  // measure 20
0100
0000
0010
0000
,  // measure 21
0100
0000
0010
0000
,  // measure 22
0001
0000
1000
0000
,  // measure 23
0001
0000
1000
0000
,  // measure 24
0010
0000
0100
0000
,  // measure 25
0010
0000
0100
0000
,  // measure 26
0001
0000
1000
0000
,  // measure 27
0001
0000
1000
0000
,  // measure 28
0100
0000
0010
0000
,  // measure 29
0100
0000
0010
0000
,  // measure 30
0001
0000
1000
0000
,  // measure 31
0001
0000
1000
0000
,  // measure 32
0010
0000
0100
0000
,  // measure 33
0010
0000
0100
0000
,  // measure 34
0001
0000
1000
0000
,  // measure 35
0001
0000
1000
0000
,  // measure 36
0100
0000
0010
0000
,  // measure 37
0100
0000
0010
0000
,  // measure 38
0001
0000
0000
0000
,  // measure 39
0000
0000
0000
0000
,  // measure 40
0000
0000
0000
0000
,  // measure 41
0000
0000
0000
0000
,  // measure 42
1000
0000
0000
0000
,  // measure 43
0000
0000
0000
0000
,  // measure 44
0000
0000
0000
0000
,  // measure 45
0000
0000
0000
0000
,  // measure 46
1001
0000
0000
0000
,  // measure 47
0000
0000
0000
0000
,  // measure 48
0000
0000
0000
0000
,  // measure 49
0000
0000
0000
0000
,  // measure 50
1000
0000
0000
0000
,  // measure 51
0001
0000
0000
0000
,  // measure 52
1000
0000
0000
0000
,  // measure 53
0001
0000
0000
0000
,  // measure 54
0000
0000
0000
0000
,  // measure 55
0000
0000
0000
0000
,  // measure 56
0000
0000
0000
0000
,  // measure 57
0000
0000
0000
0000
,  // measure 58
0000
0000
0000
0000
,  // measure 59
0000
0000
0000
0000
,  // measure 60
0010
0000
0000
0000
,  // measure 61
0000
0000
0000
0000
,  // measure 62
0100
0000
0000
0000
,  // measure 63
0000
0000
0000
0000
,  // measure 64
1000
0000
0001
0000
,  // measure 65
1000
0000
0001
0000
,  // measure 66
0100
0000
0010
0000
,  // measure 67
0100
0000
0010
0000
,  // measure 68
1000
0000
0001
0000
,  // measure 69
1000
0000
0001
0000
,  // measure 70
0010
0000
0100
0000
,  // measure 71
0010
0000
0100
0000
,  // measure 72
1000
0000
0001
0000
,  // measure 73
1000
0000
0001
0000
,  // measure 74
0100
0000
0010
0000
,  // measure 75
0100
0000
0010
0000
,  // measure 76
1000
0000
0001
0000
,  // measure 77
1000
0000
0001
0000
,  // measure 78
0010
0000
0100
0000
,  // measure 79
0010
0000
0100
0000
,  // measure 80
1000
0000
0001
0000
,  // measure 81
1000
0000
0001
0000
,  // measure 82
0100
0000
0010
0000
,  // measure 83
0100
0000
0010
0000
,  // measure 84
1000
0000
0001
0000
,  // measure 85
1000
0000
0001
0000
,  // measure 86
0010
0000
0100
0000
,  // measure 87
0010
0000
0100
0000
,  // measure 88
0110
0000
0000
0000
;

//---------------dance-single - ----------------
#NOTES:
     dance-single:
     X-Scale 8:
     Easy:
     6:
     0.286690,0.397200,0.055552,0.062497,0.000000,289.000000,281.000000,8.000000,9.000000,0.000000,0.000000,0.286690,0.397200,0.055552,0.062497,0.000000,289.000000,281.000000,8.000000,9.000000,0.000000,0.000000:
// measure 0
0000
0000
0000
0000
,  // measure 1
0000
0000
0000
0000
,  // measure 2
0000
0000
0000
0000
,  // measure 3
0000
0000
0000
0000
,  // measure 4
1000
0000
0000
0000
,  // measure 5
0001
0000
0000
0000
,  // measure 6
1000
0000
0000
0000
,  // measure 7
0001
0000
0000
0000
,  // measure 8
0000
0000
0000
0000
,  // measure 9
0000
0000
0000
0000
,  // measure 10
0010
0000
0000
0000
,  // measure 11
0100
0000
0000
0000
,  // measure 12
0010
0000
0000
0000
,  // measure 13
0200
0000
0000
0000
0000
0000
2300
3000
,  // measure 14
1100
0100
1000
0001
,  // measure 15
1000
0100
1000
0001
,  // measure 16
0100
0001
1000
0001
,  // measure 17
0100
0000
0001
0000
1000
0000
0100
0100
,  // measure 18
0100
0010
0100
1000
,  // measure 19
0100
0010
0100
1000
,  // measure 20
0001
0100
0010
0100
,  // measure 21
0002
0100
1000
0023
,  // measure 22
0130
0010
0001
0000
1000
0001
0100
0000
,  // measure 23
0001
0001
1000
1000
,  // measure 24
0001
0100
0010
0000
0100
0010
1000
0000
,  // measure 25
0001
0001
1000
1000
,  // measure 26
0100
0010
0001
0000
0010
0100
1000
0000
,  // measure 27
0001
0001
1000
1000
,  // measure 28
0010
1000
0001
0000
0100
0001
1000
0000
,  // measure 29
0001
0000
0001
0000
1000
0001
2000
0000
,  // measure 30
3100
0010
0001
0000
0100
0010
1000
0000
,  // measure 31
0001
0001
1000
1000
,  // measure 32
0010
0100
0001
0000
0010
0100
1000
0000
,  // measure 33
0001
0001
1000
1000
,  // measure 34
0100
0010
0001
0000
0100
0010
1000
0000
,  // measure 35
0001
0001
1000
1000
,  // measure 36
1001
0000
0110
0000
,  // measure 37
1001
0001
1000
0001
,  // measure 38
1001
0000
0000
0000
,  // measure 39
1000
0000
0000
0000
,  // measure 40
0001
0000
0000
0000
,  // measure 41
1000
0000
0000
0000
,  // measure 42
0001
0000
0000
0000
,  // measure 43
0010
0000
0000
0000
,  // measure 44
0100
0000
0000
0000
,  // measure 45
0010
0000
0000
0000
,  // measure 46
0110
0000
0000
0000
,  // measure 47
0000
0000
0000
0000
,  // measure 48
1000
0000
0000
0000
,  // measure 49
0000
0000
0000
0000
,  // measure 50
0001
0000
0100
0000
,  // measure 51
0010
0000
1000
0000
,  // measure 52
0100
0010
0001
1000
,  // measure 53
0001
0100
0010
1000
,  // measure 54
0000
0000
0000
0000
,  // measure 55
0000
0000
0000
0000
,  // measure 56
0001
0000
0000
0000
,  // measure 57
1000
0000
0010
0000
,  // measure 58
1000
0000
0000
0000
,  // measure 59
0001
0000
0010
0000
,  // measure 60
0001
0000
1000
0000
,  // measure 61
0001
0000
1000
0000
,  // measure 62
0100
0000
0010
0000
,  // measure 63
0100
0000
0010
0000
,  // measure 64
1001
0000
0001
0100
0001
0000
1000
0000
,  // measure 65
0100
0000
1000
0001
0100
0000
0100
0001
,  // measure 66
1000
0000
0100
0010
0001
0000
1000
0000
,  // measure 67
0001
0000
1000
0001
0100
0000
0100
0001
,  // measure 68
1000
0000
0001
0010
0100
0000
0010
0000
,  // measure 69
0001
0000
1000
0100
0010
0000
0100
0010
,  // measure 70
0001
0000
1000
0001
0100
0000
0001
0000
,  // measure 71
2000
0010
0001
3200
,  // measure 72
0310
0100
1000
0000
0001
1000
0010
0000
,  // measure 73
0100
0010
1000
0000
0001
0010
0100
0000
,  // measure 74
0010
0001
1000
0000
0100
0010
0001
0000
,  // measure 75
1000
0001
0100
0000
0010
0100
0001
0000
,  // measure 76
0010
0100
1000
0000
0010
0100
0001
0000
,  // measure 77
1000
0100
0010
0000
0100
0010
0001
0000
,  // measure 78
1000
0001
0100
0000
0010
0100
0001
0000
,  // measure 79
0010
0100
1000
0000
0001
0001
0200
0000
,  // measure 80
0320
1030
0001
0100
,  // measure 81
0001
0000
1000
0000
0100
0000
0100
0010
,  // measure 82
0001
1000
0001
0100
,  // measure 83
0010
0000
0100
0000
0001
0000
0010
0100
,  // measure 84
1000
0000
0001
1000
0001
0000
0100
0010
,  // measure 85
0100
0000
0001
0000
1000
0000
0100
0010
,  // measure 86
0001
0000
1000
0000
,  // measure 87
0001
0010
0100
1000
,  // measure 88
1100
0000
0000
0000
;

//---------------dance-single - ----------------
#NOTES:
     dance-single:
     X-Scale 13:
     Medium:
     9:
     0.478148,0.648922,0.236098,0.256930,0.093745,482.000000,448.000000,34.000000,37.000000,0.000000,0.000000,0.478148,0.648922,0.236098,0.256930,0.093745,482.000000,448.000000,34.000000,37.000000,0.000000,0.000000:
// measure 0
0000
0000
0000
0000
,  // measure 1
0000
0000
0000
0000
,  // measure 2
0000
0000
0000
0000
,  // measure 3
0000
0000
0000
0000
,  // measure 4
1000
1000
0001
0001
,  // measure 5
0100
0100
0010
0010
,  // measure 6
1000
1000
0001
0001
,  // measure 7
0100
0100
0010
0010
,  // measure 8
0000
0000
0000
0000
,  // measure 9
0000
0000
0000
0000
,  // measure 10
1000
0000
0000
0000
0000
0000
0002
0000
0003
0000
0000
0002
0000
0000
0003
0000
,  // measure 11
0100
0000
0000
0000
0000
0000
0020
0000
0030
0000
0000
2000
0000
3000
0200
0000
,  // measure 12
0310
0000
0000
0000
0000
0000
0002
0000
0003
0000
0000
0002
0000
0000
0003
0000
,  // measure 13
2000
0000
0000
0020
0030
0000
0002
3003
,  // measure 14
1001
0000
0000
0000
1000
0000
0010
0000
1000
0000
0000
0001
0010
0000
0001
0000
,  // measure 15
0100
0000
0000
0000
0010
0000
1000
0000
0010
0000
0000
1000
0100
0000
1000
0000
,  // measure 16
0001
0000
0000
0000
0100
0000
0010
0000
0100
0000
0000
0001
1000
0000
0001
0000
,  // measure 17
0100
0000
0000
0000
0010
0000
1000
0000
0010
0000
0000
1000
0100
0000
0100
0000
,  // measure 18
1000
0000
0000
0000
0001
0000
0010
0000
0100
0000
0000
0010
0001
0000
1000
0000
,  // measure 19
0100
0000
0000
0000
0010
0000
0100
0000
1000
0000
0000
0010
0100
0000
0001
0000
,  // measure 20
1000
0000
0000
0000
0010
0000
1000
0000
0001
0000
0000
0100
0001
0000
1000
0000
,  // measure 21
0020
0000
0000
0000
0000
0000
0002
0000
0003
0000
0000
2000
0000
3000
2030
0000
,  // measure 22
3001
0100
1000
0100
0001
0100
1000
0100
,  // measure 23
0001
0010
0100
1000
0010
0100
0001
1000
,  // measure 24
0100
0001
0100
1000
0100
0001
0100
1000
,  // measure 25
0001
0100
0010
1000
0001
0010
0100
1000
,  // measure 26
0010
0001
0010
1000
0010
0001
0010
1000
,  // measure 27
0001
0100
0010
1000
0100
0010
0001
1000
,  // measure 28
0010
0001
0010
1000
0010
0001
0010
1000
,  // measure 29
0001
0100
0010
1000
1010
0000
0002
0000
,  // measure 30
1003
0000
0001
0000
0100
0000
0001
0000
0010
0000
0100
1000
0100
0000
1000
0000
,  // measure 31
0001
0000
0100
0000
1000
0000
0100
0000
0001
0000
1000
0001
1000
0000
0100
0000
,  // measure 32
0001
0000
1000
0000
0010
0000
0001
0000
1000
0000
0010
1000
0010
0000
0100
0000
,  // measure 33
0001
0000
0100
0000
1000
0000
0100
0000
0001
0000
1000
0100
1000
0000
0001
0000
,  // measure 34
0100
0000
0010
0000
0100
0000
0001
0000
1000
0000
0100
0010
0100
0000
1000
0000
,  // measure 35
0001
0000
0100
0000
1000
0000
0100
0000
0001
0000
1000
0001
1000
0000
0010
0000
,  // measure 36
1010
0001
0011
1000
,  // measure 37
1001
0110
1001
0110
,  // measure 38
1001
0000
0000
0000
,  // measure 39
0001
0000
0100
0000
,  // measure 40
0001
0000
0000
0000
,  // measure 41
1000
0000
0100
0000
,  // measure 42
1000
0000
0000
0000
,  // measure 43
0001
0000
0100
0000
,  // measure 44
0001
0000
0000
0000
,  // measure 45
1000
0000
0100
0000
,  // measure 46
2200
0000
0000
0000
,  // measure 47
0000
0000
0000
0000
0000
0000
0000
3300
,  // measure 48
2002
0000
3003
0000
,  // measure 49
0000
0000
0000
0000
,  // measure 50
0110
0000
0001
0000
,  // measure 51
1000
0000
0001
0000
,  // measure 52
1000
1000
0001
0001
,  // measure 53
1000
0100
0010
0001
1000
0010
0100
0001
,  // measure 54
0000
0000
0000
0000
,  // measure 55
0000
0000
0000
0000
,  // measure 56
1000
0000
0001
0000
,  // measure 57
1000
0000
0001
0000
,  // measure 58
0100
0000
0010
0000
,  // measure 59
0100
0000
0010
0000
,  // measure 60
1000
0000
0000
0000
0001
0000
1000
0000
0001
0000
0100
0001
0000
0000
0000
0000
,  // measure 61
1000
0000
0001
0000
0100
0000
0010
0000
1000
0000
0001
0100
0000
0001
1000
0000
,  // measure 62
0100
0000
0001
0000
0100
0000
0010
0000
0001
0000
0001
0010
0000
0000
0100
0000
,  // measure 63
2000
0000
0001
0000
0100
0000
3002
0003
,  // measure 64
0101
0100
0001
0100
1000
0100
0001
0100
,  // measure 65
0010
0010
0010
0010
0100
0100
0100
0100
,  // measure 66
0001
0100
1000
0100
0001
0100
1000
0100
,  // measure 67
0010
0010
0010
0010
0100
0100
0001
0001
,  // measure 68
1000
0100
0001
1000
0010
0001
1000
0100
,  // measure 69
0010
0010
0010
0010
0100
0100
0100
0100
,  // measure 70
1000
0001
0100
1000
0100
0001
1000
0001
,  // measure 71
0010
0010
0010
0010
0100
0100
0200
0000
,  // measure 72
1300
0100
0001
0100
1000
0100
0001
0100
,  // measure 73
1000
1000
1000
1000
0001
0001
0001
0001
,  // measure 74
0100
0010
1000
0001
0010
0100
0010
0001
,  // measure 75
0100
0100
0100
0100
0001
0001
1000
1000
,  // measure 76
0010
0100
0001
0010
0100
1000
0001
1000
,  // measure 77
0100
0100
0100
0100
0010
0010
0010
0010
,  // measure 78
0001
0100
1000
0100
0001
1000
0100
1000
,  // measure 79
0001
0001
0001
0001
0010
0010
0200
0000
,  // measure 80
1300
0000
1100
1000
0001
0000
0101
0001
,  // measure 81
1000
0001
1000
0000
0010
0100
0010
0000
0220
0000
0330
0000
2002
0000
3003
0000
,  // measure 82
0110
0000
1010
1000
0001
0000
0011
0010
,  // measure 83
0100
1000
0100
0000
0010
0001
0010
0000
0022
0000
0033
0000
2020
0000
3030
0000
,  // measure 84
0011
0000
1010
0010
1000
0000
1100
0001
,  // measure 85
0100
0001
0100
0000
0010
1000
0010
0000
2020
0000
3030
0000
0022
0000
0033
0000
,  // measure 86
1010
0001
0011
1000
,  // measure 87
1010
0011
0101
1100
,  // measure 88
2002
0000
0000
0000
,  // measure 89
3003
0000
0000
0000
;

//---------------dance-single - ----------------
#NOTES:
     dance-single:
     X-Scale 15:
     Hard:
     10:
     0.626949,0.834329,0.159713,0.305539,0.361091,632.000000,609.000000,23.000000,44.000000,0.000000,0.000000,0.626949,0.834329,0.159713,0.305539,0.361091,632.000000,609.000000,23.000000,44.000000,0.000000,0.000000:
// measure 0
0000
0000
0000
0000
,  // measure 1
0000
0000
0000
0000
,  // measure 2
0000
0000
0000
0000
,  // measure 3
0000
0000
0000
0000
,  // measure 4
0002
0003
0002
0003
0002
0003
0002
0003
,  // measure 5
0020
0030
0020
0030
2000
3000
2000
3000
,  // measure 6
0200
0300
0200
0300
0200
0300
0200
0300
,  // measure 7
0020
0030
0020
0030
2000
3002
0203
0320
,  // measure 8
0030
0000
0000
0000
,  // measure 9
0000
0000
0000
0000
,  // measure 10
1000
0100
1000
0100
1000
0000
0001
0000
0100
0000
0000
0001
1000
0000
0001
0000
,  // measure 11
0010
0100
0010
0100
0010
0000
0001
0000
1000
0000
0000
0100
0010
0000
0100
0000
,  // measure 12
1000
0010
1000
0010
1000
0000
0001
0000
0010
0000
0000
0100
1000
0000
0001
0000
,  // measure 13
0200
0000
0000
0000
0000
0000
0020
0000
0030
0000
0000
0001
0302
0000
0003
0000
,  // measure 14
1001
0000
0001
1000
0001
0000
0010
0000
0100
0000
0010
0100
1000
0000
0001
0100
,  // measure 15
0010
0000
0100
0010
1000
0000
0001
0000
0100
0000
0010
0100
0001
0000
1000
0100
,  // measure 16
0010
0000
0100
0010
0001
0000
1000
0000
0010
0000
0100
0001
1000
0000
0010
0100
,  // measure 17
0001
0000
0010
0100
1000
0000
0100
0000
0001
0000
0100
0010
0001
0000
0001
0000
,  // measure 18
0011
0000
0010
0100
1000
0000
0001
0000
0100
0000
0010
0100
1000
0000
0001
0010
,  // measure 19
0100
0000
0001
1000
0100
0000
0010
0000
0001
0000
1000
0001
0100
0000
0010
0000
,  // measure 20
1000
0000
0001
0100
0010
0000
0100
0001
1000
0000
0100
0010
0001
0000
1000
0000
,  // measure 21
0200
0000
0010
0000
1000
0000
0001
0000
1000
0000
0000
1000
0300
0000
0001
0000
,  // measure 22
1001
1000
0100
0001
0100
1000
0100
0001
,  // measure 23
0100
0010
1000
0010
0001
0100
1000
0001
,  // measure 24
0010
1000
0010
0001
0010
1000
0010
0001
,  // measure 25
0010
1000
0001
0010
0100
0001
1000
0010
,  // measure 26
0100
1000
0001
0100
1000
0100
0001
1000
,  // measure 27
0010
0001
1000
0100
0001
0010
1000
0001
,  // measure 28
0100
1000
0100
0001
1000
0010
0100
1000
,  // measure 29
0001
0100
0010
1000
0001
0001
0002
0003
,  // measure 30
1001
0000
1000
0001
1000
0000
0010
0000
1000
0000
0001
0010
0100
0000
0010
0000
,  // measure 31
0001
0000
0100
0010
0100
0000
0001
0000
1000
0000
0100
0010
0001
0000
0010
0000
,  // measure 32
0001
0000
0100
0010
1000
0000
0001
0000
0100
0000
0010
0100
0001
0000
1000
0000
,  // measure 33
0100
0000
0010
0100
1000
0000
0001
0000
0100
0000
0010
1000
0100
0000
0100
0000
,  // measure 34
0010
0000
0001
1000
0010
0000
0100
0000
1000
0000
0001
0010
0100
0000
0001
0000
,  // measure 35
1000
0000
0010
1000
0001
0000
0100
0000
0010
0000
1000
0100
0010
0000
0100
0000
,  // measure 36
1100
0000
0001
0100
0101
0000
1000
0010
,  // measure 37
2020
3030
0022
0033
0202
0303
1100
1000
,  // measure 38
1001
0000
0001
0000
,  // measure 39
0100
0000
0001
0000
,  // measure 40
1000
0000
0100
0000
,  // measure 41
0010
0000
0100
0000
,  // measure 42
1000
0000
0001
0000
,  // measure 43
0100
0000
0010
0000
,  // measure 44
1000
0000
0100
0000
,  // measure 45
0010
0000
0001
0000
,  // measure 46
0012
0000
0000
0000
0000
0000
0000
0000
1000
0000
0000
0000
,  // measure 47
0000
1000
0000
1000
,  // measure 48
0000
0000
0000
0000
0000
0000
0000
0000
0000
0000
0000
0000
0000
0000
0000
0000
0000
0000
0000
0000
0000
0000
0000
0000
0000
0000
0000
0000
0000
0000
0000
0000
0000
0000
0000
0000
0000
0000
0000
0000
1000
0000
0000
0000
0000
0000
0000
0000
0000
0000
0000
0000
0000
0000
0000
0000
0000
0000
0000
0000
0000
0000
0000
0000
0000
0000
0000
0000
0000
0000
0000
0000
0000
0000
0000
0000
0000
0000
0000
0000
0000
0000
0000
0000
0000
0000
0000
0000
0000
0000
0000
0000
0000
0000
0000
0000
0000
0000
0000
0000
0000
0000
0000
0000
0000
0000
0000
0000
0000
0000
0000
0000
0000
0000
1000
0000
0000
0000
0000
0000
0000
0000
0000
0000
0000
0000
0000
0000
0000
0000
0000
0000
0000
0000
0000
0000
0000
0000
0000
0000
0000
0000
0000
0000
0000
0000
0000
0000
0000
0000
0000
0000
0000
0000
0000
0000
0000
0000
0000
0000
0000
0000
0000
0000
0000
0000
0000
0000
0000
0000
0000
0000
0000
0000
0000
0000
0000
0000
0000
0000
1000
0000
0000
0000
0000
0000
0000
0000
0000
0000
0000
0000
,  // measure 49
0000
0000
0000
0000
0000
0000
0000
0000
0000
0000
0000
0000
1000
0000
0000
0000
0000
0000
0000
0000
0000
0000
0000
0000
1003
0000
0000
0000
0000
0000
0000
0000
0000
0000
0000
1000
0000
0000
0000
0000
0000
0000
0000
0000
0000
1000
0000
0000
,  // measure 50
0000
0000
0000
1000
0000
0000
0000
0000
0100
0000
0000
0000
0000
0010
0000
0000
0000
0000
0000
0001
0000
0000
0000
0100
0000
0000
0000
0000
0010
0000
0000
0000
,  // measure 51
1000
0000
0001
0000
1000
0000
0100
0000
0010
0000
0001
0000
0100
0001
1000
0001
,  // measure 52
4000
0004
0000
0000
0000
0000
0000
0000
0000
0000
0000
0000
0000
0000
0000
0000
0000
0000
0000
0000
0000
0000
0000
0000
,  // measure 53
0000
0000
0000
0000
,  // measure 54
3003
0000
0000
0000
,  // measure 55
0000
0000
0000
0000
,  // measure 56
1000
1000
1000
1000
1000
1000
1000
1000
,  // measure 57
0001
0001
0001
0001
0100
0100
0100
0100
,  // measure 58
0010
0010
0010
0010
0010
0010
0010
0010
,  // measure 59
1000
1000
1000
1000
0100
0100
0010
0010
,  // measure 60
0001
1000
0001
1000
0001
1000
0100
0000
0010
0100
1000
0001
0000
0001
0100
0000
,  // measure 61
0010
1000
0010
1000
0010
1000
0001
0000
1000
0100
0010
0001
0000
0010
0100
0000
,  // measure 62
1000
0010
1000
0010
1000
0010
0100
0000
0001
1000
0010
0100
0000
0100
0001
0000
,  // measure 63
1000
0001
1000
0001
1000
0001
0010
0000
0100
0010
0001
2000
0002
0000
3003
0000
,  // measure 64
1001
0000
1000
0000
0001
0000
0001
0000
0100
0000
0100
0010
1000
0000
1000
0000
,  // measure 65
0001
0000
0001
0000
0100
0000
0100
0000
0010
0000
0010
1000
0001
0000
0001
0000
,  // measure 66
1000
0000
1000
0000
0001
0000
0001
0000
0100
0000
0100
0010
1000
0000
1000
0000
,  // measure 67
0100
0000
0100
0000
0010
0000
0010
0000
0001
0000
0001
0010
0100
0000
0100
0000
,  // measure 68
1000
0000
0100
0000
0001
0000
0100
0000
1000
0000
0100
0010
0001
0000
0100
0010
,  // measure 69
1000
0000
0001
0000
0100
0000
1000
0000
0100
0000
0001
1000
0100
0000
0100
0000
,  // measure 70
1000
0000
0001
0000
0100
0000
0001
0000
1000
0000
0010
0100
0001
0000
1000
0100
,  // measure 71
0020
0001
0001
0001
0100
0100
0230
0000
,  // measure 72
1300
0010
0100
1000
0001
0010
0100
0001
,  // measure 73
1000
0100
0010
1000
0001
0100
0010
0001
,  // measure 74
1000
0010
0100
1000
0001
0010
0100
0001
,  // measure 75
1000
0100
0010
1000
0001
0100
0010
0001
,  // measure 76
1000
0100
0001
1000
0010
0100
1000
0001
,  // measure 77
0010
0100
0001
1000
0010
0100
1000
0001
,  // measure 78
0100
0010
0001
1000
0100
0010
1000
0001
,  // measure 79
0100
0000
0001
0000
1000
0000
0100
0000
1000
0000
0000
1000
0001
0000
0100
0000
,  // measure 80
0001
0100
0001
0000
0101
0000
0100
0000
0010
0100
0001
0000
1000
0000
0100
0000
,  // measure 81
0010
0100
1000
0000
0001
0100
0010
0000
0220
0000
0330
0000
1001
0000
0100
0000
,  // measure 82
0001
1000
0001
0000
1000
0000
0100
0000
0010
0100
1000
0000
0001
0000
0100
0000
,  // measure 83
0010
0100
0001
0000
1000
0100
0010
0000
0022
0000
0033
0000
1010
0000
0001
0000
,  // measure 84
1000
0001
1000
0000
0100
0000
0010
0000
0001
0010
0100
0000
1000
0000
1000
0000
,  // measure 85
0010
0100
0001
0000
0001
0100
0010
0000
2200
0000
3300
0000
0101
0000
0100
0000
,  // measure 86
0001
1000
0001
0000
1000
0000
0001
0000
1000
0010
0100
0000
0001
0000
0010
0000
,  // measure 87
0100
0010
0001
0000
1000
0100
0010
0000
0220
0000
0330
0000
1100
0000
0001
0000
,  // measure 88
0202
0000
0000
0000
,  // measure 89
0303
0000
0000
0000
;
