#VERSION:0.83;
#TITLE:REFLEXION;
#SUBTITLE:(A State of Trance 2023 Anthem);
#ARTIST:Armin van Buuren & Cosmic Gate;
#TITLETRANSLIT:;
#SUBTITLETRANSLIT:;
#ARTISTTRANSLIT:;
#GENRE:Progressive Trance;
#ORIGIN:;
#CREDIT:;
#BANNER:REFLEXION-bn.png;
#BACKGROUND:REFLEXION-bg.png;
#PREVIEWVID:;
#JACKET:REFLEXION-jacket.png;
#CDIMAGE:;
#DISCIMAGE:;
#LYRICSPATH:;
#CDTITLE:cdtitle.png;
#MUSIC:REFLEXION.ogg;
#OFFSET:-0.005000;
#SAMPLESTART:78.754997;
#SAMPLELENGTH:15.000000;
#SELECTABLE:YES;
#BPMS:0.000=128.000;
#STOPS:;
#DELAYS:;
#WARPS:;
#TIMESIGNATURES:0.000=4=4;
#TICKCOUNTS:0.000=4;
#COMBOS:0.000=1;
#SPEEDS:0.000=1.000=0.000=0;
#SCROLLS:0.000=1.000;
#FAKES:;
#LABELS:0.000=Song Start;
#BGCHANGES:;
#KEYSOUNDS:;
#ATTACKS:
;

//---------------dance-single - ----------------
#NOTEDATA:;
#CHARTNAME:X-Scale 6;
#STEPSTYPE:dance-single;
#DESCRIPTION:;
#CHARTSTYLE:;
#DIFFICULTY:Easy;
#METER:4;
#RADARVALUES:0.264731,0.356998,0.054504,0.132366,0.000000,238.000000,231.000000,7.000000,17.000000,0.000000,0.000000,0.000000,0.000000,0.000000,0.264731,0.356998,0.054504,0.132366,0.000000,238.000000,231.000000,7.000000,17.000000,0.000000,0.000000,0.000000,0.000000,0.000000;
#CREDIT:iamthek3n;
#NOTES:
0000
0000
0000
0000
,
0000
0000
0000
0000
,
0001
0000
0000
0000
,
1000
0000
0000
0000
,
0010
0000
0000
0000
,
0100
0000
0000
0000
,
0001
0000
0000
0000
,
0010
0000
0000
0000
,
0100
0000
0000
0000
,
1000
0000
0000
0000
,
1001
0000
0000
0000
0100
0000
0000
0001
,
1000
0000
0000
0000
0001
0000
0000
0100
,
0001
0000
0000
0000
1000
0000
0000
0100
,
1000
0000
0000
0000
0001
0000
0000
0100
,
0001
0000
0000
1000
0100
0000
0000
1000
,
0001
0000
0000
0010
0100
0000
0000
0010
,
0001
0000
0000
1000
0010
0000
0000
0100
,
0001
0000
0000
0010
0100
0000
0000
0000
,
1001
0000
1000
0000
,
0010
0000
0100
0000
,
0001
0000
0010
0000
,
0100
0000
1000
0000
,
0001
0000
0000
1000
0001
0000
0000
0100
,
0010
0000
0000
1000
0100
0000
0000
1000
,
0001
0000
0000
0010
0100
0000
0000
0010
,
0001
0000
0000
0100
0001
0000
0000
1000
,
1001
0000
1000
0001
0100
0000
0001
0010
,
0100
0000
0010
0100
1000
0000
0001
1000
,
0010
0000
0100
0010
1000
0000
0100
0010
,
0001
0000
1000
0001
0100
0000
0010
0100
,
0001
0000
0010
0100
1000
0000
0001
1000
,
0010
0000
0100
0010
1000
0000
0001
1000
,
0100
0000
0010
0100
1000
0000
0001
0010
,
0100
0000
0010
0001
1000
0000
0010
1000
,
1002
0003
2000
3000
,
0020
0030
0200
0300
,
0002
0003
2000
3000
,
0200
0300
0020
0030
,
0002
0003
2000
3000
,
0020
0030
0200
0300
,
0002
1000
0100
0010
,
0100
1000
0100
0013
,
0011
0001
1000
0010
,
1000
0001
0010
0100
,
0010
0001
0100
0001
,
0010
0100
1000
0001
,
1000
0000
0100
0000
0010
0100
1000
0000
,
0001
0000
0100
0000
0001
0010
0100
0000
,
0010
0000
0001
0000
1000
0001
0100
0000
,
0001
0000
1000
0000
,
1001
1000
0010
0000
0100
0001
1000
0000
,
0010
0100
0001
0000
0010
0100
1000
0000
,
0100
0010
0001
0000
1000
0001
0100
0000
,
0010
0100
0001
0000
1000
0001
0100
0000
,
0001
0010
0100
0000
1000
0100
0010
0000
,
0001
1000
0010
0000
0100
0010
1000
0000
,
0100
0010
0001
0000
1000
0001
0010
0000
,
0100
0010
0001
0000
1000
0001
0100
0000
,
0101
0000
0000
0001
0000
0001
0000
0001
,
2000
0000
3010
0000
,
1000
0000
0000
0100
0000
0100
0000
0100
,
0020
0000
0031
0000
,
0100
0000
0000
0001
0000
0001
0000
0001
,
0020
0000
0130
0000
,
0010
0000
0000
0001
0000
0001
0000
0001
,
2000
0000
3000
0000
;

//---------------dance-single - ----------------
#NOTEDATA:;
#CHARTNAME:X-Scale 11;
#STEPSTYPE:dance-single;
#DESCRIPTION:;
#CHARTSTYLE:;
#DIFFICULTY:Medium;
#METER:8;
#RADARVALUES:0.372626,0.590974,0.155724,0.272518,0.179083,335.000000,315.000000,20.000000,35.000000,0.000000,0.000000,0.000000,0.000000,0.000000,0.372626,0.590974,0.155724,0.272518,0.179083,335.000000,315.000000,20.000000,35.000000,0.000000,0.000000,0.000000,0.000000,0.000000;
#CREDIT:iamthek3n;
#NOTES:
// measure 0
0000
0000
0000
0000
,  // measure 1
0000
0000
0000
0000
,  // measure 2
2000
3000
0000
0002
0003
0002
0003
0002
,  // measure 3
0020
0000
0033
0000
,  // measure 4
0200
0300
0000
2000
3000
2000
3000
2000
,  // measure 5
0020
0000
3030
0000
,  // measure 6
0002
0003
0000
0200
0300
0200
0300
0200
,  // measure 7
0020
0000
0330
0000
,  // measure 8
2000
3000
0000
0002
0003
0002
0003
0002
,  // measure 9
0200
0000
0000
0000
0303
0000
0000
0101
,  // measure 10
1100
0000
0000
0100
0100
0000
0000
1000
,  // measure 11
1000
0000
0000
0001
0001
0000
0000
0100
,  // measure 12
0100
0000
0000
0001
0001
0000
0000
0100
,  // measure 13
0100
0000
0000
0010
0010
0000
0000
1000
,  // measure 14
1000
0000
0000
0100
0100
0000
0000
0010
,  // measure 15
0010
0000
0000
0001
0001
0000
0000
0100
,  // measure 16
0100
0000
0000
0010
0010
0000
0000
1000
,  // measure 17
1000
0000
0000
0010
0010
0000
0000
0110
,  // measure 18
2001
0000
0010
0000
,  // measure 19
3002
0000
0010
0000
,  // measure 20
0203
0000
1000
0000
,  // measure 21
0302
0000
0100
0000
,  // measure 22
2003
0000
0000
0000
0000
0000
0100
0000
0100
0000
0000
0001
0000
0000
0000
0000
,  // measure 23
3002
0000
0000
0000
0000
0000
1000
0000
1000
0000
0000
0010
0000
0000
0000
0000
,  // measure 24
0203
0000
0000
0000
0000
0000
1000
0000
1000
0000
0000
0001
0000
0000
0000
0000
,  // measure 25
0320
0000
0000
0000
0000
0000
0001
0000
0001
0000
0000
1000
0000
0000
0030
0000
,  // measure 26
1010
0000
0000
1000
0000
0000
0001
0000
0100
0000
0000
0010
0000
0000
1000
0000
,  // measure 27
1010
0000
0000
0001
0000
0000
1000
0000
0100
0000
0000
0010
0000
0000
0001
0000
,  // measure 28
0011
0000
0000
0100
0000
0000
0001
0000
1000
0000
0000
0010
0000
0000
0100
0000
,  // measure 29
0110
0000
0000
0001
0000
0000
1000
0000
0100
0000
0000
1000
0000
0000
0001
0000
,  // measure 30
0101
0000
0000
1000
0000
0000
0001
0000
0010
0000
0000
0100
0000
0000
0010
0000
,  // measure 31
1001
0000
0000
0001
0000
0000
0100
0000
0010
0000
0000
1000
0000
0000
0001
0000
,  // measure 32
0011
0000
0000
1000
0000
0000
0001
0000
0010
0000
0000
0001
0000
0000
1000
0000
,  // measure 33
1010
0000
0000
0001
0000
0000
1000
0000
0010
0000
0000
1000
0000
0000
0100
0000
,  // measure 34
1100
0000
0000
1000
0000
1000
0000
1000
,  // measure 35
0002
0000
0013
0000
,  // measure 36
0001
0000
0000
1000
0000
1000
0000
1000
,  // measure 37
0002
0000
0103
0000
,  // measure 38
0001
0000
0100
0010
1000
0000
0001
0000
,  // measure 39
1000
0000
0100
0010
0001
0000
1000
0000
,  // measure 40
0001
0100
0010
0100
0001
0010
0100
1000
,  // measure 41
0010
0100
0001
1000
0100
0010
0001
0000
,  // measure 42
0011
0000
0000
0000
0010
0001
0000
0000
1000
0000
0001
0000
0100
0000
0000
0000
,  // measure 43
0001
0000
0000
0000
0010
0100
0000
0000
0010
0000
0001
0000
1000
0000
0000
0000
,  // measure 44
0010
0000
0000
0000
0100
0010
0000
0000
1000
0000
0001
0000
0010
0000
0000
0000
,  // measure 45
0001
0000
0000
0000
0100
0001
0000
0000
1000
0000
0001
0000
0100
0000
0000
0000
,  // measure 46
0001
0000
1001
0000
0100
1000
1100
0000
,  // measure 47
0100
0000
0110
0000
0010
0001
0101
0000
,  // measure 48
0001
0000
1001
0000
0010
1000
1010
0000
,  // measure 49
1000
0000
0000
0000
0000
0000
0000
0000
0001
0000
0000
0000
0100
0010
0000
0100
,  // measure 50
0010
0000
1000
0000
0001
0000
0100
0000
0001
0000
0010
0100
0000
0010
0001
0000
,  // measure 51
1000
0000
0001
0000
0100
0000
0001
0000
1000
0000
0100
0010
0000
0001
0010
0000
,  // measure 52
0100
0000
1000
0000
0001
0000
0100
0000
0010
0000
1000
0001
0000
0100
0010
0000
,  // measure 53
1000
0000
0001
0010
0100
0000
0010
0100
1000
0000
0010
0100
0001
0000
1000
0010
,  // measure 54
0100
0000
0001
0000
1000
0000
0001
1000
0010
0000
1000
0000
0001
0000
0100
0001
,  // measure 55
1000
0000
0010
0000
0100
0000
0001
0010
0100
0000
0010
0000
0001
0000
1000
0100
,  // measure 56
0010
0000
0100
0000
1000
0000
0001
0100
0010
0000
1000
0000
0001
0000
0100
0001
,  // measure 57
1000
0000
0010
0100
0001
0000
1000
0010
0100
0000
0001
0010
0100
0000
0010
0100
,  // measure 58
1000
0000
0000
0001
0000
0001
0000
0001
,  // measure 59
0200
1000
0010
1000
,  // measure 60
0301
0000
0000
1000
0000
1000
0000
1000
,  // measure 61
0200
0001
0010
0001
,  // measure 62
1300
0000
0000
0010
0000
0010
0000
0010
,  // measure 63
0200
0000
1000
0000
,  // measure 64
0301
0000
0000
0010
0000
0010
0000
0010
,  // measure 65
0200
0000
2000
0000
,  // measure 66
3300
0000
0000
0000
;

//---------------dance-single - ----------------
#NOTEDATA:;
#CHARTNAME:X-Scale 13;
#STEPSTYPE:dance-single;
#DESCRIPTION:;
#CHARTSTYLE:;
#DIFFICULTY:Hard;
#METER:9;
#RADARVALUES:0.498318,0.678180,0.132366,0.389311,0.455494,448.000000,431.000000,17.000000,50.000000,0.000000,1.000000,0.000000,0.000000,0.000000,0.498318,0.678180,0.132366,0.389311,0.455494,448.000000,431.000000,17.000000,50.000000,0.000000,1.000000,0.000000,0.000000,0.000000;
#CREDIT:iamthek3n;
#NOTES:
// measure 0
0000
0000
0000
0000
,  // measure 1
0000
0000
0000
0000
,  // measure 2
0020
0030
0000
2000
3000
2000
3000
2000
,  // measure 3
3002
0000
0000
0100
0000
0000
0010
0000
0010
0000
0000
1000
0000
0000
0100
0000
,  // measure 4
0203
0300
0000
0020
0030
0020
0030
0020
,  // measure 5
2030
0000
0000
0010
0000
0000
0001
0000
0001
0000
0000
0010
0000
0000
0100
0000
,  // measure 6
3200
0300
0000
0020
0030
0020
0030
0020
,  // measure 7
0032
0000
0000
0100
0000
0000
1000
0000
1000
0000
0000
0010
0000
0000
0100
0000
,  // measure 8
0203
0300
0000
0020
0030
0020
0030
0020
,  // measure 9
0230
0000
0000
1000
0000
0000
0001
0000
0001
0000
0000
1000
0000
0000
0010
0000
,  // measure 10
0310
0000
0000
0010
1000
0000
0001
0000
0100
0000
0000
0010
0000
0000
0100
0000
,  // measure 11
0001
0000
0000
1000
0000
0000
0010
0000
0100
0000
0000
0010
0000
0000
1000
0000
,  // measure 12
0100
0000
0000
0100
0001
0000
0100
0000
1000
0000
0000
0010
0000
0000
1000
0000
,  // measure 13
0001
0000
0000
0001
1000
0000
0010
0000
0100
0000
0000
0001
0000
0000
1000
0000
,  // measure 14
0100
0000
0000
0100
0010
0000
1000
0000
0010
0000
0000
0001
0000
0000
0010
0000
,  // measure 15
0100
0000
0000
0100
0000
0000
0010
0000
0001
0000
0000
1000
0010
0000
1000
0000
,  // measure 16
0001
0000
0000
0100
0000
0000
0100
0000
0010
0000
0000
1000
0000
0000
1000
0000
,  // measure 17
0100
0000
0000
0100
1000
0000
0010
0000
0001
0000
0000
0010
0000
0000
1000
0000
,  // measure 18
2001
0000
0000
0001
0000
0000
0010
0000
0010
0000
0000
0001
0000
0000
0001
0000
,  // measure 19
3002
0000
0000
1000
0000
0000
0010
0000
0010
0000
0000
1000
0000
0000
1000
0000
,  // measure 20
2003
0000
0000
0001
0000
0000
0100
0000
0100
0000
0000
0001
0000
0000
0001
0000
,  // measure 21
3002
0000
0000
0010
0000
0000
0100
0000
0100
0000
0000
0010
0000
0000
0100
0000
,  // measure 22
0203
0000
0000
0001
0000
0000
1000
0000
1000
0000
0000
0001
0000
0000
0010
0000
,  // measure 23
0320
0000
0000
0100
0000
0000
1000
0000
1000
0000
0000
0001
0000
0000
0100
0000
,  // measure 24
0230
0000
0000
0010
0000
0000
1000
0000
1000
0000
0000
0010
0000
0000
0001
0000
,  // measure 25
0302
0000
0000
0100
0000
0000
1000
0000
1000
0000
0000
0010
0000
0000
0103
0000
,  // measure 26
0101
0000
0000
0001
0000
0000
1000
0000
1000
0000
0000
0010
0000
0000
0100
0000
,  // measure 27
0110
0000
0000
0010
0000
0000
1000
0000
1000
0000
0000
0100
0000
0000
0010
0000
,  // measure 28
0011
0000
0000
0001
0000
0000
0100
0000
0100
0000
0000
0001
0000
0000
1000
0000
,  // measure 29
1001
0000
0000
1000
0000
0000
0001
0000
0001
0000
0000
0100
0000
0000
0010
0000
,  // measure 30
1001
0000
0000
0100
0000
0000
0001
0000
0001
0000
0000
0010
0000
0000
0100
0000
,  // measure 31
1100
0000
0000
1000
0000
0000
0010
0000
0010
0000
0000
0100
0000
0000
0001
0000
,  // measure 32
0101
0000
0000
0100
0000
0000
0010
0000
0010
0000
0000
1000
0000
0000
0100
0000
,  // measure 33
1100
0000
0000
1000
0000
0000
0001
0000
0001
0000
0000
0100
0000
0000
0001
0000
,  // measure 34
2001
3000
0000
0010
1000
0001
0000
0010
,  // measure 35
0200
0000
0001
0000
,  // measure 36
1300
0000
0000
1000
0100
0010
0000
0010
,  // measure 37
0002
0000
0100
0000
,  // measure 38
1003
0000
0001
0010
1000
0000
0001
0100
,  // measure 39
1000
0000
0010
1000
0001
0000
0100
0001
,  // measure 40
1000
0010
0100
1000
0100
0010
1000
0100
,  // measure 41
0010
0001
0010
0001
0010
0001
0010
0100
0010
0100
0010
0100
0010
0000
0000
0000
,  // measure 42
1001
0000
1000
0000
0001
0100
0000
0100
1000
0000
0100
0000
0001
0100
0001
0000
,  // measure 43
1000
0000
0001
0000
0100
0010
0000
0010
1000
0000
0001
0000
0010
0100
0010
0000
,  // measure 44
0001
0000
1000
0000
0010
0100
0000
0100
1000
0000
0100
0000
0010
0100
0010
0000
,  // measure 45
1000
0000
0001
0000
1000
0010
0000
0010
0001
0000
0010
0000
1000
0010
1000
0000
,  // measure 46
0001
0010
0011
0000
1000
0010
1010
0000
,  // measure 47
0001
1000
1001
0000
0100
0001
0101
0000
,  // measure 48
0001
1000
1100
0000
0001
0010
0011
0000
,  // measure 49
0001
0000
0000
0000
1000
0000
0000
0000
0010
0000
0000
0000
1000
0100
0000
0100
,  // measure 50
0010
0000
0001
0000
0100
0001
1000
0001
0100
0000
0010
0100
0000
0001
0010
0100
,  // measure 51
1000
0000
0001
0000
0100
0001
1000
0010
0100
0000
0001
0010
0000
0010
0100
1000
,  // measure 52
0001
0000
0100
0000
0010
1000
0100
1000
0010
0000
0100
0001
0000
0001
1000
0010
,  // measure 53
0100
0000
0001
0010
0100
0000
0010
0000
0001
0000
1000
0100
0000
0100
0010
0100
,  // measure 54
1000
0000
0001
0000
0100
0001
1000
0001
0010
0000
0100
1000
0000
1000
0001
0100
,  // measure 55
0010
0000
1000
0000
0001
0010
0100
0010
0001
0000
1000
0010
0000
0010
0100
0001
,  // measure 56
0010
0000
0100
0000
0010
0100
1000
0001
0100
0000
0001
0010
0000
0010
0100
1000
,  // measure 57
0001
0100
0001
0000
1000
0010
0100
0010
0000
1000
0001
0100
0000
0010
0100
0001
,  // measure 58
2000
0000
0000
0200
0300
0200
0300
0200
,  // measure 59
0310
0001
0100
0001
,  // measure 60
3010
0000
1000
0020
0030
0020
0030
0020
,  // measure 61
0230
0000
0301
0010
0200
0000
1300
0000
,  // measure 62
0001
0000
0100
0020
0030
0020
0030
0020
,  // measure 63
0230
0000
0301
0010
0200
0000
0300
0000
,  // measure 64
1000
0000
0000
0200
0300
0200
0300
0200
,  // measure 65
0320
0000
0000
0001
0002
0000
0000
0000
,  // measure 66
0000
0000
0000
0000
,  // measure 67
0033
0000
0000
0000
;

//---------------dance-single - ----------------
#NOTEDATA:;
#CHARTNAME:X-Scale 12 (DANCERUSH Special);
#STEPSTYPE:dance-single;
#DESCRIPTION:;
#CHARTSTYLE:;
#DIFFICULTY:Challenge;
#METER:8;
#RADARVALUES:0.311449,0.435980,0.054504,0.179083,0.062290,280.000000,273.000000,7.000000,23.000000,143.000000,0.000000,0.000000,12.000000,0.000000,0.311449,0.435980,0.054504,0.179083,0.062290,280.000000,273.000000,7.000000,23.000000,143.000000,0.000000,0.000000,12.000000,0.000000;
#CREDIT:REFLEX k3n;
#NOTES:
// measure 0
0000
0000
0000
0000
,  // measure 1
0000
0000
0000
0000
,  // measure 2
0002
0000
0000
0100
0000
0100
0000
0103
,  // measure 3
0L0L
0000
0000
0000
,  // measure 4
2000
0000
0000
0100
0000
0100
0000
3100
,  // measure 5
LL00
0000
0000
0000
,  // measure 6
0020
0000
0000
0100
0000
0100
0000
0130
,  // measure 7
0LL0
0000
0000
0000
,  // measure 8
0002
0000
0000
1000
0000
1000
0000
1003
,  // measure 9
L00L
0000
0000
0000
,  // measure 10
1001
0000
1000
0000
,  // measure 11
0010
0000
0100
0000
,  // measure 12
0001
0000
0010
0000
,  // measure 13
0100
0000
0000
0000
1000
0000
0000
0100
,  // measure 14
0010
0000
0000
0100
1000
0000
0000
0100
,  // measure 15
0010
0000
0000
0001
0010
0000
0000
0100
,  // measure 16
1000
0000
0000
0001
1000
0000
0000
0010
,  // measure 17
0100
0000
0000
0010
1000
0000
0000
0100
,  // measure 18
0020
0000
0001
0000
,  // measure 19
0230
0000
1000
0000
,  // measure 20
0320
0000
1000
0000
,  // measure 21
0032
0000
0010
0000
,  // measure 22
0203
0000
1000
0000
,  // measure 23
0320
0000
0100
0000
,  // measure 24
2030
0000
0001
0000
,  // measure 25
3020
0000
0000
0000
0001
0000
0000
0100
,  // measure 26
0130
0000
0000
0010
0000
0000
1000
0000
1000
0000
0000
0001
0000
0000
0010
0000
,  // measure 27
0010
0000
0000
0100
0000
0000
1000
0000
1000
0000
0000
0001
0000
0000
0100
0000
,  // measure 28
0100
0000
0000
0010
0000
0000
0100
0000
0100
0000
0000
0001
0000
0000
0010
0000
,  // measure 29
0010
0000
0000
0100
0000
0000
1000
0000
1000
0000
0000
0001
0000
0000
0100
0000
,  // measure 30
0001
0000
0000
0010
0000
0000
0100
0000
0100
0000
0000
1000
0000
0000
0001
0000
,  // measure 31
0001
0000
0000
0100
0000
0000
0010
0000
0010
0000
0000
1000
0000
0000
0001
0000
,  // measure 32
0001
0000
0000
0010
0000
0000
0100
0000
0100
0000
0000
1000
0000
0000
0001
0000
,  // measure 33
0001
0000
0000
0100
0000
0000
0001
0000
0001
0000
0000
0010
0000
0000
0100
0000
,  // measure 34
1000
MMMM
1000
MMMM
,  // measure 35
1000
MMMM
0100
MMMM
,  // measure 36
0001
MMMM
0001
MMMM
,  // measure 37
0001
MMMM
0010
MMMM
,  // measure 38
1000
0010
0001
0010
1000
0010
0001
0010
,  // measure 39
1000
0100
0001
0100
1000
0100
0001
0100
,  // measure 40
1000
0010
0100
0001
1000
0100
0010
0002
,  // measure 41
0200
0000
0000
0000
0000
0303
0L0L
0000
,  // measure 42
1000
MMMM
1000
MMMM
1000
0010
1000
0000
,  // measure 43
0001
MMMM
0001
MMMM
0001
0010
0001
0000
,  // measure 44
1000
MMMM
1000
MMMM
1000
0100
1000
0000
,  // measure 45
0001
MMMM
0001
MMMM
0001
0100
0001
0000
,  // measure 46
1000
MMMM
1000
MMMM
1000
0001
0100
0100
,  // measure 47
0001
MMMM
0001
MMMM
0001
0010
0100
0100
,  // measure 48
1000
MMMM
1000
MMMM
1000
0001
0010
0010
,  // measure 49
0200
1000
0000
1000
2300
0001
3001
0000
,  // measure 50
1000
0001
0100
00M0
0100
1000
0001
0100
,  // measure 51
0010
1000
0100
00M0
0100
0001
1000
0001
,  // measure 52
0010
0100
0010
000M
0010
1000
0001
0100
,  // measure 53
0010
0100
1000
0000
1000
0100
0001
0100
,  // measure 54
0010
1000
0010
000M
0010
0001
1000
0100
,  // measure 55
0001
0100
0010
000M
0010
1000
0001
0100
,  // measure 56
0001
0010
0100
M000
0100
0001
1000
0001
,  // measure 57
0100
0001
0010
M000
0010
1000
0001
0100
,  // measure 58
0001
MMMM
0001
MMMM
0001
MMMM
0001
MMMM
,  // measure 59
0002
0100
1000
0010
,  // measure 60
1003
MMMM
1000
MMMM
1000
MMMM
1000
MMMM
,  // measure 61
2000
0010
0100
0010
,  // measure 62
3001
MMMM
0001
MMMM
0001
MMMM
0001
MMMM
,  // measure 63
0002
0010
1000
0100
,  // measure 64
2003
0000
0000
0020
0030
0020
0030
0002
,  // measure 65
0000
0000
0000
0000
0000
0000
3003
L00L
;
