#VERSION:0.83;
#TITLE:RADIO feat. Kim Petras;
#SUBTITLE:;
#ARTIST:Frost Children;
#TITLETRANSLIT:;
#SUBTITLETRANSLIT:;
#ARTISTTRANSLIT:;
#GENRE:Electro Pop;
#ORIGIN:;
#CREDIT:;
#BANNER:RADIO-bn.png;
#BACKGROUND:RADIO-bg.png;
#PREVIEWVID:;
#JACKET:RADIO-jacket.png;
#CDIMAGE:;
#DISCIMAGE:;
#LYRICSPATH:;
#CDTITLE:cdtitle.png;
#MUSIC:RADIO.ogg;
#OFFSET:0.217000;
#SAMPLESTART:75.975998;
#SAMPLELENGTH:14.013000;
#SELECTABLE:YES;
#BPMS:0.000=137.020;
#STOPS:74.000=1.314;
#DELAYS:;
#WARPS:;
#TIMESIGNATURES:0.000=4=4;
#TICKCOUNTS:0.000=4;
#COMBOS:0.000=1;
#SPEEDS:0.000=1.000=0.000=0;
#SCROLLS:0.000=1.000;
#FAKES:;
#LABELS:0.000=Song Start;
#BGCHANGES:0.500=RADIO.avi=1.000=0=0=0=StretchNoLoop====,
99999=-nosongbg-=1.000=0=0=0 // don't automatically add -songbackground-
;
#KEYSOUNDS:;
#ATTACKS:
;

//---------------dance-single - ----------------
#NOTEDATA:;
#CHARTNAME:X-Scale 6;
#STEPSTYPE:dance-single;
#DESCRIPTION:;
#CHARTSTYLE:;
#DIFFICULTY:Easy;
#METER:4;
#RADARVALUES:0.266847,0.338509,0.059165,0.219756,0.000000,221.000000,214.000000,7.000000,26.000000,0.000000,0.000000,0.000000,0.000000,0.000000,0.266847,0.338509,0.059165,0.219756,0.000000,221.000000,214.000000,7.000000,26.000000,0.000000,0.000000,0.000000,0.000000,0.000000;
#CREDIT:iamthek3n;
#NOTES:
// measure 0
0000
0000
0000
0000
,  // measure 1
0000
0000
0000
0000
,  // measure 2
0000
0000
0000
0000
,  // measure 3
0000
0000
0001
0010
,  // measure 4
0100
0010
0001
0010
,  // measure 5
0100
1100
1000
0010
,  // measure 6
0100
0010
1000
0010
,  // measure 7
0000
1010
0000
0011
,  // measure 8
0010
0001
1000
0001
,  // measure 9
0010
0100
0010
0001
,  // measure 10
0010
0000
0100
1000
0002
0000
0003
0002
,  // measure 11
0000
0003
0002
0000
0003
0000
1001
0000
,  // measure 12
1000
0000
0100
1000
0001
0000
0010
0000
,  // measure 13
0100
0000
0010
0100
1000
0000
0001
0000
,  // measure 14
0100
0000
0010
0100
0002
0000
2003
0000
,  // measure 15
3200
0300
2200
3300
0001
0000
0100
0000
,  // measure 16
0001
0000
1000
0000
0100
0000
0010
0100
,  // measure 17
1000
0001
0100
0010
,  // measure 18
1000
0001
1001
0000
,  // measure 19
0000
0000
0000
0000
,  // measure 20
0000
0000
0000
0000
,  // measure 21
0000
0000
0000
0000
,  // measure 22
0000
0000
0000
1000
,  // measure 23
0000
0000
0000
0001
,  // measure 24
0000
0000
0000
1000
,  // measure 25
0000
0000
0000
0001
,  // measure 26
0000
0002
0023
0000
,  // measure 27
0130
0000
0000
0010
0100
0000
1000
0000
,  // measure 28
0001
0000
0000
0100
0001
0000
1000
0000
,  // measure 29
0100
0000
0000
0100
1000
0000
0001
0000
,  // measure 30
0100
0000
0000
0010
0100
0000
0001
0000
,  // measure 31
1000
0000
0000
1000
0010
0000
1000
0000
,  // measure 32
0001
0000
0000
0010
0100
0000
0010
0000
,  // measure 33
0001
0000
0000
1000
0001
0000
1000
0000
,  // measure 34
0010
0000
0100
0020
0000
0000
1030
0000
,  // measure 35
0010
1000
0001
1000
,  // measure 36
0010
1000
0001
0010
,  // measure 37
0100
0010
0001
0010
,  // measure 38
0100
0010
0001
1000
,  // measure 39
0100
0000
0010
0100
1000
0002
0000
0203
,  // measure 40
0000
0301
2000
0000
3200
0300
0010
0000
,  // measure 41
0100
0000
1000
0001
1000
0000
0010
0000
,  // measure 42
0100
0000
0001
0100
0001
0000
0101
0000
,  // measure 43
0100
0001
0100
0001
,  // measure 44
0100
0001
1000
0100
,  // measure 45
1000
0100
1000
0100
,  // measure 46
1000
0001
0100
0001
,  // measure 47
1000
0000
0001
0010
0000
0010
0100
0000
,  // measure 48
0010
0000
0001
1000
0000
1000
0001
0000
,  // measure 49
1000
0000
0100
0010
0000
0010
0001
0000
,  // measure 50
1000
0000
0001
0020
0000
0000
0130
0000
,  // measure 51
0010
0002
0000
0000
1003
0000
0001
0200
,  // measure 52
0000
0310
0100
0010
,  // measure 53
1000
0200
0000
0000
0310
0000
0001
2000
,  // measure 54
0000
3001
1000
0010
,  // measure 55
0100
0002
0000
0000
1003
0000
0100
2000
,  // measure 56
0000
3001
0100
0001
,  // measure 57
0010
0200
0000
0000
1300
0000
0001
2000
,  // measure 58
0000
3100
0010
0001
,  // measure 59
0000
0000
0000
1000
,  // measure 60
0000
0000
0000
0001
,  // measure 61
0000
0000
0000
1000
,  // measure 62
0000
0000
0000
0001
,  // measure 63
0000
0000
0000
1000
,  // measure 64
0000
0000
0000
0100
,  // measure 65
0000
0010
0000
0000
0100
0000
0000
1000
,  // measure 66
0000
0000
0002
2000
0000
0000
3003
0000
;

//---------------dance-single - ----------------
#NOTEDATA:;
#CHARTNAME:X-Scale 11;
#STEPSTYPE:dance-single;
#DESCRIPTION:;
#CHARTSTYLE:;
#DIFFICULTY:Medium;
#METER:8;
#RADARVALUES:0.475736,0.677018,0.295825,0.380347,0.029583,394.000000,359.000000,35.000000,45.000000,0.000000,0.000000,0.000000,0.000000,0.000000,0.475736,0.677018,0.295825,0.380347,0.029583,394.000000,359.000000,35.000000,45.000000,0.000000,0.000000,0.000000,0.000000,0.000000;
#CREDIT:iamthek3n;
#NOTES:
// measure 0
0000
0000
0000
0000
,  // measure 1
0000
0000
0000
0000
,  // measure 2
0000
0000
0000
0000
,  // measure 3
0000
0000
1001
1000
,  // measure 4
0001
0100
0001
0000
0010
0000
0100
0000
,  // measure 5
1000
0100
1100
0000
0101
0000
0100
0000
,  // measure 6
0001
0010
0200
0000
2300
0000
0001
0000
,  // measure 7
3010
0100
0001
0000
0000
0000
1001
1000
,  // measure 8
0020
0000
0031
0010
0200
0000
0301
0100
,  // measure 9
1000
0001
1000
0010
2000
0000
3100
0010
,  // measure 10
0001
1000
0001
0100
0202
0000
0303
0202
,  // measure 11
0000
0303
0202
0000
0303
0000
1100
0100
,  // measure 12
0002
0000
1003
0010
0002
0000
1003
0100
,  // measure 13
0001
1000
0010
0100
2000
0000
3001
0100
,  // measure 14
1000
0001
0010
1000
1010
0000
0011
0000
,  // measure 15
0101
0000
1100
0000
1001
0000
0010
0100
,  // measure 16
0001
0000
0000
0000
0000
0000
1000
0000
0000
0001
0000
0000
1000
0000
1000
0100
0000
0000
1000
0000
0000
0001
0000
0000
,  // measure 17
0100
0000
0000
0000
0000
0000
0101
0000
0000
0001
0000
0000
1000
0000
1000
0001
0000
0000
0100
0000
0000
0010
0000
0000
,  // measure 18
1000
0000
0010
0100
1001
0000
0001
0000
,  // measure 19
0001
0100
0100
0010
,  // measure 20
0010
0010
0010
1000
,  // measure 21
1000
0100
0100
0010
,  // measure 22
0010
0000
0010
0000
0010
0000
0001
0100
,  // measure 23
0010
1000
0001
0000
1001
0000
1000
0100
,  // measure 24
0010
0001
1000
0000
0110
0000
0001
0010
,  // measure 25
1000
0001
0100
1000
0001
1000
0100
0001
,  // measure 26
0100
1000
2200
3300
0202
0303
1001
0000
,  // measure 27
1000
0000
0010
1000
0010
0000
0100
0000
,  // measure 28
0001
0000
1000
0100
0001
0100
1000
0000
,  // measure 29
0001
0000
0100
0010
0100
0000
0001
0000
,  // measure 30
0010
0000
0100
0001
0100
1000
0100
0000
,  // measure 31
1000
0000
0001
0010
0100
2000
0000
3020
,  // measure 32
0000
0130
0002
0000
2003
0000
3100
0010
,  // measure 33
0001
2000
3000
0000
0100
0010
0001
2000
,  // measure 34
3000
0000
0001
0200
1000
0000
0301
0000
,  // measure 35
0101
0000
1000
0100
0001
0100
1000
0000
,  // measure 36
1100
0000
0001
0100
1000
0100
0001
0000
,  // measure 37
0101
0000
0000
0001
1000
0001
1000
0000
1001
0000
0000
0100
1000
0000
0001
0000
,  // measure 38
0100
0000
0001
0100
0010
0100
0001
0000
0101
0000
1000
0000
1100
0000
0100
0000
,  // measure 39
1000
0100
1000
0100
1000
0100
1000
0001
,  // measure 40
1000
0001
1000
0001
1000
0001
1000
0100
,  // measure 41
0001
0200
1300
0000
0001
0100
1000
0200
,  // measure 42
0301
0000
1000
0020
0001
0000
1030
0000
,  // measure 43
1010
0001
0011
0100
,  // measure 44
0101
0000
0001
1000
0001
2000
3100
0000
,  // measure 45
1100
0001
1001
0100
,  // measure 46
0110
0001
1001
0100
,  // measure 47
1100
1000
0001
0100
1000
0100
0001
0000
,  // measure 48
0101
0000
1000
0100
0001
0100
1000
0010
,  // measure 49
0100
0002
1003
0000
0010
0100
0001
2000
,  // measure 50
3001
0000
1000
0020
0001
0000
1030
0010
,  // measure 51
0100
0020
0001
0000
1030
0001
0010
0200
,  // measure 52
0001
0000
1300
0100
0001
0100
1000
0010
,  // measure 53
0100
0002
0100
0000
1003
0100
0010
0200
,  // measure 54
0001
0000
1300
0100
0001
0100
1000
0001
,  // measure 55
0100
0020
0001
0000
1030
0010
0100
0002
,  // measure 56
0100
0000
1003
0100
0001
0100
1000
0001
,  // measure 57
0010
0200
0001
0000
1300
0100
1000
0002
,  // measure 58
0100
0000
1003
0100
0020
0000
0031
0000
,  // measure 59
0001
1000
1000
0010
,  // measure 60
0010
0010
0010
1000
,  // measure 61
1000
0001
0001
0100
,  // measure 62
0100
0100
0100
0001
,  // measure 63
0001
1000
1000
0010
,  // measure 64
0010
0010
0010
0000
,  // measure 65
0000
2000
3000
0000
0000
0000
0000
0002
,  // measure 66
0003
0000
2000
0002
0000
0000
3003
0000
;

//---------------dance-single - ----------------
#NOTEDATA:;
#CHARTNAME:X-Scale 15;
#STEPSTYPE:dance-single;
#DESCRIPTION:;
#CHARTSTYLE:;
#DIFFICULTY:Hard;
#METER:10;
#RADARVALUES:0.598896,0.818063,0.388799,0.447964,0.190174,496.000000,450.000000,46.000000,53.000000,0.000000,0.000000,0.000000,0.000000,0.000000,0.598896,0.818063,0.388799,0.447964,0.190174,496.000000,450.000000,46.000000,53.000000,0.000000,0.000000,0.000000,0.000000,0.000000;
#CREDIT:iamthek3n;
#NOTES:
// measure 0
0000
0000
0000
0000
,  // measure 1
0000
0000
0000
0000
,  // measure 2
0000
0000
0000
0000
,  // measure 3
0000
0000
0000
0000
0000
0000
0000
0000
0000
0000
0000
0000
1100
0000
1000
0100
0000
0000
1000
0000
0000
0100
0000
0000
,  // measure 4
0001
0000
0000
0100
0000
0000
1000
0000
0000
0001
0000
0000
0100
0000
0001
1000
0000
0000
0010
0000
0000
0001
0000
0000
,  // measure 5
0010
0000
0000
1000
0000
0000
1010
0000
0000
0000
0000
0000
0011
0000
0010
0001
0000
0000
1000
0000
0000
0010
0000
0000
,  // measure 6
0100
0000
0000
1000
0000
0000
0001
0000
0000
0010
0000
0000
0100
0000
0100
0001
0000
0000
1000
0000
0000
0001
0000
0000
,  // measure 7
0100
0000
0000
0000
0100
0000
0001
0000
0000
0000
0000
0000
0101
0000
0000
0000
0000
0000
0000
0000
0000
0000
0000
0000
2000
0000
0000
3000
0000
0000
2000
0000
0000
3000
0000
0000
1100
0000
0000
0000
0000
0000
0100
0000
0000
0000
0000
0000
,  // measure 8
0020
0000
1030
0010
0002
0000
0103
1000
,  // measure 9
0001
0010
1000
0001
2000
0000
3001
0100
,  // measure 10
1000
0000
0000
0100
0000
0000
0001
0000
0000
1000
0000
0000
0001
0000
0001
1000
0000
0000
1001
0000
0000
0100
0000
0000
,  // measure 11
1000
0000
0010
0000
0001
0000
1000
0100
0001
0000
0000
0000
0101
0000
1000
0000
,  // measure 12
0001
0100
0010
0100
2000
0000
3001
0010
,  // measure 13
1000
0000
0000
0001
0000
0000
0100
0000
0000
0010
0000
0000
1000
0000
0001
1000
0000
0000
1100
0000
0000
0001
0000
0000
,  // measure 14
1000
0010
1000
0001
0020
0000
2030
0000
,  // measure 15
3200
0300
0101
0000
2001
0000
3010
1000
,  // measure 16
0002
0000
0013
1000
0001
0100
1000
0001
,  // measure 17
2000
0000
3100
0010
0002
0000
0103
0010
,  // measure 18
2000
0000
3001
0100
0101
0000
1000
0000
,  // measure 19
1000
0000
0000
0000
0000
0000
0001
0000
0000
0000
0000
0000
0001
0000
0000
0001
1000
0001
2000
0000
0000
3000
0000
0000
,  // measure 20
0200
0000
0000
0000
0320
0000
0000
0000
0000
0032
0000
0000
0000
0000
0000
0000
0000
0000
0103
0000
0000
0000
0000
0000
,  // measure 21
0100
0000
0010
0000
0010
0000
0001
0010
,  // measure 22
1000
0002
1000
0003
0001
0000
0001
0010
,  // measure 23
1000
0010
0002
0003
1001
0000
1000
0100
,  // measure 24
0001
0100
2000
3000
1001
0000
0001
0100
,  // measure 25
1000
0010
0001
1000
0100
0001
0100
0010
,  // measure 26
0001
1000
2200
3300
0202
0303
1001
1000
,  // measure 27
1000
0000
0001
0100
0001
0100
0001
0000
0101
0000
0000
0001
1000
0000
1000
0000
,  // measure 28
1100
0000
0100
1000
0001
1000
0100
0000
1100
0000
0001
0000
1000
0000
0100
0000
,  // measure 29
0010
0000
0100
0010
0001
1000
0001
0000
1001
0000
0000
0100
1000
0000
1000
0000
,  // measure 30
1001
0000
0001
0100
0010
1000
0001
0000
0011
0000
1000
0000
1001
0000
0001
0000
,  // measure 31
0100
0000
1000
0100
0001
1000
0001
0000
0011
0000
0000
0010
0100
0000
0100
0000
,  // measure 32
1100
0000
1000
0001
0100
0001
1000
0000
0101
0000
0001
0000
1100
0000
0100
0000
,  // measure 33
0010
0002
0003
1000
0001
0100
0010
2000
,  // measure 34
3001
0000
0000
0001
0200
0000
1000
0000
0001
0000
0310
0000
0110
0000
0000
0000
,  // measure 35
1001
0000
0000
1000
0010
0000
1000
0000
0001
0000
0010
0100
1000
0000
1000
0000
,  // measure 36
0001
0000
0000
0100
0001
0000
0100
0000
1000
0000
0100
0000
0001
0000
0001
0000
,  // measure 37
0101
0000
1000
0001
1000
0000
0100
0000
0100
0000
0010
0100
1000
0000
1000
0000
,  // measure 38
1001
0000
0001
0100
0001
0000
0010
0000
1000
0000
0010
0000
0001
0000
0100
0000
,  // measure 39
0010
1000
0001
0100
0010
1000
0100
0010
,  // measure 40
0001
0000
1000
0000
0100
0000
0010
0000
0001
0000
1000
0000
0001
0100
0001
0100
,  // measure 41
0001
0100
0001
0100
0010
1000
0010
1000
0010
1000
0010
1000
0100
0010
0100
0010
,  // measure 42
0100
0010
0100
0010
0002
0000
2000
0000
0000
0000
3003
0000
1001
0000
0000
0000
,  // measure 43
0110
1001
0110
1001
,  // measure 44
0110
0000
1100
0100
0110
0001
0101
0000
,  // measure 45
0011
1010
1100
0101
,  // measure 46
0001
0100
2000
0000
3001
0010
1000
0010
,  // measure 47
1010
1000
0001
0010
0100
0001
1000
0010
,  // measure 48
0100
1000
0001
1000
0100
1000
0001
0100
,  // measure 49
0010
2000
3001
0000
1000
0100
0010
0002
,  // measure 50
1003
0000
1100
0200
0010
0000
1300
0100
,  // measure 51
0001
0100
2000
0000
3001
0100
1000
0200
,  // measure 52
0001
0000
1300
0100
0001
1000
0001
0100
,  // measure 53
0010
2000
0001
0000
3100
0010
0001
0200
,  // measure 54
1000
0000
0301
0100
1000
0100
0001
1000
,  // measure 55
0100
0020
1000
0000
0031
0010
0100
2000
,  // measure 56
0001
0000
3100
1000
0001
0100
0010
0001
,  // measure 57
1000
0200
0010
0000
0301
0100
0010
2000
,  // measure 58
0001
0000
3010
1000
0002
0000
1003
0001
,  // measure 59
1000
0200
0000
0000
0301
0100
0010
0002
,  // measure 60
0000
0000
0000
0000
0003
0000
1000
0001
,  // measure 61
0010
0200
0000
0000
0301
0100
0010
0002
,  // measure 62
0000
0000
0000
0000
0003
0000
0001
1000
,  // measure 63
0001
0200
0000
0000
1300
0100
0010
2000
,  // measure 64
0000
0000
0000
0000
3000
0000
1000
0100
,  // measure 65
0010
0002
0003
0000
0100
0010
1000
0002
,  // measure 66
0003
0000
0020
0200
0000
0000
0330
0000
;

//---------------dance-single - ----------------
#NOTEDATA:;
#CHARTNAME:X-Scale 14 (DANCERUSH Special);
#STEPSTYPE:dance-single;
#DESCRIPTION:;
#CHARTSTYLE:;
#DIFFICULTY:Challenge;
#METER:9;
#RADARVALUES:0.404496,0.479554,0.118330,0.363443,0.004226,335.000000,321.000000,14.000000,43.000000,219.000000,0.000000,0.000000,10.000000,0.000000,0.404496,0.479554,0.118330,0.363443,0.004226,335.000000,321.000000,14.000000,43.000000,219.000000,0.000000,0.000000,10.000000,0.000000;
#CREDIT:k3n -REPLAY-;
#NOTES:
// measure 0
0000
0000
0000
0000
,  // measure 1
0000
0000
0000
0000
,  // measure 2
0000
0000
0000
0000
,  // measure 3
0000
0000
0000
0000
0001
MMMM
0001
MMMM
,  // measure 4
0001
0000
0110
0000
1000
MMMM
1000
MMMM
,  // measure 5
2000
0000
0020
3030
L0L0
0000
0000
0000
0001
0000
MMMM
0000
0001
0000
MMMM
0000
,  // measure 6
0001
0100
1000
0001
0010
1000
1100
MMMM
,  // measure 7
0100
0001
0101
MMMM
0000
0000
1000
MMMM
,  // measure 8
1000
MMMM
1000
0001
2000
0000
3010
0M10
,  // measure 9
0100
01M0
0001
1000
0002
0000
1003
MMMM
,  // measure 10
1000
MMMM
1000
0010
2020
3030
L0L0
0022
,  // measure 11
0033
00LL
2020
3030
L0L0
0000
0001
MMMM
,  // measure 12
0001
MMMM
0001
0010
0002
0000
0103
01M0
,  // measure 13
0010
0M10
1000
0001
2000
0000
3001
MMMM
,  // measure 14
0001
MMMM
0001
0010
2000
0000
3200
0000
,  // measure 15
0302
0000
0003
0000
1000
MMMM
1000
MMMM
,  // measure 16
1000
MMMM
1000
MMMM
1000
0100
0001
0100
,  // measure 17
1000
0000
0110
0000
0001
MMMM
0001
MMMM
,  // measure 18
0001
MMMM
0001
MMMM
0001
0000
00M0
0000
,  // measure 19
00M0
0M00
0M00
M002
,  // measure 20
M023
0000
0000
0000
0230
0000
000M
0000
0000
2300
0000
0000
000M
0000
0000
3000
0000
0000
0M00
0000
0000
0000
0000
0000
,  // measure 21
0M00
0000
00M0
0000
00M0
0000
M001
0100
,  // measure 22
M001
0020
000M
0030
000M
0000
1000
0000
,  // measure 23
0100
0001
0010
1000
,  // measure 24
0100
0001
0010
1000
,  // measure 25
0010
0001
0100
1000
,  // measure 26
0010
0000
0001
0000
0100
0000
1000
1000
,  // measure 27
1100
0000
0001
0001
0101
0000
1000
0001
,  // measure 28
1000
0000
0001
0100
1000
0100
0001
1000
,  // measure 29
0001
0000
1000
0010
1000
0000
0001
0010
,  // measure 30
0001
0000
1000
0100
0001
0100
1000
0001
,  // measure 31
1000
0000
0001
0100
0001
0000
1000
0100
,  // measure 32
1000
0000
0001
0100
1000
0100
0001
1000
,  // measure 33
0001
0020
0M30
0000
1000
0001
1000
0200
,  // measure 34
03M0
0000
0001
0002
0000
0000
1003
MMMM
,  // measure 35
1000
MMMM
1000
0100
00M0
0100
0001
MMMM
,  // measure 36
0001
MMMM
0001
0010
0M00
0010
1000
MMMM
,  // measure 37
1000
MMMM
1000
0100
00M0
0100
0001
MMMM
,  // measure 38
0001
MMMM
0001
0010
0M00
0010
1000
0010
,  // measure 39
0100
0001
1000
0010
0100
0001
1000
0100
,  // measure 40
0010
0001
1000
0100
0010
0001
1000
0001
,  // measure 41
1000
0200
03M0
0000
0001
0010
0001
0200
,  // measure 42
03M0
0000
1000
2000
0000
0000
3001
MMMM
,  // measure 43
0001
MMMM
0001
MMMM
0001
MMMM
0001
MMMM
,  // measure 44
0001
MMMM
0001
0100
0010
2000
0001
0000
,  // measure 45
3100
MMMM
0100
MMMM
0010
MMMM
0010
0000
,  // measure 46
0001
0010
2000
0000
3001
0100
1000
MMMM
,  // measure 47
1000
MMMM
1000
0100
00M0
0100
0001
MMMM
,  // measure 48
0001
MMMM
0001
0010
0M00
0010
1000
0001
,  // measure 49
1000
0200
03M0
0000
0001
1000
0001
0200
,  // measure 50
03M0
0000
1000
0100
0001
0100
1000
0010
,  // measure 51
0100
0002
0100
0003
100M
0010
1000
0200
,  // measure 52
0001
0000
1300
0001
0100
0001
1000
0010
,  // measure 53
1000
0200
0010
0300
1M00
0001
0100
0020
,  // measure 54
0001
0000
1030
0010
0001
0010
1000
0001
,  // measure 55
0100
0020
1000
0030
00M1
0010
0100
2000
,  // measure 56
0100
0000
3001
0100
1000
0100
0001
1000
,  // measure 57
0010
0200
0001
0300
1M00
0001
0100
0020
,  // measure 58
0001
1030
0002
1003
,  // measure 59
1000
0100
01M0
0001
,  // measure 60
0001
0001
0001
1000
,  // measure 61
1000
0010
0M10
0001
,  // measure 62
0001
0001
0001
1000
,  // measure 63
1000
0100
01M0
0001
,  // measure 64
0001
0001
0001
0000
,  // measure 65
0000
0002
0003
0000
0000
0000
0000
2000
,  // measure 66
3000
0000
0000
0000
0002
0000
2000
0000
0000
0000
0000
3003
L00L
0000
0000
0000
;
