#VERSION:0.83;
#TITLE:Quit ft. Ariana Grande;
#SUBTITLE:;
#ARTIST:Cashmere Cat;
#TITLETRANSLIT:;
#SUBTITLETRANSLIT:;
#ARTISTTRANSLIT:;
#GENRE:Electronic;
#ORIGIN:;
#CREDIT:;
#BANNER:quit-bn.png;
#BACKGROUND:quit-bg.png;
#PREVIEWVID:;
#JACKET:quit-jacket.png;
#CDIMAGE:;
#DISCIMAGE:;
#LYRICSPATH:;
#CDTITLE:cdtitle.png;
#MUSIC:quit.ogg;
#OFFSET:-0.004000;
#SAMPLESTART:85.334999;
#SAMPLELENGTH:28.400000;
#SELECTABLE:YES;
#BPMS:0.000=67.500,
88.000=135.000,
100.000=67.500,
102.000=135.000,
130.000=67.500,
132.000=135.000,
164.000=67.500;
#STOPS:;
#DELAYS:;
#WARPS:;
#TIMESIGNATURES:0.000=4=4;
#TICKCOUNTS:0.000=4;
#COMBOS:0.000=1;
#SPEEDS:0.000=1.000=0.000=0;
#SCROLLS:0.000=1.000;
#FAKES:;
#LABELS:0.000=Song Start;
#BGCHANGES:;
#KEYSOUNDS:;
#ATTACKS:
;

//---------------dance-single - ----------------
#NOTEDATA:;
#CHARTNAME:;
#STEPSTYPE:dance-single;
#DESCRIPTION:;
#CHARTSTYLE:;
#DIFFICULTY:Hard;
#METER:8;
#RADARVALUES:0.335395,0.482205,0.063263,0.344433,0.277655,334.000000,325.000000,9.000000,49.000000,0.000000,0.000000,0.000000,0.000000,0.000000,0.335395,0.482205,0.063263,0.344433,0.277655,334.000000,325.000000,9.000000,49.000000,0.000000,0.000000,0.000000,0.000000,0.000000;
#CREDIT:;
#NOTES:
// measure 0
0000
0000
0000
0000
,  // measure 1
0000
0000
0000
0000
,  // measure 2
0000
0000
0000
0000
,  // measure 3
0000
0000
0000
0000
,  // measure 4
1000
0100
0010
0100
1000
0001
1000
0001
1000
0001
0010
0100
1000
0100
0010
0100
,  // measure 5
1000
0001
0010
0001
0100
0010
0200
0000
0010
0000
0000
0000
0302
0000
0203
0000
,  // measure 6
0301
0100
0010
1000
0001
1000
0100
1000
0001
0010
0100
1000
0100
0010
0100
1000
,  // measure 7
0010
0001
0010
0100
0010
1000
2000
0000
0100
0000
0000
0000
3010
0000
0000
0000
,  // measure 8
1020
0000
0001
0000
0130
0010
0001
0010
0200
0000
0001
0000
0310
0100
0010
1000
,  // measure 9
0002
0000
0000
0000
0103
0001
0100
0001
0002
0000
2003
0000
3200
0000
0000
0000
,  // measure 10
1300
0100
1000
0001
0010
0100
0010
0001
0010
0100
0010
0001
1000
0100
2000
0000
,  // measure 11
3001
0000
1000
0100
1000
0001
0010
0001
0002
0000
0000
0000
0103
0010
0100
0010
,  // measure 12
0100
0000
0001
0000
1000
0000
0001
1000
0010
0000
1000
0010
0000
0100
0000
0010
,  // measure 13
0200
0000
0000
0000
0010
0000
0300
0000
0001
0000
0000
0000
1000
0010
1000
0100
,  // measure 14
1000
0000
1000
0010
0000
0100
0001
0100
0000
0010
0000
1000
0000
0000
0001
2000
,  // measure 15
0001
0000
0000
0000
0000
0000
0000
0000
3001
0000
0000
0000
1000
0000
1000
0001
,  // measure 16
2001
0001
3002
0023
,  // measure 17
0230
0000
0000
0000
1300
0100
1000
0010
,  // measure 18
0120
0001
0230
0320
,  // measure 19
2030
0000
0000
0000
0000
0000
0000
0000
0000
0000
0000
0000
0000
0000
0000
0000
0000
0002
0000
0000
0000
0000
0000
0000
3003
0000
0000
0000
0000
0000
0000
0000
0000
0000
0100
0000
0010
0000
0000
0000
0000
0000
0100
0000
0000
0001
0000
0000
,  // measure 20
0200
0001
0320
2030
,  // measure 21
3200
0000
0000
0000
0000
0300
0100
1000
0020
0000
0000
0000
0130
0000
0010
0000
,  // measure 22
0101
1000
0001
0100
,  // measure 23
0001
0010
0001
0010
0100
1000
0100
1000
,  // measure 24
0100
1000
0100
1000
0010
1000
0010
0100
0010
0100
0001
0100
,  // measure 25
0001
0000
0000
0000
0000
0000
0001
0001
1001
0000
0000
0001
1000
0000
0001
0000
,  // measure 26
0100
0000
0100
0010
0100
1000
0100
0010
,  // measure 27
0100
0000
0000
0000
0001
0000
0000
0000
0100
0000
0000
0001
0100
0000
0001
0000
,  // measure 28
0100
0000
0010
0001
0010
1000
0010
0001
,  // measure 29
0010
0000
0000
0000
0100
0000
0001
0000
1000
0000
0000
1000
0001
0000
1000
0000
,  // measure 30
0000
1000
0000
0000
0010
0000
0100
0000
0010
0000
0000
0010
1000
0000
0010
0000
,  // measure 31
0100
0000
0001
0000
1000
0000
0000
0000
0001
0000
0000
0100
0001
0000
0010
0000
,  // measure 32
0100
0010
0000
0000
0001
0000
1000
0000
0001
0000
0100
0001
0100
0001
1000
1000
,  // measure 33
1001
0000
0001
1000
0010
0100
0010
0100
,  // measure 34
0001
0000
0001
0100
0010
1000
0010
0100
,  // measure 35
0001
0000
1000
0010
0100
0010
0001
0010
,  // measure 36
0100
0010
1000
0100
0010
0001
0010
0001
,  // measure 37
1000
0000
1000
1000
0001
1000
0001
1000
,  // measure 38
0001
0000
1000
0100
0010
0001
0010
0100
,  // measure 39
1000
0000
1000
0010
0100
0010
0100
0010
,  // measure 40
0100
0000
0000
0001
0000
0000
1000
0000
0001
0000
0010
0000
0100
0000
0100
0000
,  // measure 41
0210
0000
0000
0000
0000
0000
0000
0000
0320
0000
0000
0030
0200
0000
0000
0300
,  // measure 42
2000
0000
3002
0000
,  // measure 43
2003
0000
0000
0000
0000
0000
0000
0000
3020
0000
0000
0030
0200
0000
0000
0300
,  // measure 44
0002
0000
0000
0000
0000
0000
0000
0000
0000
0000
0000
0000
0000
0000
0000
0000
0000
0020
0000
0000
0000
0000
0000
0000
0033
0000
0000
0000
0000
0000
0000
0000
0000
0000
0001
0000
0100
0000
0000
0000
0000
0000
0001
0000
0000
0000
0000
0000
,  // measure 45
0102
0000
0023
2030
,  // measure 46
3020
0000
0200
0330
,  // measure 47
0210
0000
0000
0300
2000
0000
3020
0000
,  // measure 48
0230
0000
0301
0100
0002
0000
0020
0000
,  // measure 49
0033
0000
0000
0000
;

//---------------dance-single - ----------------
#NOTEDATA:;
#CHARTNAME:;
#STEPSTYPE:dance-single;
#DESCRIPTION:;
#CHARTSTYLE:;
#DIFFICULTY:Medium;
#METER:5;
#RADARVALUES:0.255061,0.378876,0.049205,0.295228,0.119497,254.000000,247.000000,7.000000,42.000000,0.000000,0.000000,0.000000,0.000000,0.000000,0.255061,0.378876,0.049205,0.295228,0.119497,254.000000,247.000000,7.000000,42.000000,0.000000,0.000000,0.000000,0.000000,0.000000;
#CREDIT:;
#NOTES:
0000
0000
0000
0000
,
0000
0000
0000
0000
,
0000
0000
0000
0000
,
0000
0000
0000
0000
,
0001
0000
0010
0000
0001
0100
0001
0100
0001
0000
0010
0000
1000
0100
0001
0100
,
0010
1000
0100
0200
0010
0000
0310
0000
,
0010
0000
0001
0000
1000
0100
1000
0100
1000
0000
0010
0000
0100
0010
0001
0010
,
0100
0000
0001
0000
0010
0002
0000
0000
0100
0000
0000
0000
0013
0000
0000
0000
,
0011
0000
0001
0000
1000
0010
0001
0010
0100
0000
0010
0000
1000
0100
0010
0100
,
1000
0000
0001
0000
0100
0001
0100
0002
0000
0000
0023
0000
0230
0000
0000
0000
,
1300
0000
0100
0000
1000
0100
0010
0001
0100
0000
0001
0000
0010
0100
0010
0000
,
0010
0000
0001
1000
0001
0001
0010
0001
0002
0000
0000
0000
0103
0000
0001
0000
,
1000
0000
0001
0000
1000
0000
0001
0010
0001
0000
1000
0010
0000
0010
0000
0010
,
0200
0000
0010
0300
0100
0000
0001
1000
,
0100
0000
1000
0010
0000
0100
0000
0010
0000
1000
0000
1000
0000
0000
0001
2000
,
0001
0000
0000
0000
3001
0000
1000
0100
,
2100
0000
3002
2003
,
3200
0000
0000
0000
1300
0000
1000
0001
,
0102
0000
0203
0320
,
2030
0000
0000
0000
3100
0000
0100
1000
,
0200
0010
0320
0032
,
0023
0000
0200
0330
,
0110
0010
0001
0100
,
0001
0010
1000
0100
0001
0010
0100
1000
,
0002
0100
1000
0010
,
0103
0000
0000
0000
0000
0000
1000
1000
1010
0000
0000
0000
0010
0000
0000
0000
,
0100
0000
0001
0100
0001
0000
1000
0000
,
0010
0100
0001
1000
,
0010
0000
0100
0001
0100
0000
0010
0000
,
1000
0000
0010
0100
0010
0000
1000
0000
,
0001
0000
0100
0001
0100
0000
0001
0000
,
1000
0100
1000
0001
,
0100
0000
0000
0000
0001
0000
1000
0000
0002
0000
0000
0000
0023
0000
0001
0001
,
0031
0000
0001
0000
0010
0100
0010
0100
,
0010
0001
1000
0010
,
0100
0000
0001
0000
1000
0010
1000
0010
,
1000
0010
0100
0010
,
1000
0000
0001
0000
0010
0100
0010
0100
,
0010
0001
1000
0010
,
1000
0000
0100
0000
0010
0100
0010
0100
,
0010
0000
0000
0010
0000
0000
0010
0000
0001
0000
0000
0000
0100
0000
0001
0000
,
0201
0000
0000
0000
0000
0000
0000
0000
0320
0000
0000
0030
0200
0000
0000
0300
,
0002
0000
0023
0000
,
0230
0000
0000
0000
0000
0000
0000
0000
0320
0000
0000
0030
0200
0000
0000
0300
,
2000
0000
3010
0010
,
0210
0000
0320
2030
,
3002
0000
0010
0003
,
0020
0000
0000
0030
0002
0000
2003
0000
,
3200
0000
1300
0100
2000
0000
0100
0000
,
3000
0000
0000
0000
;

//---------------dance-single - ----------------
#NOTEDATA:;
#CHARTNAME:;
#STEPSTYPE:dance-single;
#DESCRIPTION:;
#CHARTSTYLE:;
#DIFFICULTY:Easy;
#METER:3;
#RADARVALUES:0.177739,0.223881,0.021088,0.337403,0.031632,177.000000,174.000000,3.000000,48.000000,0.000000,0.000000,0.000000,0.000000,0.000000,0.177739,0.223881,0.021088,0.337403,0.031632,177.000000,174.000000,3.000000,48.000000,0.000000,0.000000,0.000000,0.000000,0.000000;
#CREDIT:;
#NOTES:
0000
0000
0000
0000
,
0000
0000
0000
0000
,
0000
0000
0000
0000
,
0000
0000
0000
0000
,
1000
0000
0001
1000
0001
0000
0100
0010
,
1000
0000
1000
0020
0000
0000
0230
0320
,
1030
0000
0001
1000
0010
0000
0010
0100
,
0001
0000
1000
0010
0200
0000
0320
0000
,
2030
0001
3002
0100
,
0203
0000
0001
0000
0302
1000
2000
0000
,
0003
0100
3200
1000
,
2300
0001
3002
0100
,
1003
0000
0001
0000
1000
0000
0000
0000
0010
0000
0000
1000
0000
0001
0000
0010
,
0002
0000
0000
0000
0010
0000
0003
0000
0100
0000
0000
0001
0000
0000
0000
0000
,
0001
0000
0000
0000
1000
0000
0000
1000
0000
0001
0000
0100
0000
0000
0100
0020
,
0000
0000
2030
3200
,
2300
0000
3002
0023
,
0230
0000
0320
0001
,
0032
0203
0302
2003
,
3002
0000
0023
0100
,
0032
0000
2003
3200
,
2300
0000
0000
0000
0020
0000
3030
1000
,
1010
0000
0100
0000
,
0001
1000
0001
0100
,
0002
0000
1000
0000
,
0013
0000
0011
0010
,
0100
0010
0001
1000
,
0010
0100
0001
1000
,
0010
0100
0100
0010
,
1000
0000
0010
1000
0010
0000
1000
0000
,
0001
0100
0001
0010
,
0001
1000
0100
0010
,
0100
0000
0000
0000
1000
0000
0000
0000
0002
0000
0000
0000
1003
0000
1000
0100
,
1000
0001
1000
0010
,
0100
0001
0010
0100
,
0010
0001
1000
0010
,
1000
0000
0001
0000
0010
0000
0100
0010
,
0100
1000
0010
1000
,
0001
0010
0100
1000
,
0001
0100
0010
1000
,
0002
0000
0000
0000
1003
0001
1000
0001
,
2001
0000
0010
0100
,
3020
0000
2030
0000
,
3200
0000
0010
1000
,
0320
0000
0230
1000
,
2300
0000
0001
0010
,
3002
0000
0020
0030
,
0023
0000
0001
0100
,
0032
0000
0200
0000
,
0303
0000
0000
0000
;

//---------------dance-single - ----------------
#NOTEDATA:;
#CHARTNAME:;
#STEPSTYPE:dance-single;
#DESCRIPTION:;
#CHARTSTYLE:;
#DIFFICULTY:Beginner;
#METER:1;
#RADARVALUES:0.102426,0.120551,0.014058,0.358491,0.000000,102.000000,100.000000,2.000000,51.000000,0.000000,0.000000,0.000000,0.000000,0.000000,0.102426,0.120551,0.014058,0.358491,0.000000,102.000000,100.000000,2.000000,51.000000,0.000000,0.000000,0.000000,0.000000,0.000000;
#CREDIT:;
#NOTES:
0000
0000
0000
0000
,
0000
0000
0000
0000
,
0000
0000
0000
0000
,
0000
0000
0000
0000
,
0001
0000
0010
0000
,
0100
0000
1000
0001
,
1000
0000
0010
0000
,
0100
0000
0001
1000
,
0002
0000
0203
0000
,
0320
0000
2030
0000
,
3020
0000
0230
0000
,
0320
0000
2030
0000
,
3002
1000
0203
0000
,
0320
0000
0230
0000
,
0302
0000
2003
0000
,
3020
0000
0230
0010
,
0320
0000
2030
3020
,
2030
0000
3002
0000
,
0203
0000
0320
0230
,
0302
0000
0023
0000
,
0032
0000
0023
0230
,
0320
0000
0002
0033
,
0012
0000
0000
0000
,
2003
0000
3200
0000
,
2300
0000
0000
0000
,
3100
0000
1100
0000
,
1000
0000
0001
0000
,
0010
0001
0010
0000
,
0001
0000
1000
0000
,
0020
0000
0130
0000
,
0001
0000
0010
0000
,
0100
0010
0100
0000
,
1000
0000
0200
2300
,
3010
0000
1000
0000
,
0001
0000
0010
0100
,
0010
0000
0001
0000
,
1000
0000
0200
0000
,
0310
0000
0100
0000
,
1000
0000
0001
1000
,
0001
0000
0100
0000
,
0200
0000
0320
0000
,
0230
0000
0001
0000
,
0302
0000
0100
0000
,
0203
0000
0010
0000
,
0320
0000
1000
0000
,
2030
0000
0001
0000
,
3002
0000
0020
0030
,
0023
0000
0100
0000
,
0230
0000
2000
3000
,
0300
0000
0000
0000
;
