#VERSION:0.83;
#TITLE:Queen of Your Heart;
#SUBTITLE:;
#ARTIST:Tut Tut Child feat. Augustus Ghost;
#TITLETRANSLIT:;
#SUBTITLETRANSLIT:;
#ARTISTTRANSLIT:;
#GENRE:Melodic Dubstep;
#ORIGIN:;
#CREDIT:;
#BANNER:qoyh-bn.png;
#BACKGROUND:QoYH-bg.png;
#PREVIEWVID:;
#JACKET:QoYH-jacket.png;
#CDIMAGE:;
#DISCIMAGE:;
#LYRICSPATH:;
#CDTITLE:cdtitle.png;
#MUSIC:QoYH.ogg;
#OFFSET:-0.004000;
#SAMPLESTART:82.763000;
#SAMPLELENGTH:15.000000;
#SELECTABLE:YES;
#BPMS:0.000=72.500,
20.000=145.000,
100.000=72.500,
140.000=145.000,
220.000=72.500;
#STOPS:;
#DELAYS:;
#WARPS:;
#TIMESIGNATURES:0.000=4=4;
#TICKCOUNTS:0.000=4;
#COMBOS:0.000=1;
#SPEEDS:0.000=1.000=0.000=0;
#SCROLLS:0.000=1.000;
#FAKES:;
#LABELS:0.000=Song Start;
#BGCHANGES:;
#KEYSOUNDS:;
#ATTACKS:
;

//---------------dance-single - ----------------
#NOTEDATA:;
#CHARTNAME:X-Scale 11;
#STEPSTYPE:dance-single;
#DESCRIPTION:;
#CHARTSTYLE:;
#DIFFICULTY:Hard;
#METER:8;
#RADARVALUES:0.433856,0.735147,0.142125,0.254329,0.310431,406.000000,387.000000,19.000000,34.000000,3.000000,0.000000,0.000000,0.000000,0.000000,0.433856,0.735147,0.142125,0.254329,0.310431,406.000000,387.000000,19.000000,34.000000,3.000000,0.000000,0.000000,0.000000,0.000000;
#CREDIT:;
#NOTES:
// measure 0
0000
0000
0000
0000
,  // measure 1
0000
0000
0000
0000
,  // measure 2
0000
0000
0000
0000
0000
0000
0000
0000
1000
0010
1000
0001
0000
0001
0010
0001
,  // measure 3
0100
0000
0100
0010
0100
0001
0000
1000
0001
1000
0100
0000
0010
0001
0100
0001
,  // measure 4
0000
1000
0100
1000
0001
0000
0010
0100
0010
0001
0000
1000
0001
1000
0001
0000
,  // measure 5
1001
0000
0001
0100
00M0
0100
1000
0000
,  // measure 6
0100
0000
1000
0100
1000
0100
0000
0010
,  // measure 7
0001
0010
0001
0000
0001
1000
0001
1000
,  // measure 8
0000
0010
0100
0000
0010
0000
1000
0001
,  // measure 9
1000
0001
0000
0010
0100
0010
0100
0000
,  // measure 10
0010
0000
0001
1000
0000
1000
0100
1000
,  // measure 11
0001
0000
0100
0001
1000
0001
0000
1000
,  // measure 12
0100
1000
0100
0010
0001
0000
1000
0001
,  // measure 13
0000
0100
0001
0100
0010
0000
1000
0100
,  // measure 14
0010
0001
0000
1000
0010
0100
0001
1000
,  // measure 15
0010
0M00
0010
0001
0000
1000
0001
0000
,  // measure 16
1000
0000
0010
0100
0010
0100
0000
0001
,  // measure 17
0010
0001
0100
0000
0001
0000
1000
0001
,  // measure 18
0000
1000
0010
0000
0001
0000
0010
0100
,  // measure 19
0010
0100
0000
0001
0100
0001
1000
0000
,  // measure 20
0010
0000
1000
0100
M000
0100
0001
0000
,  // measure 21
0001
0000
0010
0001
0010
0001
0000
0100
,  // measure 22
0001
1000
0010
0000
1000
0000
0100
1000
,  // measure 23
0000
0010
1000
0000
0001
0000
0100
0001
,  // measure 24
0100
0001
0000
1000
0100
1000
1100
0000
,  // measure 25
1010
0000
0000
1000
0000
0000
1000
0000
0010
0000
0100
0000
0001
1000
0001
1000
,  // measure 26
0001
0000
0100
0000
0010
0000
0000
1000
0000
0000
0001
0000
0010
0000
0100
0000
,  // measure 27
1000
0010
1000
0010
1000
0000
0100
0010
0100
0000
1000
0100
0000
0000
2000
3000
,  // measure 28
2000
3000
0001
0100
0001
0010
0001
0100
0001
0010
0001
0100
0001
0000
0010
0100
,  // measure 29
0000
0000
0020
0030
0020
0030
0001
1000
0001
1000
0100
0010
0100
0010
0110
0000
,  // measure 30
0101
0000
0000
0010
0000
0000
0001
0000
0100
0000
0010
0000
1000
0010
1000
0010
,  // measure 31
1000
0000
0100
0000
0010
0000
0000
0100
0000
0000
0001
0000
0100
0000
1000
0000
,  // measure 32
0010
1000
0010
1000
0010
0000
1000
0001
1000
0000
0001
0010
0000
0000
0001
0000
,  // measure 33
0010
0000
0000
0000
0010
0000
0001
0000
1000
0001
1000
0000
0001
0100
0001
0000
0000
0000
0100
0010
0100
0000
0001
0000
0100
0000
0000
0000
0001
1000
0001
0000
,  // measure 34
1000
0100
1000
0000
0010
1000
0010
0000
1000
0000
0001
0000
1001
0000
0000
0000
0000
0000
0000
0000
0000
0000
0000
0000
0000
0000
0000
0000
0000
0000
0000
0000
,  // measure 35
1020
0000
0000
0001
0000
0000
0100
0000
,  // measure 36
0100
0030
0210
0000
0000
1000
0000
0000
,  // measure 37
0001
0000
0001
0300
0102
0000
0000
0010
,  // measure 38
0000
0000
1000
0000
1000
0003
2001
0000
,  // measure 39
0000
0010
0000
0000
0100
0000
0100
3000
,  // measure 40
1100
0000
0000
0000
1000
0001
1000
0001
1000
0001
1000
0001
1000
0000
0000
0000
,  // measure 41
0100
0000
0000
0000
0110
0000
0000
0000
0010
0100
0010
0100
0010
0100
0010
0100
,  // measure 42
0010
0000
0000
0000
0001
0000
0000
0000
0101
0000
0000
0000
0001
0100
0001
0100
,  // measure 43
0001
0100
0001
0100
0001
0000
0000
0000
1000
0000
0000
0000
1010
0000
0000
0000
,  // measure 44
1000
0010
1000
0010
1000
0010
1000
0010
1000
0000
0000
0000
0100
0000
0000
0000
,  // measure 45
1200
0000
0000
0001
0000
0000
0010
0000
,  // measure 46
0010
0300
0120
0000
0000
1000
0000
0000
,  // measure 47
0001
0000
0001
0030
0012
0000
0000
0100
,  // measure 48
0000
0000
1000
0000
1000
0003
2001
0000
,  // measure 49
0000
0100
0000
0000
0010
0000
0010
3000
,  // measure 50
1010
1000
0000
0001
1000
0000
0001
1000
,  // measure 51
0002
0000
0103
0001
0000
1000
0001
0000
,  // measure 52
1000
0001
2000
0000
3010
1000
0001
1000
,  // measure 53
0010
0000
0100
0000
0001
0000
1000
0000
0010
0000
0000
0000
1000
0000
0001
0010
,  // measure 54
0001
0010
0000
0001
0100
0001
0100
0000
0020
0000
0000
0000
0000
0000
0000
0000
,  // measure 55
0230
0000
0000
0302
0000
0000
2003
0000
3200
0000
0320
0000
0000
0030
0000
0000
,  // measure 56
0002
0000
0023
0000
0032
0000
0000
0203
0000
0000
2300
0000
3200
0000
0320
0000
,  // measure 57
0000
0030
0000
0000
2000
0000
3010
1000
0002
0000
0013
0002
0000
0003
2000
0000
,  // measure 58
0000
0000
0000
3000
0000
0000
0000
0000
0000
0000
0000
1000
0200
0000
0310
0200
,  // measure 59
0000
0300
2000
0000
0000
0000
0000
0000
0000
3000
0000
0000
0000
0000
0000
0000
;

//---------------dance-single - ----------------
#NOTEDATA:;
#CHARTNAME:X-Scale 7;
#STEPSTYPE:dance-single;
#DESCRIPTION:;
#CHARTSTYLE:;
#DIFFICULTY:Medium;
#METER:5;
#RADARVALUES:0.307760,0.467821,0.067322,0.344092,0.100984,288.000000,279.000000,9.000000,46.000000,0.000000,0.000000,0.000000,0.000000,0.000000,0.307760,0.467821,0.067322,0.344092,0.100984,288.000000,279.000000,9.000000,46.000000,0.000000,0.000000,0.000000,0.000000,0.000000;
#CREDIT:;
#NOTES:
0000
0000
0000
0000
,
0000
0000
0000
0000
,
0000
0000
0000
0000
0000
0000
0000
0000
0000
1000
0100
1000
0000
0000
0001
0010
,
0001
0000
0000
0100
0001
0100
0000
0000
0001
1000
0001
0000
0000
1000
0010
1000
,
0000
0000
0100
0010
0100
0000
0000
0010
0001
0010
0000
0000
0001
0100
0001
0000
,
0101
0000
0000
0001
0000
0000
2000
0000
,
3002
0000
2003
0000
3002
0000
0003
0001
,
1000
0000
0001
0000
1000
0000
0000
0100
,
0000
0020
0230
0320
,
0130
0010
0000
0010
0001
0000
1000
0000
,
0001
0000
0000
0100
0000
0001
1000
0001
,
0020
0000
0230
0000
0320
0000
0030
0010
,
0001
0000
1000
0000
0001
0000
0010
0001
,
0000
0100
0001
0100
0002
0000
2003
0000
,
3002
0000
0003
0001
1000
0000
0001
0000
,
0010
0000
0000
0001
0000
0000
0200
0000
,
0302
0000
0203
0000
0310
0100
0000
0001
,
1000
0001
1000
0000
0100
0000
0000
0010
,
0000
0200
2300
3002
,
0023
0000
0030
0010
0001
0000
1000
0000
,
0100
0000
0000
1000
0000
0000
0002
0000
,
2003
0000
3200
0000
0320
0000
0030
0100
,
0010
0100
0010
0000
0001
0000
0000
1000
,
0000
0002
0203
0320
,
0030
0000
0000
1000
0100
0010
0001
0000
,
0011
0000
0000
0001
0000
0000
1000
0000
0001
0000
1000
0000
0001
0000
0010
0000
,
0001
0000
0010
0000
0100
0000
0000
0010
0000
0000
0001
0000
0010
0000
1000
0000
,
0010
0000
0001
0000
1000
0000
0001
0000
1000
0000
0000
0100
0000
0000
1000
0000
,
0100
0000
1000
0000
0010
0000
0100
0000
0001
0000
0010
0000
0001
0000
0010
0001
,
0000
1000
0010
1000
0100
0010
0100
0010
,
0110
0000
0000
0010
0000
0000
0100
0000
0010
0000
0100
0000
1000
0000
0010
0000
,
0100
0000
0001
0000
0010
0000
0000
0100
0000
0000
0001
0000
0100
0000
1000
0000
,
0100
0000
0010
0000
0100
0000
1000
0001
1000
0000
0010
0100
0000
0000
0010
0000
,
0100
0000
0010
0000
1000
0000
0001
0000
0010
0000
0100
0000
0010
0000
0001
0010
,
0000
0001
1000
1001
0000
0000
0000
0000
,
2100
0000
0000
0010
0000
0000
0100
0000
,
0100
0000
3200
0000
0000
1000
0000
0000
,
0010
0000
0010
0000
0320
0000
0000
0100
,
0000
0001
0001
0032
,
0000
0010
0000
0000
1000
0000
1000
0000
,
1003
0000
0001
0010
0000
0000
0001
0000
,
0100
0000
0001
0000
1000
0100
0001
0100
,
1000
0000
0001
0010
0100
0000
0001
0100
,
0000
1000
0010
1000
,
1000
0100
0001
0100
1000
0000
0100
0000
,
2100
0000
0000
0010
0000
0000
0100
0000
,
0100
0000
3200
0000
0000
1000
0000
0000
,
0010
0000
0010
0000
0320
0000
0000
0100
,
0000
0001
0001
0032
,
0000
0010
0000
0000
1000
0000
1000
0000
,
1003
0000
0000
1001
0000
0000
0001
1000
,
0002
0000
0013
0000
0000
0011
0000
0000
,
1000
0001
2000
0000
3100
0000
1000
0100
,
0000
0100
0010
0000
0010
0000
0110
0000
,
0010
0001
0000
1000
0002
0000
0000
0000
,
1003
0000
0000
0001
0000
0000
2000
0000
3200
0000
0320
0000
0000
0030
0000
0000
,
0010
0000
0100
0000
1000
0000
0000
0010
0000
0000
2000
0000
3002
0000
2003
0000
,
0000
3000
0000
0000
0001
0000
0010
0001
0010
0000
0001
0100
0000
0000
0002
0000
,
0000
0000
0000
0003
0000
0000
0000
0000
0000
0000
0000
0100
0010
0000
0100
0001
,
0000
0000
0020
0000
0000
0000
0000
0000
0000
0030
0000
0000
0000
0000
0000
0000
;

//---------------dance-single - ----------------
#NOTEDATA:;
#CHARTNAME:X-Scale 4;
#STEPSTYPE:dance-single;
#DESCRIPTION:;
#CHARTSTYLE:;
#DIFFICULTY:Easy;
#METER:3;
#RADARVALUES:0.225477,0.334158,0.037401,0.104724,0.059842,211.000000,206.000000,5.000000,14.000000,0.000000,0.000000,0.000000,0.000000,0.000000,0.225477,0.334158,0.037401,0.104724,0.059842,211.000000,206.000000,5.000000,14.000000,0.000000,0.000000,0.000000,0.000000,0.000000;
#CREDIT:;
#NOTES:
0000
0000
0000
0000
,
0000
0000
0000
0000
,
0000
0000
0000
0000
0000
0000
0000
0000
1000
0000
0000
0100
0000
1000
0000
0000
,
0100
0000
0010
0000
0000
0100
0000
0010
0000
0000
0001
0000
0010
0000
0000
0001
,
0000
0100
0000
0000
0001
0000
0100
0000
0000
0010
0000
0100
0000
0000
0010
0000
,
0110
0000
0000
0001
0000
0000
1000
0000
,
0100
0000
1000
0000
0000
0001
0000
0000
,
0010
0000
0100
0000
0010
0000
0000
0100
,
0000
1000
0001
1000
,
0000
0010
0000
0000
0100
0000
0001
0000
,
0100
0000
0000
0001
0000
0000
0010
0000
,
0100
0000
0010
0000
0000
0001
0000
0000
,
1000
0000
0010
0000
1000
0000
0000
0001
,
0000
0010
0100
0010
,
0000
0001
0000
0000
1000
0000
0100
0000
,
1000
0000
0000
0001
0000
0000
0010
0000
,
0100
0000
0010
0000
0000
0100
0000
0000
,
1000
0000
0010
0000
1000
0000
0000
0100
,
0000
0010
0100
0010
,
0000
0001
0000
0000
0010
0000
0001
0000
,
0010
0000
0000
1000
0000
0000
0010
0000
,
0100
0000
0010
0000
0000
0001
0000
0000
,
1000
0000
0001
0000
1000
0000
0000
0010
,
0000
0100
0010
0100
,
0000
0001
0000
0000
1000
0000
0001
0000
,
1001
0000
0000
1000
0001
1000
0000
0000
,
0001
0010
1000
0000
0000
0010
0100
1000
,
0000
0000
0000
0000
1000
0000
0001
0000
1000
0000
0000
0100
0000
0000
1000
0000
,
0100
0000
0000
0000
1000
0000
0000
0000
0001
0000
0000
0000
0100
0000
0000
0001
,
0000
1000
0001
0000
0010
0000
0100
0010
,
0100
0000
0000
0010
0000
0000
0100
0000
0010
0000
0100
0000
0001
0000
0000
0000
,
1000
0000
0001
0000
0010
0000
0000
0100
0000
0000
0001
0000
0100
0000
1000
0000
,
0100
0000
0000
0000
1000
0000
0001
0000
0100
0000
0000
0001
0000
0000
0010
0000
,
0100
0000
0000
0000
0010
0000
0000
0000
0001
0000
1000
0000
0001
0000
0000
0010
,
0000
0001
0010
0011
0000
0000
0000
0000
,
2001
0000
0000
0010
0000
0000
0001
0000
,
0000
0000
3002
0000
0000
0010
0000
0000
,
1000
0000
0000
0000
2003
0000
0000
0100
,
0000
0001
0000
3002
,
0000
0010
0000
0000
1000
0000
0000
0000
,
1003
0020
0000
0130
,
0010
1000
0200
0000
,
1300
0100
0010
0200
,
0000
0301
0100
1000
,
0001
1000
0001
1000
,
2001
0000
0000
0100
0000
0000
0001
0000
,
0000
0000
3002
0000
0000
0100
0000
0000
,
1000
0000
0000
0000
2003
0000
0000
0010
,
0000
0001
0000
3002
,
0000
0010
0000
0000
1000
0000
0000
0000
,
1003
0000
0000
1000
0000
0000
0001
0000
,
0100
0000
0001
0000
0000
0001
0000
0000
,
1000
0000
0010
0000
1000
0000
0000
1000
,
0000
0001
0100
0001
,
0000
0001
0000
0000
0020
0000
0000
0000
,
0030
0000
0000
0001
0100
0001
0000
0000
,
0010
0100
1000
0000
0000
1000
0010
1000
,
0000
0000
0000
0000
1000
0000
0100
0000
0010
0000
0000
0100
0000
0000
0020
0000
,
0000
0000
0000
0030
0000
0000
0000
0000
0000
0000
0000
0000
0001
0000
0000
0010
,
0000
0000
0002
0000
0000
0000
0000
0000
0000
0003
0000
0000
0000
0000
0000
0000
;
