#TITLE:Prelude;
#SUBTITLE:;
#ARTIST:Michael Calfan;
#TITLETRANSLIT:;
#SUBTITLETRANSLIT:;
#ARTISTTRANSLIT:;
#GENRE:Soul House;
#CREDIT:;
#BANNER:Prelude-bn.png;
#BACKGROUND:Prelude-bg.png;
#LYRICSPATH:;
#CDTITLE:cdtitle.png;
#MUSIC:Prelude.ogg;
#OFFSET:-0.021000;
#SAMPLESTART:45.480000;
#SAMPLELENGTH:15.010000;
#SELECTABLE:YES;
#BPMS:0.000000=128.000000
;
#STOPS:
;
#BGCHANGES:-0.021=Prelude.avi=1.000=1=0=1===CrossFade==,
99999=-nosongbg-=1.000=0=0=0 // don't automatically add -songbackground-
;
#KEYSOUNDS:;
#ATTACKS:;

//---------------dance-single - ----------------
#NOTES:
     dance-single:
     X-Scale 12:
     Hard:
     8:
     0.507941,0.563321,0.191046,0.169819,0.429854,335.000000,317.000000,18.000000,16.000000,0.000000,0.000000,0.507941,0.563321,0.191046,0.169819,0.429854,335.000000,317.000000,18.000000,16.000000,0.000000,0.000000:
// measure 0
0000
0000
0000
0000
,  // measure 1
0000
0000
0000
0000
,  // measure 2
0000
0000
0000
0000
,  // measure 3
0000
0000
0000
0000
,  // measure 4
0000
0000
0000
0000
1000
0000
0000
0100
0000
0000
1000
0000
0000
0100
0000
0000
,  // measure 5
1000
0000
0000
0000
0001
0000
0000
0000
0100
0000
0001
0000
0000
0010
0000
0000
,  // measure 6
0001
0000
0000
0000
1000
0000
0000
0010
0000
0000
0001
0000
0000
0010
0000
0000
,  // measure 7
1000
0000
0000
0000
0000
0000
0001
0000
0000
0000
0000
0000
1000
0000
0000
0000
0100
0000
0000
0000
0010
0000
0000
0000
0004
0000
0000
0040
0000
0000
0000
0000
0000
0000
0000
0000
0000
0000
0000
0000
0000
0000
0000
0000
0000
0000
0000
0000
,  // measure 8
0000
0000
0000
0033
0012
0000
0003
0020
0000
0030
2000
0000
3000
0200
0000
0300
,  // measure 9
0002
0003
1000
0000
0001
0000
1000
0010
,  // measure 10
0100
0000
0001
0000
0000
0100
0020
0000
0130
0000
0000
0000
0001
0000
0100
0000
,  // measure 11
0010
0000
1000
0000
0000
0100
0020
0000
0031
0000
0000
0000
1000
0000
0000
0000
,  // measure 12
0010
0000
0000
0000
2010
0000
3000
0020
0000
0030
0002
0000
0003
0200
0000
0300
,  // measure 13
2000
3000
1100
0000
0101
0000
1100
0100
,  // measure 14
0010
0000
0001
0000
0000
1000
0002
0000
1003
0000
0000
0000
0011
0000
0010
0000
,  // measure 15
0100
0000
1000
0000
0000
0010
2000
0000
3001
0000
0000
0000
0120
0000
0000
0000
,  // measure 16
0001
0000
0000
0000
1030
0000
0000
1000
0000
0000
1000
0000
0001
0010
0000
0001
,  // measure 17
0010
0000
0000
0000
0100
0000
0000
1000
0000
0000
0001
0000
0100
0001
0000
0100
,  // measure 18
0001
0000
0010
0000
0100
0000
0000
0100
0000
0000
0100
0000
1000
0001
0000
1000
,  // measure 19
0001
0000
0000
0000
0010
0000
0000
0100
0000
0000
1000
0000
0001
0010
0000
0001
,  // measure 20
0010
0000
0100
0000
0010
0000
0000
0010
0000
0000
0010
0000
0001
1000
0000
0001
,  // measure 21
1000
0000
0000
0000
0010
0000
0000
0100
0000
0000
0001
0000
1000
0001
0000
1000
,  // measure 22
0001
0000
0010
0000
0100
0000
0000
0100
0000
0000
0100
0000
1000
0001
0000
1000
,  // measure 23
0001
0000
0000
0010
0000
0000
0001
0000
0100
0000
0010
0000
4000
0000
0000
0000
0000
0000
0040
0000
0000
3000
0000
0000
,  // measure 24
0030
0000
0100
0000
0010
0000
0000
0000
0011
0000
0000
0001
0000
0000
1000
0000
,  // measure 25
1001
0000
0001
0000
1000
0001
0000
0000
0101
0000
0000
0001
0010
0000
0000
0010
,  // measure 26
1000
0000
0001
0000
1000
0000
0010
0000
1000
0000
0000
0100
0010
0000
0100
0000
,  // measure 27
0001
0000
0100
0000
1000
0001
0000
0000
0010
0000
0000
0100
0010
0000
0000
0001
,  // measure 28
1000
0000
0010
0000
0100
0000
0010
0000
1000
0000
0000
0001
1000
0000
0001
0000
,  // measure 29
0100
0000
0001
0000
1000
0100
0000
0000
0101
0000
0000
0100
0001
0000
0000
1000
,  // measure 30
0010
0000
0100
0000
1000
0000
0100
0000
0001
0000
0000
0001
0100
0000
0010
0000
,  // measure 31
0100
0000
0001
0000
1000
0010
0000
0000
1001
0000
0000
0001
0010
0001
0010
0001
,  // measure 32
0010
0001
0011
0010
0100
1000
0001
0100
,  // measure 33
0001
0000
1000
0000
0100
0010
0000
0000
0101
0000
0001
0100
0001
0000
0000
0001
,  // measure 34
1000
0001
0100
0010
0100
1000
0100
0010
,  // measure 35
0100
0000
0001
0000
1000
0001
0000
0000
1001
0000
1000
0100
1000
0000
0000
0010
,  // measure 36
0100
0010
1000
0001
0100
0001
1000
0100
,  // measure 37
0001
0000
0100
0000
1000
0100
0000
0000
0101
0000
0001
0100
0001
0000
0000
0100
,  // measure 38
0010
1000
0100
0001
0100
0010
0001
0010
,  // measure 39
0100
0000
1000
0000
0001
0100
0000
0000
0101
0000
0001
1000
0001
0010
0000
0000
,  // measure 40
0100
0000
0100
0000
0110
0000
0000
0000
0010
0000
0000
0100
1000
0000
0001
0000
,  // measure 41
0100
0000
0010
0000
0100
0001
0000
0000
1000
0000
0000
0010
1000
0000
0000
0001
,  // measure 42
0100
0000
0001
0000
0100
0000
0000
0000
0100
0000
0000
0010
0100
0000
0001
0000
,  // measure 43
1000
0000
0100
0000
0010
0001
0000
0000
1000
0000
0000
0001
0100
0000
0000
0010
,  // measure 44
0100
0000
0001
0000
1000
0000
0000
0000
1000
0000
0000
0100
1000
0000
0001
0000
,  // measure 45
0100
0000
0001
0000
0010
0100
0000
0000
1000
0000
0000
0001
0100
0000
0000
0010
,  // measure 46
0100
0001
1000
0001
0010
0100
1000
0010
,  // measure 47
0100
0000
0000
0001
0000
0000
1000
0000
0000
0100
0000
0000
0010
0000
0000
0100
0000
0000
2000
0004
0000
0000
0000
0000
,  // measure 48
0000
3003
0000
0000
;

//---------------dance-single - ----------------
#NOTES:
     dance-single:
     X-Scale 10:
     Medium:
     7:
     0.456388,0.588927,0.339638,0.456388,0.392706,301.000000,269.000000,32.000000,43.000000,0.000000,0.000000,0.456388,0.588927,0.339638,0.456388,0.392706,301.000000,269.000000,32.000000,43.000000,0.000000,0.000000:
0000
0000
0000
0000
,
0000
0000
0000
0000
,
0000
0000
0000
0000
,
0000
0000
0000
0000
,
0000
0001
0100
0001
,
0100
0000
0000
0000
0010
0000
0000
0000
1000
0000
0100
0000
0000
1000
0000
0000
,
0100
0010
0001
0010
,
0001
0000
0000
1000
0000
0000
0100
0000
1000
0000
0001
0000
2000
0000
0000
0000
0000
0000
0001
0000
0000
0000
0000
0000
,
0010
0000
0000
0000
3001
0000
0000
0010
0000
0000
1000
0000
0000
0010
0000
0000
,
0001
0000
1000
0000
0001
0000
1000
0100
,
1000
0000
0100
0000
0000
0010
0002
0000
1003
0000
0000
0000
0001
0000
0010
0000
,
0001
0000
0010
0000
0000
0100
2000
0000
3001
0000
0000
0000
0100
0000
0000
0000
,
0001
0000
0000
0000
0101
0000
0000
0100
0000
0000
0010
0000
0000
1000
0000
0000
,
0001
0000
1000
0000
0010
0000
1000
0100
,
1000
0000
0100
0000
0000
0010
0002
0000
1003
0000
0000
0000
0001
0000
0010
0000
,
0001
0000
0010
0000
0000
0100
2000
0000
3001
0000
0000
0000
0200
0000
0000
0000
,
1000
0000
0000
0000
0301
0000
0000
0101
0000
0000
0110
0000
0000
1001
0000
0000
,
0101
0000
0000
0000
1000
0000
0000
0000
0100
0000
1100
0000
0000
1001
0000
0000
,
0110
0000
0100
0000
1001
0000
0000
0011
0000
0000
1010
0000
0000
1100
0000
0000
,
0110
0000
0000
0000
0010
0000
0000
0000
0001
0000
0011
0000
0000
1001
0000
0000
,
1010
0000
1000
0000
1001
0000
0000
0011
0000
0000
0110
0000
0000
1010
0000
0000
,
1001
0000
0000
0000
1000
0000
0000
0000
0100
0000
0110
0000
0000
1010
0000
0000
,
1001
0000
0001
0000
0011
0000
0000
0110
0000
0000
1001
0000
0000
1010
0000
0000
,
1001
0000
0000
0000
0000
0000
0001
0000
0000
0000
0000
0000
0100
0000
0000
0000
0001
0000
0000
0000
1000
0000
0000
0000
0002
0000
0000
0000
0000
0000
0000
0000
0000
0000
0000
0000
0100
0000
0000
0000
0000
0000
0000
0000
0000
0100
0000
0000
,
0003
0000
0001
0000
1000
0000
0000
0000
1000
0000
0000
0100
0000
0000
0100
0000
,
0000
0000
0100
0000
0110
0000
0010
0000
0001
0000
0000
1000
0001
0000
0000
1000
,
0010
0000
0010
0000
1000
0000
0001
0000
1000
0000
0000
0010
0000
0000
1000
0000
,
0000
0000
1000
0000
1000
0001
0000
0000
0001
0000
0010
0100
0000
0000
0000
0100
,
1000
0000
0001
0000
1000
0000
0000
0000
0001
0000
0000
0010
0100
0000
0010
0000
,
0001
0000
1000
0000
0001
0100
0000
0000
0100
0000
1000
0100
0000
0000
0000
0100
,
0010
0001
0010
1000
0010
0001
0100
0010
,
1000
0000
0001
0000
0010
0001
0000
0000
0001
0000
1000
0010
2000
0000
0000
0000
,
3001
0000
0001
0000
0102
0000
0003
0200
0000
0300
0010
0000
2000
0000
3000
0200
,
0000
0300
1000
0000
0002
0010
0003
0020
0000
0030
0001
0000
0002
0000
0003
2000
,
0001
3000
1000
0000
0020
0000
0030
0200
0000
0300
0001
0000
2000
0000
3000
0200
,
0000
0300
1000
0000
0002
0010
0003
0020
0000
0030
2000
0000
3000
0200
0000
0300
,
0002
0000
1003
0000
0020
0000
0030
0200
0000
0300
0001
0000
2000
0000
3000
0200
,
0000
0300
0010
0000
0200
0010
0300
0020
0000
0030
0001
0000
0002
0000
0003
0020
,
0100
0030
0010
0000
0002
0000
0003
0200
0000
0300
0010
0000
2000
0000
3000
0200
,
0000
0300
0010
0000
0002
0010
0003
0020
0000
0030
2000
0000
3000
0200
0000
0300
,
0002
0000
0003
0000
0101
0000
0000
0000
0001
0000
0000
0100
0000
0000
0010
0000
,
0000
0000
0010
0000
0000
1000
0000
0000
0001
0000
0000
0100
0000
0000
0000
0010
,
0100
0000
0010
0000
1000
0000
0000
0000
1000
0000
0000
0001
0000
0000
0001
0000
,
0000
0000
0001
0000
0000
0100
0000
0000
0010
0000
0000
1000
0000
0000
0000
1000
,
0010
0000
1000
0000
0001
0000
0000
0000
0001
0000
0000
0100
0000
0000
0100
0000
,
0000
0000
0100
0000
0010
0100
0000
0000
0001
0000
0000
1000
0000
0000
0000
1000
,
0010
0000
1000
0000
0001
0000
0000
0000
0001
0000
0000
0100
0000
0000
0100
0000
,
0000
0000
0100
0000
0001
1000
0000
0000
1000
0000
0000
0100
0020
0000
0000
0001
,
0000
0001
0030
0000
0000
0000
0000
0000
;

//---------------dance-single - ----------------
#NOTES:
     dance-single:
     X-Scale 5:
     Easy:
     3:
     0.265342,0.281661,0.031841,0.106137,0.000000,175.000000,172.000000,3.000000,10.000000,0.000000,0.000000,0.265342,0.281661,0.031841,0.106137,0.000000,175.000000,172.000000,3.000000,10.000000,0.000000,0.000000:
0000
0000
0000
0000
,
0000
0000
0000
0000
,
0000
0000
0000
0000
,
0000
0000
0000
0000
,
0000
1000
0000
0100
,
0000
0010
0000
0001
,
0000
0100
0000
0010
,
0000
1000
0000
0001
,
0000
0210
0000
0001
,
0000
0320
0000
0001
,
0000
2030
0000
0100
,
0000
3002
0000
0010
,
0000
0103
0001
0100
,
0001
1000
0100
1000
,
0100
0010
0001
0010
,
0001
0100
0010
0200
,
1000
0301
0100
0010
,
0001
1000
0010
0100
,
0001
1000
0001
0000
0100
0000
0010
0000
,
1000
0001
0010
0100
,
1000
0001
1000
0000
0100
0000
0010
0000
,
0001
1000
0010
0100
,
0001
1000
0001
0000
0100
0000
0010
0000
,
2000
0000
0000
0002
,
3003
0000
1001
0000
,
0110
0010
1000
0001
,
0100
0001
0100
0000
0010
0000
0100
0000
,
0001
1000
0001
0000
0010
0000
0100
0000
,
1000
0100
1000
0000
0010
0000
0100
0000
,
0001
0100
0001
0000
0010
0000
0100
0000
,
1000
0100
1000
0000
0001
0000
1000
0000
,
0100
0010
0100
0000
1000
0000
0002
0000
,
0100
0000
1003
0000
0001
0100
0001
0000
,
0010
0000
0100
0000
1000
0100
1000
0000
,
0010
0000
0100
0000
0001
1000
0001
0000
,
0010
0000
0100
0000
1000
0100
1000
0000
,
0010
0000
0100
0000
0010
0000
1000
0001
,
0010
0000
0100
0000
1000
0100
1000
0000
,
0001
0000
1000
0000
0010
0000
0100
0001
,
0010
0000
0001
0000
1000
0010
2000
0000
,
0001
3100
1000
0100
,
0010
0001
0100
0010
,
1000
0001
0010
0100
,
1000
0001
0100
0010
,
1000
0001
1000
0100
,
1000
0001
1000
0100
,
0010
0001
0100
0001
,
1000
0001
0100
0020
,
0000
1030
0000
0000
;

//---------------dance-single - ----------------
#NOTES:
     dance-single:
     X-Scale 1:
     Beginner:
     1:
     0.109169,0.153633,0.031841,0.000000,0.000000,72.000000,69.000000,3.000000,0.000000,0.000000,0.000000,0.109169,0.153633,0.031841,0.000000,0.000000,72.000000,69.000000,3.000000,0.000000,0.000000,0.000000:
0000
0000
0000
0000
,
0000
0000
0000
0000
,
0000
0000
0000
0000
,
0000
0000
0000
0000
,
0000
0001
0000
0000
,
0000
0100
0000
0000
,
0000
0010
0000
0000
,
0000
1000
0000
0000
,
0000
0100
0000
0000
,
0000
0010
0000
0000
,
0000
0001
0000
0000
,
0000
1000
0000
0000
,
0000
0010
0000
0000
,
0000
1000
0000
0000
,
0000
0001
0000
0000
,
0000
0010
0000
0000
,
0000
0100
0000
1000
,
0000
0100
0000
1000
,
0000
0001
0000
1000
,
0000
0001
0000
1000
,
0000
0100
0000
0010
,
0000
0100
0000
0010
,
0000
0001
0000
1000
,
0000
0001
0000
1000
,
0000
0000
0100
0000
,
0100
0110
0000
0100
,
0000
0010
0000
0001
,
0000
1000
0000
0001
,
0000
0010
0000
0001
,
0000
1000
0000
0100
,
0000
1000
0000
0001
,
0000
0100
0000
0001
,
0000
1001
0000
0001
,
0000
1000
0000
0001
,
0000
0100
0000
0010
,
0000
0100
0000
0001
,
0000
0010
0000
0100
,
0000
0010
0000
0001
,
0000
1000
0000
0001
,
0000
0100
0000
0001
,
0000
1000
0000
0000
,
0000
0010
0000
0000
,
0000
0100
0000
0000
,
0000
0001
0000
0000
,
0000
0010
0000
0000
,
0000
0100
0000
0000
,
0000
0100
0000
0000
,
0000
1000
0000
0000
,
0000
1001
0000
0000
;
