#VERSION:0.83;
#TITLE:Praying;
#SUBTITLE:;
#ARTIST:Kesha;
#TITLETRANSLIT:;
#SUBTITLETRANSLIT:;
#ARTISTTRANSLIT:;
#GENRE:Emotional Pop;
#ORIGIN:;
#CREDIT:;
#BANNER:praying-bn.png;
#BACKGROUND:praying-bg.png;
#PREVIEWVID:;
#JACKET:praying-jacket.png;
#CDIMAGE:;
#DISCIMAGE:;
#LYRICSPATH:;
#CDTITLE:cdtitle.png;
#MUSIC:praying.ogg;
#OFFSET:-0.003000;
#SAMPLESTART:52.248001;
#SAMPLELENGTH:24.000000;
#SELECTABLE:YES;
#BPMS:0.000=73.500;
#STOPS:;
#DELAYS:;
#WARPS:;
#TIMESIGNATURES:0.000=4=4;
#TICKCOUNTS:0.000=4;
#COMBOS:0.000=1;
#SPEEDS:0.000=1.000=0.000=0;
#SCROLLS:0.000=1.000;
#FAKES:;
#LABELS:0.000=Song Start;
#BGCHANGES:
;
#KEYSOUNDS:;
#ATTACKS:
;

//---------------dance-single - ----------------
#NOTEDATA:;
#CHARTNAME:X-Scale 10;
#STEPSTYPE:dance-single;
#DESCRIPTION:;
#CHARTSTYLE:;
#DIFFICULTY:Hard;
#METER:7;
#RADARVALUES:0.334030,0.350731,0.036534,0.314197,0.343424,320.000000,315.000000,5.000000,43.000000,0.000000,0.000000,0.000000,0.000000,0.000000,0.334030,0.350731,0.036534,0.314197,0.343424,320.000000,315.000000,5.000000,43.000000,0.000000,0.000000,0.000000,0.000000,0.000000;
#CREDIT:;
#NOTES:
// measure 0
0000
0000
0000
0000
,  // measure 1
0000
0000
0000
0000
,  // measure 2
0000
0000
0000
0000
,  // measure 3
0000
0000
0000
0000
0000
0000
0000
1000
,  // measure 4
2010
0000
0000
0000
3000
0000
0010
0000
0100
0001
0000
1000
0100
0000
0010
0000
,  // measure 5
0002
0000
0003
0010
0200
0000
0320
0230
,  // measure 6
0320
0000
0000
0000
0000
0000
0000
0000
0031
0000
0000
0000
1000
0000
0100
0000
1000
0000
0000
0001
0000
0000
1000
0000
0000
0000
0000
0000
1000
0000
0000
0000
,  // measure 7
0010
1000
0000
0001
0010
0000
0100
0000
2000
0000
0000
0000
3000
0000
0100
0000
,  // measure 8
0020
0000
0000
0000
0000
0000
0000
0000
0031
0000
0000
0000
1000
0000
0010
0000
1000
0000
0000
0100
0000
0000
1000
0000
0000
0100
0000
0000
0010
0000
0000
0000
,  // measure 9
0002
0000
0003
1000
0020
0000
0030
0100
,  // measure 10
0002
0000
0000
0000
0000
0000
0000
0000
2003
0000
0000
0000
3010
0000
1000
0000
0001
0000
0000
0100
0000
0000
0001
0000
0000
0000
0000
0000
0010
0000
0100
0000
,  // measure 11
0010
0000
0000
0001
0000
0000
1000
0000
0000
0000
0100
0000
2000
0000
0000
0000
0020
0000
0000
0000
0000
0000
3000
0000
0030
0000
0000
0000
1000
0000
0100
0000
,  // measure 12
1000
0000
0000
0001
0000
0000
0010
0000
0001
0000
0000
0100
0000
0000
0010
0000
1000
0000
0000
0100
0000
0000
0010
0000
0001
0000
0000
0000
0100
0000
0000
0000
,  // measure 13
0010
0000
0000
0001
0000
0000
0010
0000
0100
0000
0000
0010
0000
0000
1000
0000
0100
0000
0000
0010
0000
0000
0001
0000
0100
0000
0000
0000
0001
0000
0000
0000
,  // measure 14
1000
0000
0000
0100
0000
0000
0001
0000
1000
0000
0000
0010
0000
0000
0001
0000
2000
0000
0000
0000
3100
0000
1000
0000
0001
0000
0000
0000
0010
0000
0000
0000
,  // measure 15
0001
0000
0000
1000
0000
0000
0100
0000
0001
0000
0000
0100
0000
0000
1000
0000
0001
0000
0000
0010
0000
0000
0100
0000
1000
0000
0000
0000
0010
0000
0000
0000
,  // measure 16
1001
0000
0000
0001
0000
0000
1000
0000
0001
0000
0000
0100
0000
0000
0000
0000
0010
0000
0000
0000
0010
0000
0100
0000
0010
0000
0000
0000
1000
0000
0000
0000
,  // measure 17
0100
0000
0010
0001
0010
0000
0100
0000
1000
0000
0001
1000
0001
0000
0100
0000
,  // measure 18
0010
0000
0000
1000
0000
0000
0001
0000
0010
0000
0000
0001
0000
0000
0000
0000
1000
0000
0000
0000
0001
0000
0100
0000
0001
0000
0000
0000
0010
0000
0000
0000
,  // measure 19
0100
0000
1000
0100
1000
0000
0001
0000
0010
0000
0100
0010
0100
0000
1000
0000
,  // measure 20
0010
0000
0100
0010
0100
0000
0002
0000
0203
0000
0320
0000
2030
0000
3010
2000
,  // measure 21
0000
3000
0001
0100
0001
0000
1000
0000
0010
0000
0100
0020
0030
0200
0300
0002
,  // measure 22
0100
0000
1003
0001
1000
0000
0001
0000
0010
0000
0100
0010
0100
0000
1000
0000
,  // measure 23
0001
0000
0010
0100
0010
0000
0001
0000
1000
0000
0100
0000
0020
0000
0000
0030
,  // measure 24
0101
0000
0000
0000
0000
0000
0000
0000
0100
0000
0000
0000
0010
0000
0000
0000
2000
0000
0000
0000
3000
0000
0001
0000
1000
0000
0000
0010
0000
0000
0100
0000
,  // measure 25
0020
0000
0031
0010
2000
0000
3010
1000
,  // measure 26
0002
0000
0000
0000
0000
0000
0000
0000
1003
0000
0000
0000
0100
0000
1000
0000
0010
0000
0000
1000
0000
0000
0001
0000
0010
0000
0000
0001
0000
0000
1000
0000
,  // measure 27
0020
0000
1030
0100
0020
0000
0031
1000
,  // measure 28
0100
0000
1000
0000
0001
0000
0010
0000
0000
0000
0000
0000
0001
0000
0000
0000
0000
0000
1000
0000
0000
0000
0000
0000
0010
0000
0000
1000
0000
0000
0000
0000
0000
0000
0000
0000
0001
0000
0000
0100
0000
0000
0010
0000
0000
1000
0000
0000
,  // measure 29
0001
0000
0000
1000
0000
0000
0100
0000
0020
0000
0000
0000
0000
0000
0000
0000
0032
0000
0000
0000
0000
0000
0000
0000
2003
0000
0000
0000
3200
0000
0000
0000
,  // measure 30
0320
0000
0000
0000
0000
0000
0030
0000
0000
0000
0000
0000
0001
0000
0010
0000
0100
0000
1000
0000
0000
0100
0000
0000
1000
0000
0000
0000
0000
0000
0010
0000
0000
0000
0000
0000
0100
0000
0000
0000
0000
0000
0002
0000
0000
0000
0000
0000
,  // measure 31
1000
0003
0002
0000
1000
0000
0010
0000
1003
0000
0000
0020
0000
0000
0001
0000
,  // measure 32
0100
1000
0100
0001
0100
1000
0100
0001
,  // measure 33
0130
0000
0010
0001
1000
0000
1000
0000
0100
0000
0010
0100
1000
0000
0001
0000
,  // measure 34
0110
0000
0000
0100
0000
0000
0001
0000
1000
0000
0000
0100
0000
0000
0000
0000
0010
0000
0000
0000
0001
0000
1000
0000
0001
0000
0000
0000
0010
0000
0000
0000
,  // measure 35
0100
0000
1000
0010
0100
0000
0001
0000
1000
0000
0100
0010
0001
0000
1000
0000
,  // measure 36
1010
0000
0000
0000
1000
0000
0001
0000
1000
0000
0100
0000
0010
0000
0001
0100
,  // measure 37
0001
0000
1000
0000
0001
0000
0100
0000
0001
0000
1000
0020
0030
0200
0300
0002
,  // measure 38
0100
1003
0001
0010
0200
0000
1000
0320
,  // measure 39
0100
0000
0031
0010
1000
0001
0100
1000
,  // measure 40
0001
0000
0000
0000
;

//---------------dance-single - ----------------
#NOTEDATA:;
#CHARTNAME:X-Scale 6;
#STEPSTYPE:dance-single;
#DESCRIPTION:;
#CHARTSTYLE:;
#DIFFICULTY:Medium;
#METER:4;
#RADARVALUES:0.234865,0.263048,0.029228,0.350731,0.047495,225.000000,221.000000,4.000000,48.000000,0.000000,0.000000,0.000000,0.000000,0.000000,0.234865,0.263048,0.029228,0.350731,0.047495,225.000000,221.000000,4.000000,48.000000,0.000000,0.000000,0.000000,0.000000,0.000000;
#CREDIT:;
#NOTES:
// measure 0
0000
0000
0000
0000
,  // measure 1
0000
0000
0000
0000
,  // measure 2
0000
0000
0000
0000
,  // measure 3
0000
0000
0000
0000
0000
0000
0000
0001
,  // measure 4
0101
0000
0000
0001
0010
0000
0000
0100
,  // measure 5
1000
0000
0000
0001
1000
0000
0020
0230
,  // measure 6
0320
0030
0100
0010
1000
0000
0000
1000
,  // measure 7
0001
0010
0000
0001
0010
0000
0100
0000
1000
0000
0000
0000
0000
0000
0020
0000
,  // measure 8
0100
0000
0000
0000
0000
0000
0030
0000
0100
0000
0000
0000
0010
0000
1000
0000
0001
0000
0000
0010
0000
0000
0001
0000
0000
1000
0000
0000
0001
0000
0000
0000
,  // measure 9
0010
0000
0000
0100
1000
0000
0000
0001
,  // measure 10
1000
0000
0000
0000
0000
0000
0000
0000
0000
0000
0000
0000
0010
0000
0000
0000
1000
0000
0000
0001
0000
0000
1000
0000
0000
0000
0000
0000
0001
0000
0000
0000
,  // measure 11
0010
0000
0000
0100
1000
0000
0000
0001
,  // measure 12
0200
0000
0310
0100
0002
0000
1003
0100
,  // measure 13
0020
0000
0031
1000
0020
0000
0130
0010
,  // measure 14
2000
0000
3100
0010
0002
0000
1003
0010
,  // measure 15
2000
0000
3010
0100
0002
0000
0013
0100
,  // measure 16
1100
1000
0001
1000
0200
0000
0010
0320
,  // measure 17
0001
0030
0010
0100
2000
0000
0001
3002
,  // measure 18
1003
0001
0010
0001
2000
0000
0100
3200
,  // measure 19
0010
0300
0100
0010
0002
0000
1000
2003
,  // measure 20
0001
0000
0000
0000
3100
0000
1000
0000
0001
0000
0010
0000
0100
0000
0010
0002
,  // measure 21
0000
0000
1000
0003
0001
0000
1000
0000
0010
0000
0100
0001
0000
1000
0000
0001
,  // measure 22
0010
0100
1000
0001
2000
0000
0001
3002
,  // measure 23
1000
0000
0000
0000
0010
0000
0003
0000
0001
0000
0010
0000
0200
0000
0000
0300
,  // measure 24
0110
0000
0001
0010
0002
0000
2003
0000
,  // measure 25
3010
0000
1000
0010
2000
0000
3020
0000
,  // measure 26
0130
0000
0100
0001
0200
0000
0302
0000
,  // measure 27
0013
0000
0001
0010
0200
0000
2300
0000
,  // measure 28
3100
1000
0001
1000
0200
0000
1000
0000
,  // measure 29
0310
0100
0020
0000
0032
0000
0013
0001
,  // measure 30
2000
0000
3001
0010
1000
0010
0001
0002
,  // measure 31
1000
0000
2003
0000
0001
0000
3001
0000
1001
0000
0000
0002
0000
0000
0000
0000
,  // measure 32
0100
0000
0010
1000
2000
0000
0000
3000
,  // measure 33
1000
1003
0001
0001
2000
0100
0001
3200
,  // measure 34
1300
0100
0010
0001
2000
0100
0001
3200
,  // measure 35
1000
0000
0310
0100
2000
0001
0100
3002
,  // measure 36
1000
0003
1000
0001
1000
0000
0001
0010
,  // measure 37
1000
0010
0100
1000
0001
0000
1000
0001
,  // measure 38
1000
0000
0001
0010
0002
0000
0000
2003
,  // measure 39
0100
0000
3001
0010
0100
0010
0001
1000
,  // measure 40
0001
0000
0000
0000
;

//---------------dance-single - ----------------
#NOTEDATA:;
#CHARTNAME:X-Scale 2;
#STEPSTYPE:dance-single;
#DESCRIPTION:;
#CHARTSTYLE:;
#DIFFICULTY:Easy;
#METER:2;
#RADARVALUES:0.165971,0.219207,0.007307,0.277662,0.000000,159.000000,158.000000,1.000000,38.000000,0.000000,0.000000,0.000000,0.000000,0.000000,0.165971,0.219207,0.007307,0.277662,0.000000,159.000000,158.000000,1.000000,38.000000,0.000000,0.000000,0.000000,0.000000,0.000000;
#CREDIT:;
#NOTES:
0000
0000
0000
0000
,
0000
0000
0000
0000
,
0000
0000
0000
0000
,
0000
0000
0000
0000
,
2000
0000
3000
0100
2000
0000
3000
0000
,
0002
0000
0003
0100
0002
0000
0003
0000
,
2000
0000
3000
0100
2000
0000
3000
0000
,
0002
0000
0003
0100
0002
0000
0003
0000
,
0020
0000
0030
0100
0020
0000
0030
0000
,
0200
0000
0300
1000
0200
0000
0300
0000
,
0020
0000
0030
0001
0020
0000
0030
0000
,
0200
0000
0300
1000
0200
0000
0300
0000
,
2000
0010
3002
0010
,
0203
0010
0302
1000
,
0203
0010
0302
0010
,
0203
1000
0320
1000
,
0130
0010
2000
0001
,
3100
1000
0002
0010
,
0103
0001
2000
0010
,
3001
0100
0020
1000
,
0130
0000
1000
0000
0100
0010
0001
0000
,
1000
0000
0001
0100
0010
0000
1000
0000
,
0100
0010
0001
0000
2000
0000
0001
0000
,
0100
0000
0001
0000
3010
1000
0002
0000
,
0023
0000
0130
1000
0001
0000
1000
0000
,
0001
0000
0010
0100
1000
0000
0001
0000
,
1000
0000
0100
1000
0001
0000
0100
0000
,
0010
0000
1000
0100
0010
0000
0001
0000
,
1000
0000
0100
2000
0001
0000
3010
0000
,
1000
0100
0010
0002
1000
0000
0013
0001
,
2000
0000
3010
0100
0001
1000
0100
0010
,
0001
0000
1000
0001
0100
0000
0010
0100
,
0110
0000
0010
1000
0002
0000
0100
0000
,
1003
0000
0100
0010
0002
0000
1000
0000
,
0013
0000
0001
1000
0200
0000
0001
0000
,
1300
0000
0010
1000
0200
0000
0001
0000
,
1300
0001
1000
0001
,
0100
0010
0100
0010
,
1000
0100
1000
0100
,
0010
0001
0010
0001
,
1000
0000
0000
0000
;

//---------------dance-single - ----------------
#NOTEDATA:;
#CHARTNAME:X-Scale 1;
#STEPSTYPE:dance-single;
#DESCRIPTION:;
#CHARTSTYLE:;
#DIFFICULTY:Beginner;
#METER:1;
#RADARVALUES:0.101253,0.131524,0.000000,0.000000,0.000000,97.000000,97.000000,0.000000,0.000000,0.000000,0.000000,0.000000,0.000000,0.000000,0.101253,0.131524,0.000000,0.000000,0.000000,97.000000,97.000000,0.000000,0.000000,0.000000,0.000000,0.000000,0.000000,0.000000;
#CREDIT:;
#NOTES:
0000
0000
0000
0000
,
0000
0000
0000
0000
,
0000
0000
0000
0000
,
0000
0000
0000
0000
,
1000
0000
0100
0000
,
0010
0000
0001
0000
,
1000
0000
0010
0000
,
0100
0000
0001
0000
,
1000
0000
0100
0000
,
0010
0000
0001
0000
,
1000
0000
0010
0000
,
0100
0000
0001
0000
,
1000
0000
0100
0000
,
0010
0000
0001
0000
,
1000
0000
0010
0000
,
0100
0000
0001
0000
,
0001
1000
0001
1000
,
0100
0010
0100
0010
,
0001
0100
0001
0100
,
0010
1000
0010
1000
,
0100
0010
0100
0010
,
0001
1000
0001
1000
,
0010
0100
0010
0100
,
0001
0010
0001
0010
,
0100
0000
1000
0000
,
0001
0000
1000
0000
,
0100
0000
0010
0000
,
0100
0000
1000
0000
,
0001
0000
0100
0000
,
0010
0000
0100
0000
,
0001
0000
1000
0000
,
0100
0000
0010
0000
,
0001
0100
0001
0100
,
0010
1000
0010
1000
,
0100
0010
0100
0010
,
0001
1000
0001
1000
,
0010
0000
1000
0000
,
0001
0000
1000
0000
,
0100
0000
0010
0000
,
0001
0000
1000
0000
,
0001
0000
0000
0000
;
