#TITLE:Pon de Floor;
#SUBTITLE:;
#ARTIST:Major Lazer feat. Vybz Kartel;
#TITLETRANSLIT:;
#SUBTITLETRANSLIT:;
#ARTISTTRANSLIT:;
#GENRE:Dancehall;
#CREDIT:;
#BANNER:Pon de Floor-bn.png;
#BACKGROUND:Pon de Floor-bg.png;
#LYRICSPATH:;
#CDTITLE:cdtitle.png;
#MUSIC:Pon de Floor.ogg;
#OFFSET:-0.002000;
#SAMPLESTART:30.238001;
#SAMPLELENGTH:15.150000;
#SELECTABLE:YES;
#BPMS:0.000000=126.999992
,32.000000=63.499996
,40.000000=126.999992
,120.000000=63.499996
,144.000000=126.999992
;
#STOPS:
;
#BGCHANGES:;
#KEYSOUNDS:;
#ATTACKS:;

//---------------dance-single - ----------------
#NOTES:
     dance-single:
     X-Scale 13:
     Hard:
     9:
     0.550327,0.779273,0.035261,0.246829,0.546549,437.000000,433.000000,4.000000,28.000000,5.000000,0.000000,0.550327,0.779273,0.035261,0.246829,0.546549,437.000000,433.000000,4.000000,28.000000,5.000000,0.000000:
// measure 0
0000
0000
0000
0000
,  // measure 1
0000
0000
0000
0000
,  // measure 2
0000
0000
0000
0000
,  // measure 3
0000
0000
0000
0000
,  // measure 4
1000
0000
0000
0100
1000
0000
0100
0000
0010
0000
0100
0000
1000
0000
0001
1000
,  // measure 5
0001
0000
0000
0000
0000
0000
0000
0000
0000
0010
0000
0000
0001
0000
0000
0000
0000
0000
0010
0000
0000
0000
0000
0000
0100
0000
0000
0000
0000
0000
0010
0000
0000
0000
0000
0000
0001
0000
0000
0000
0100
0000
0000
0000
0010
0000
0000
0000
,  // measure 6
1000
0000
0000
0010
0100
0000
0010
0000
1000
0000
0100
0000
0010
0000
0100
0010
,  // measure 7
0100
0000
0000
0010
0001
0000
0100
0000
0001
0100
0001
0100
0001
0000
0001
0000
,  // measure 8
2000
0000
0000
0000
,  // measure 9
0000
0000
0000
0000
0000
0000
0000
0000
0000
0000
0000
0000
0M00
00M0
000M
0M00
,  // measure 10
30M1
0000
0000
1000
0100
0000
1000
0000
0010
0000
0001
0000
0010
0000
4000
0000
,  // measure 11
3010
0000
0000
1000
0001
0000
0010
0000
1000
0000
0010
0000
0001
0000
0040
0000
,  // measure 12
0031
0000
0000
0010
0100
0000
0010
0000
0001
0000
1000
0000
0010
0000
0400
0000
,  // measure 13
0310
0000
0100
0010
0100
0000
0001
0000
1000
0010
1000
0010
1000
0000
0000
0000
,  // measure 14
1001
0000
1000
0001
1000
0000
0100
0000
0100
0000
0100
0000
0020
0000
0000
0000
,  // measure 15
0031
0010
0000
0010
0100
0000
0010
0000
0010
0000
0010
0100
0020
0000
0000
0000
,  // measure 16
0031
0000
0100
0010
0100
0000
0001
0000
0001
0000
0001
0000
2000
0000
0000
0000
,  // measure 17
3010
1000
0000
1000
0001
0000
0100
0000
0100
0000
0100
0010
0200
0000
0000
0000
,  // measure 18
0310
0000
0000
0100
0001
0000
1000
0000
0001
0000
0010
0000
0200
0000
4000
3000
,  // measure 19
1300
0000
0000
0100
0000
0000
0000
0000
0000
0100
0000
0000
0010
0000
0000
0000
0000
0000
0001
0000
0000
0000
0000
0000
1000
0000
0000
0000
0000
0000
0001
0000
0000
0100
0000
0000
0002
0000
0000
0000
0010
0000
0000
0000
1000
0000
0000
0000
,  // measure 20
0013
0000
0001
0100
0010
0000
1000
0000
0100
0000
1000
0000
0020
0000
0400
0300
,  // measure 21
0130
0010
0000
0010
1000
0000
0100
0000
1000
0000
0001
0010
0001
0010
0100
0000
,  // measure 22
0110
0000
1000
0010
1000
0000
0100
0000
0100
0000
0100
0000
0020
0000
0000
0000
,  // measure 23
0031
0010
0000
0010
0100
0000
0010
0000
0001
0000
1000
0001
2000
0000
0000
0000
,  // measure 24
3100
0000
1000
0010
1000
0000
0010
0000
0010
0000
0010
0000
0200
0000
0000
0000
,  // measure 25
0310
0100
0000
0100
0001
0000
1000
0000
1000
0000
1000
0100
0020
0000
0000
0000
,  // measure 26
0130
0000
0000
0010
0001
0000
0100
0000
0001
0000
0010
0000
0200
0000
0040
0030
,  // measure 27
0310
0000
0000
0100
0000
0000
0000
0000
0000
0100
0000
0000
1000
0000
0000
0000
0000
0000
0010
0000
0000
0000
0000
0000
1000
0000
0000
0000
0000
0000
0100
0000
0000
0010
0000
0000
0002
0000
0000
0000
0010
0000
0000
0000
1000
0000
0000
0000
,  // measure 28
0013
0000
0001
0010
0001
0000
0100
0000
1000
0000
0100
0000
0002
0000
0040
0030
,  // measure 29
0013
0000
0000
0001
0000
0000
0000
0000
0000
0001
0000
0000
1000
0000
0000
0000
0000
0000
0010
0000
0000
0000
0000
0000
0100
0000
0000
0000
0000
0000
0001
0000
0000
0010
0000
0000
0200
0000
0000
0000
1000
0000
0000
0000
1000
0000
0000
0000
,  // measure 30
1300
0000
0001
0100
1000
0100
0010
0000
1000
0100
0001
0100
0010
0100
1000
0000
,  // measure 31
0001
0000
0001
0100
1000
0100
0001
0000
1000
0100
1000
0010
0100
0001
0010
0000
,  // measure 32
0100
0000
0001
0100
1000
0100
0010
0000
0001
1000
0100
1000
0010
0100
0001
0000
,  // measure 33
1000
0000
0100
0010
0001
0000
0100
0010
1000
0000
0000
0000
0001
0000
0010
0000
0100
0000
1000
0010
0100
0000
0001
1000
0001
0000
1000
0100
1000
0000
0100
0000
,  // measure 34
0010
0000
1000
0010
0001
0000
1000
0100
0010
0000
1000
0010
0001
0000
1000
0100
,  // measure 35
0010
0000
1000
0010
0001
0000
1000
0100
0010
0000
1000
0010
0001
0000
1000
0100
,  // measure 36
1100
0000
0000
1000
0001
0000
1000
0000
0010
0000
0100
0000
0001
0000
0010
0100
,  // measure 37
0010
0000
0000
0001
1000
0000
0001
0000
0010
0000
0100
0000
0010
0000
0010
0000
,  // measure 38
0010
0000
0000
0001
0100
0000
0010
0000
1000
0000
0001
0000
0010
0000
0001
0000
,  // measure 39
0400
0000
0000
0000
0010
0000
0000
0000
0301
0100
0010
0100
0001
0000
0000
0000
,  // measure 40
1001
0000
1000
0010
1000
0000
1000
0000
0100
0000
0010
0000
0002
0000
0000
0000
,  // measure 41
0013
0000
0000
0001
0000
0000
0000
0000
0000
0001
0000
0000
1000
0000
0000
0000
0000
0000
0100
0000
0000
0000
0000
0000
0010
0000
0000
0000
0000
0000
0001
0000
0000
0100
0000
0000
0002
0000
0000
0000
1000
0000
0000
0000
0010
0000
0000
0000
,  // measure 42
1003
0000
0100
1000
0100
0000
0100
0000
0001
0000
0100
0000
2000
0000
0000
0000
,  // measure 43
3100
0000
0000
1000
0000
0000
0000
0000
0000
1000
0000
0000
0001
0000
0000
0000
0000
0000
0100
0000
0000
0000
0000
0000
0001
0000
0000
0000
0000
0000
0010
0000
0000
0100
0000
0000
0020
0000
0000
0000
0001
0000
0000
0000
0001
0000
0000
0000
,  // measure 44
0031
0000
0000
0010
0001
0000
1000
0000
0100
0000
1000
0000
0020
0000
0400
0300
,  // measure 45
0130
0010
0000
0010
1000
0000
0001
0000
1000
0000
0100
0010
0200
0000
4000
3000
,  // measure 46
1300
0000
0000
0100
0010
0000
0100
0000
0001
0000
0100
0000
2000
0000
0040
0030
,  // measure 47
3010
1000
0000
1000
0001
0000
0010
0000
0010
0000
0100
0010
0200
0000
4000
3000
,  // measure 48
1300
0000
0000
0100
1000
0000
0001
0000
0000
0000
0001
0000
0020
0000
0000
0000
,  // measure 49
0130
0000
0000
0010
0100
0000
0010
0000
0000
0000
0010
0001
2000
0000
0000
0000
,  // measure 50
3001
0000
0000
1000
0010
0000
1000
0000
0000
0000
1000
0000
0200
0000
0000
0000
,  // measure 51
0310
0000
0000
0100
0010
0000
0001
0000
0000
0000
0001
1000
0002
0000
0000
0000
,  // measure 52
0003
0000
0000
0000
;

//---------------dance-single - ----------------
#NOTES:
     dance-single:
     X-Scale 10:
     Medium:
     7:
     0.443284,0.618835,0.017631,0.282090,0.312944,352.000000,350.000000,2.000000,32.000000,0.000000,0.000000,0.443284,0.618835,0.017631,0.282090,0.312944,352.000000,350.000000,2.000000,32.000000,0.000000,0.000000:
0000
0000
0000
0000
,
0000
0000
0000
0000
,
0000
0000
0000
0000
,
0000
0000
0000
0000
,
1000
0000
0000
1000
0000
0000
1000
0000
0000
0000
0001
0000
0001
0000
0000
0000
,
0010
0000
0000
0000
0000
0000
0000
0000
0000
0010
0000
0000
0000
0000
0000
0000
0000
0000
0010
0000
0000
0000
0000
0000
0000
0000
0000
0000
0000
0000
0100
0000
0000
0000
0000
0000
0100
0000
0000
0000
1000
0000
0000
0000
0100
0000
0000
0000
,
1000
0000
0000
0010
0000
0000
1000
0000
0000
0000
0001
0000
0001
0000
0000
0000
,
1000
0100
0010
0001
1000
0001
0100
0100
,
0200
0000
0000
0000
,
0000
0000
0000
0000
,
0310
0000
0000
0100
0000
0000
0010
0000
0000
0000
0001
0000
0001
0000
0000
0000
,
1000
0000
0000
0100
0000
0000
1000
0000
0000
0000
0001
0000
0001
0000
0000
0000
,
1000
0000
0000
0001
1000
0000
0000
0000
0100
0000
0000
0000
0010
0000
0001
0000
,
0010
0000
0000
0001
0010
0000
0000
0000
0100
1000
0100
1000
0100
0000
0000
0000
,
1100
1000
0010
1000
0010
1000
0020
0000
,
0130
0000
0000
0100
0010
0000
1000
0000
0001
0000
1000
0000
0002
0000
0000
0000
,
0013
0001
0100
0010
0100
0010
0200
0000
,
0301
0000
0000
0001
1000
0000
0010
0000
1000
0000
0100
0010
0200
0000
0000
0000
,
1300
0000
0000
0100
0000
0000
1000
0000
0100
0000
0010
0000
0002
0000
0000
0000
,
1003
0000
0000
0001
1000
0000
0001
0000
0100
0000
0010
0000
2000
0000
0000
0000
,
3100
0000
0000
1000
0000
0000
0100
0000
1000
0000
0001
0000
0200
0000
0000
0000
,
0310
0000
0000
0100
0010
0000
0100
0000
0001
0000
0010
0100
0020
0000
0000
0000
,
0031
0000
1000
0010
1000
0010
2000
0000
,
3001
0000
0000
1000
0001
0000
1000
0000
0100
0000
0010
0000
0002
0000
0000
0000
,
0103
0000
0001
0010
0001
0010
0200
0000
,
1300
0000
0000
1000
0010
0000
1000
0000
0100
0000
0010
0100
0020
0000
0000
0000
,
0031
0000
0000
0010
0001
0000
0010
0000
0100
0000
1000
0000
0002
0000
0000
0000
,
1003
0000
0000
1000
0100
0000
1000
0000
0010
0000
0100
0000
0002
0000
0000
0000
,
1003
0000
0000
0001
1000
0000
0010
0000
0001
0000
0010
0000
2000
0000
0000
0000
,
3010
0000
0000
0010
1000
0000
0100
0000
0010
0000
0001
0100
0002
0000
0000
0000
,
0103
0000
0001
0010
1000
0010
0001
0000
1000
0100
0010
0001
0100
0001
0100
0000
,
0010
0000
1000
0010
0001
0010
1000
0000
0100
1000
0001
1000
0100
0010
0001
0000
,
1000
0000
0010
1000
0010
0100
0001
0000
1000
0100
0001
1000
0010
0001
0010
0000
,
0100
0000
0000
1000
0000
0000
0100
0000
1000
0000
0000
0001
0000
0000
1000
0100
,
0001
0000
0001
0100
1000
0000
1000
0100
0010
0000
0010
0100
1000
0000
1000
0100
,
0001
0000
0001
0100
1000
0000
1000
0100
0010
0000
0010
0100
1000
0000
1000
0100
,
0020
0000
0031
0010
0200
0000
1300
0010
,
1000
0010
0100
0001
0100
0001
1000
1000
,
0010
0000
0010
0000
1000
0000
1000
0000
0100
0010
0100
0010
0100
0010
0100
0010
,
0200
0000
0000
0000
1000
0000
0000
0000
1000
0000
0000
0000
1300
0100
1000
0000
,
1100
0000
0010
1000
0010
0000
0010
0000
0100
0000
0100
0000
0002
0000
0000
0000
,
1003
0000
0000
1000
0001
0000
1000
0000
0001
0000
0010
0001
0020
0000
0000
0000
,
0130
0000
0000
0010
0100
0000
0100
0000
1000
0000
1000
0000
0002
0000
0000
0000
,
1003
0000
0000
1000
0100
0000
1000
0000
0010
0000
1000
0100
2000
0000
0000
0000
,
3001
0000
0000
1000
0001
0000
1000
0000
0001
0000
0010
0000
0200
0000
0000
0000
,
1300
0000
0000
0100
1000
0000
0001
0000
1000
0000
0010
0100
0020
0000
0000
0000
,
1030
0000
0000
0100
1000
0000
0001
0000
0010
0000
0001
0000
0200
0000
0000
0000
,
0310
0000
0000
0100
0010
0000
1000
0000
0001
0000
0010
0000
0002
0000
0000
0000
,
1003
0000
0001
0010
0100
0010
0002
0000
,
1003
0000
0000
0000
0100
0000
0010
0000
0001
0000
1000
0001
2000
0000
0000
0000
,
3010
0000
1000
0001
0010
0001
0200
0000
,
0310
0000
0000
0000
1000
0000
0100
0000
0010
0000
0001
0010
0002
0000
0000
0000
,
0003
0000
0000
0000
;

//---------------dance-single - ----------------
#NOTES:
     dance-single:
     X-Scale 6:
     Easy:
     5:
     0.337500,0.572995,0.044077,0.149860,0.088153,268.000000,263.000000,5.000000,17.000000,0.000000,0.000000,0.337500,0.572995,0.044077,0.149860,0.088153,268.000000,263.000000,5.000000,17.000000,0.000000,0.000000:
0000
0000
0000
0000
,
0000
0000
0000
0000
,
0000
0000
0000
0000
,
0000
0000
0000
0000
,
1000
0000
0000
0010
0000
1000
1000
0000
,
0001
0000
0000
0010
0000
0001
0001
0000
,
1000
0100
0010
0001
,
1000
0010
0100
0001
,
0200
0000
0000
0000
,
0000
0000
0000
0000
,
0310
0000
0000
1000
0000
0001
0001
0000
,
0100
0000
0000
0010
0000
0100
0100
0000
,
0001
0010
0100
1000
,
0001
0100
0010
1000
,
1010
0000
0010
0100
0001
1000
0200
0000
,
0310
0000
0001
1000
0100
1000
0020
0000
,
0130
0000
0001
0010
0100
0010
0002
0000
,
1003
0000
0010
0100
1000
0100
0002
0000
,
1003
0000
0010
0010
0000
1000
1000
0000
,
0001
0000
0100
0100
0000
0010
0010
0000
,
1000
0000
0100
0100
0000
0010
0010
0000
,
0001
0000
1000
1000
0000
0001
0001
0000
,
1001
0000
1000
0100
0001
0100
2000
0000
,
3010
0000
0100
0010
1000
0001
0020
0000
,
0130
0000
1000
0010
0100
0010
2000
0000
,
3001
0000
1000
0100
0010
0001
2000
0000
,
3010
0000
1000
1000
0000
0001
0001
0000
,
0010
0000
0100
0100
0000
1000
1000
0000
,
0001
0000
0100
0100
0000
0010
0010
0000
,
1000
0000
0100
0100
0000
1000
1000
0000
,
1100
0000
0000
1000
0100
0000
1000
0000
0001
0000
0000
0010
0001
0100
0001
0000
,
0010
0000
0000
0100
1000
0000
0001
0000
1000
0000
0000
0100
0010
0001
1000
0000
,
0010
0000
0000
0100
0001
0000
1000
0000
0010
0000
0000
1000
0001
0010
0001
0000
,
0100
0000
0000
0010
1000
0000
0001
0000
1000
0000
0000
0100
0010
0000
0001
1000
,
0001
0000
1000
0100
1000
0000
0001
1000
0001
0000
1000
0100
1000
0000
0001
1000
,
0001
0000
1000
0010
1000
0000
0001
1000
0001
0000
1000
0010
1000
0000
0001
1000
,
0001
0000
0010
0010
0000
0100
0100
0000
,
1000
0000
0001
0001
0000
0100
0100
0000
,
0001
0010
0100
1000
,
0001
0100
0010
1000
,
1001
0000
0001
1000
0100
0010
0002
0000
,
1003
0000
0010
0100
1000
0100
0002
0000
,
1003
0000
0100
1000
0001
1000
0020
0000
,
0130
0000
0010
0001
0010
1000
0020
0000
,
0130
0000
0001
0001
0000
1000
1000
0000
,
0100
0000
0010
0010
0000
0001
0001
0000
,
1000
0000
0001
0001
0000
0100
0100
0000
,
0010
0000
1000
1000
0000
0001
0001
0000
,
1001
0000
1000
0000
0010
1000
0002
0000
,
0013
0000
0100
0000
1000
0001
2000
0000
,
3010
0000
1000
0000
0100
0010
0002
0000
,
1003
0000
0001
0000
0010
0100
2000
0000
,
3000
0000
0000
0000
;

//---------------dance-single - ----------------
#NOTES:
     dance-single:
     X-Scale 2:
     Beginner:
     2:
     0.149860,0.205287,0.017631,0.000000,0.000000,119.000000,117.000000,2.000000,0.000000,0.000000,0.000000,0.149860,0.205287,0.017631,0.000000,0.000000,119.000000,117.000000,2.000000,0.000000,0.000000,0.000000:
0000
0000
0000
0000
,
0000
0000
0000
0000
,
0000
0000
0000
0000
,
0000
0000
0000
0000
,
0001
0000
0000
0000
,
0010
0000
0000
0000
,
0001
0000
0000
0000
,
1000
0000
0000
0000
,
0001
0000
0000
0000
,
0000
0000
0000
0000
,
1000
0000
0000
0000
,
0100
0000
0000
0000
,
1000
0000
0000
0000
,
0001
0000
0000
0000
,
0101
0000
0100
0010
,
1000
0000
0001
0100
,
0010
0000
1000
0100
,
0010
0000
0100
0010
,
0001
0000
1000
0001
,
1000
0000
0010
0100
,
0010
0000
1000
0100
,
1000
0000
0001
0100
,
0001
0000
0010
0100
,
0010
0000
0001
1000
,
0001
0000
1000
0100
,
0010
0000
0100
0010
,
0001
0000
1000
0010
,
0100
0000
0010
0100
,
0001
0000
0010
0100
,
1000
0000
0001
0100
,
0010
0000
1000
0000
,
0001
0000
1000
0000
,
0100
0000
0010
0000
,
0100
0000
1000
0000
,
0001
0010
0100
1000
,
0001
0010
0100
1000
,
0001
0000
1000
0000
,
0001
0000
0010
0000
,
0100
0000
1000
0000
,
0001
0000
1000
0000
,
1001
0000
0010
1000
,
0001
0000
1000
0100
,
0010
0000
0100
0010
,
0001
0000
1000
0010
,
0100
0000
0010
0100
,
0001
0000
1000
0001
,
1000
0000
0010
0100
,
0010
0000
1000
0100
,
1000
0000
0010
0100
,
0010
0000
1000
0100
,
0010
0000
0100
0010
,
0001
0000
1000
1000
;
