#TITLE:ポリリズム;
#SUBTITLE:;
#ARTIST:Perfume;
#TITLETRANSLIT:Polyrhythm;
#SUBTITLETRANSLIT:;
#ARTISTTRANSLIT:;
#GENRE:Electropop;
#CREDIT:;
#BANNER:Polyrhythm-bn.png;
#BACKGROUND:Polyrhythm-bg.png;
#LYRICSPATH:;
#CDTITLE:cdtitle.png;
#MUSIC:polyrhythm.ogg;
#OFFSET:0.000000;
#SAMPLESTART:15.000000;
#SAMPLELENGTH:12.000000;
#SELECTABLE:YES;
#BPMS:0.000000=128.000000
;
#STOPS:
;
#BGCHANGES:0.000=polyrhythm.avi=1.000=1=0=0=StretchNoLoop==CrossFade==,
99999=-nosongbg-=1.000=0=0=0 // don't automatically add -songbackground-
;
#KEYSOUNDS:;
#ATTACKS:;

//---------------dance-single - ----------------
#NOTES:
     dance-single:
     :
     Medium:
     5:
     0.316717,0.420718,0.082494,0.030935,0.000000,215.000000,207.000000,8.000000,3.000000,0.000000,0.000000,0.316717,0.420718,0.082494,0.030935,0.000000,215.000000,207.000000,8.000000,3.000000,0.000000,0.000000:
// measure 0
0000
0000
0000
0000
,  // measure 1
0000
0000
0000
0000
,  // measure 2
0000
0000
0000
0000
,  // measure 3
0000
0000
0000
0000
,  // measure 4
1100
1000
0100
0010
,  // measure 5
0001
0010
0100
0100
,  // measure 6
1000
0001
0010
1000
,  // measure 7
0100
0001
0010
0010
,  // measure 8
0011
1000
0001
0100
,  // measure 9
0010
0010
0100
0100
,  // measure 10
0110
0010
0100
0001
,  // measure 11
1000
1000
0001
0001
,  // measure 12
1010
0100
0010
0100
,  // measure 13
0001
0100
0010
0200
,  // measure 14
0002
0000
0000
0000
0000
0000
0000
0303
,  // measure 15
0100
0000
0100
0000
0010
0100
0010
0100
,  // measure 16
0110
0010
0100
0100
,  // measure 17
0010
0000
1000
0010
0100
0010
0100
0010
,  // measure 18
0100
0001
0010
0100
,  // measure 19
0100
0000
0010
0000
0100
1000
0001
1000
,  // measure 20
0001
0100
0010
0100
,  // measure 21
0001
0000
0010
0100
0010
0001
0010
0100
,  // measure 22
1000
0001
0100
0010
,  // measure 23
1000
0000
0001
0000
0010
0100
0010
0001
,  // measure 24
0011
1000
0100
0001
,  // measure 25
0100
0000
0100
1000
0001
1000
0010
1000
,  // measure 26
0100
1000
0100
0010
,  // measure 27
0100
0000
1000
0000
0100
0010
0001
0010
,  // measure 28
0100
1000
0001
0100
,  // measure 29
0010
0000
0100
0001
0010
0100
0010
1000
,  // measure 30
0100
0010
0100
0001
,  // measure 31
2000
0000
0000
3000
1000
0001
0100
0010
,  // measure 32
0101
0001
1000
0010
,  // measure 33
0100
0001
1000
0100
,  // measure 34
0010
0001
0010
0100
,  // measure 35
0010
0001
0100
0001
,  // measure 36
0100
0010
0100
0001
,  // measure 37
1000
0010
1000
0100
,  // measure 38
0010
0100
1000
0010
,  // measure 39
0100
0000
0010
0000
1000
0100
0010
0100
,  // measure 40
0110
0010
0001
1000
,  // measure 41
0010
0100
0001
0100
,  // measure 42
1000
0100
0001
0010
,  // measure 43
0100
1000
0001
0100
,  // measure 44
0010
1000
0010
0100
,  // measure 45
0010
0000
1000
0000
0010
1000
0100
0010
,  // measure 46
0100
0010
0100
1000
0100
0010
0100
0010
,  // measure 47
0001
0010
0100
0010
0010
0100
0010
0100
,  // measure 48
0100
0000
0000
0000
;

//---------------dance-single - ----------------
#NOTES:
     dance-single:
     :
     Easy:
     3:
     0.172353,0.247481,0.072182,0.020623,0.000000,117.000000,110.000000,7.000000,2.000000,0.000000,0.000000,0.172353,0.247481,0.072182,0.020623,0.000000,117.000000,110.000000,7.000000,2.000000,0.000000,0.000000:
// measure 0
0000
0000
0000
0000
,  // measure 1
0000
0000
0000
0000
,  // measure 2
0000
0000
0000
0000
,  // measure 3
0000
0000
0000
0000
,  // measure 4
1010
1000
0000
0001
,  // measure 5
0000
1000
0000
0001
,  // measure 6
0101
0100
0000
0010
,  // measure 7
0000
0100
0000
0010
,  // measure 8
1010
0100
0000
0001
,  // measure 9
0000
0010
0000
0001
,  // measure 10
0101
0100
0000
0001
,  // measure 11
0000
0100
0000
0010
,  // measure 12
0101
0100
0000
0001
,  // measure 13
0000
0010
0000
0100
,  // measure 14
2000
0000
0000
0000
0000
0000
0000
3000
,  // measure 15
0100
0100
0010
0100
,  // measure 16
1010
0000
1000
0000
,  // measure 17
0100
0000
1000
0000
,  // measure 18
0100
0000
0010
0000
,  // measure 19
1000
0000
0100
0000
,  // measure 20
1000
0000
0010
0000
,  // measure 21
1000
0000
0100
0000
,  // measure 22
1000
0000
0100
0000
,  // measure 23
0010
0000
0100
0010
,  // measure 24
0001
0000
0001
0000
,  // measure 25
0010
0000
0001
0000
,  // measure 26
0010
0000
0100
0000
,  // measure 27
1000
0000
0010
0000
,  // measure 28
0100
0000
1000
0000
,  // measure 29
0100
0000
1000
0000
,  // measure 30
0100
0000
1000
0000
,  // measure 31
0200
0000
0000
0300
1000
0000
0010
0000
,  // measure 32
1010
0000
1000
0000
,  // measure 33
0100
0000
1000
0100
,  // measure 34
0010
0000
1000
0000
,  // measure 35
0100
0000
0010
0001
,  // measure 36
0010
0000
0100
0000
,  // measure 37
0010
0000
1000
0100
,  // measure 38
0001
0000
1000
0000
,  // measure 39
0100
0000
1000
0100
,  // measure 40
0010
0000
1000
0000
,  // measure 41
0010
0010
0001
0010
,  // measure 42
0000
0010
0000
0100
,  // measure 43
0000
1000
0010
0100
,  // measure 44
0000
1000
0000
0100
,  // measure 45
0000
1000
1000
0100
,  // measure 46
0100
0010
0010
0100
,  // measure 47
1000
0000
0100
0000
0010
0000
0001
0010
,  // measure 48
0001
0000
0000
0000
;

//---------------dance-single - ----------------
#NOTES:
     dance-single:
     :
     Beginner:
     1:
     0.114902,0.148489,0.000000,0.144364,0.000000,78.000000,78.000000,0.000000,14.000000,0.000000,0.000000,0.114902,0.148489,0.000000,0.144364,0.000000,78.000000,78.000000,0.000000,14.000000,0.000000,0.000000:
// measure 0
0000
0000
0000
0000
,  // measure 1
0000
0000
0000
0000
,  // measure 2
0000
0000
0000
0000
,  // measure 3
0000
0000
0000
0000
,  // measure 4
2000
0000
0000
0000
0000
0000
0000
3000
,  // measure 5
0200
0000
0000
0000
0000
0000
0000
0300
,  // measure 6
0020
0000
0000
0000
0000
0000
0000
0030
,  // measure 7
0002
0000
0000
0000
0000
0000
0000
0003
,  // measure 8
2000
0000
0000
0000
0000
0000
0000
3000
,  // measure 9
0002
0000
0000
0000
0000
0000
0000
0003
,  // measure 10
0020
0000
0000
0000
0000
0000
0000
0030
,  // measure 11
0200
0000
0000
0000
0000
0000
0000
0300
,  // measure 12
2000
0000
0000
0000
0000
0000
0000
3000
,  // measure 13
0020
0000
0000
0000
0000
0000
0000
0030
,  // measure 14
0200
0000
0000
0000
0000
0000
0000
0300
,  // measure 15
0100
0100
0100
0000
,  // measure 16
0001
0000
1000
0000
,  // measure 17
0010
0000
1000
0000
,  // measure 18
0100
0000
0010
0000
,  // measure 19
0100
0000
1000
0000
,  // measure 20
0001
0000
0100
0000
,  // measure 21
0010
0000
1000
0000
,  // measure 22
0010
0000
0100
0000
,  // measure 23
1000
0000
0100
0000
,  // measure 24
0010
0000
0001
0000
,  // measure 25
0010
0000
0001
0000
,  // measure 26
0010
0000
0001
0000
,  // measure 27
0100
0000
1000
0000
,  // measure 28
0010
0000
1000
0000
,  // measure 29
0100
0000
0010
0000
,  // measure 30
0100
0000
1000
0000
,  // measure 31
0020
0000
0030
0000
,  // measure 32
2000
0000
0010
0000
,  // measure 33
0000
0000
0001
0000
,  // measure 34
3100
0000
1000
0000
,  // measure 35
0100
0000
0010
0000
,  // measure 36
0002
0000
0100
0000
,  // measure 37
0000
0000
0010
0000
,  // measure 38
0103
0000
0001
0000
,  // measure 39
1000
0000
0100
0000
,  // measure 40
0010
0000
0010
0000
,  // measure 41
0010
0000
0001
0000
,  // measure 42
0100
0001
0000
0100
,  // measure 43
0000
1000
0000
0100
,  // measure 44
0000
0010
0000
0100
,  // measure 45
0000
1000
0000
0100
,  // measure 46
0000
0010
0000
1000
,  // measure 47
0000
0100
0010
0010
,  // measure 48
0010
0000
0000
0000
;

//---------------dance-single - ----------------
#NOTES:
     dance-single:
     :
     Hard:
     8:
     0.427200,0.445466,0.092806,0.030935,0.067026,290.000000,281.000000,9.000000,3.000000,0.000000,0.000000,0.427200,0.445466,0.092806,0.030935,0.067026,290.000000,281.000000,9.000000,3.000000,0.000000,0.000000:
// measure 0
0000
0000
0000
0000
,  // measure 1
0000
0000
0000
0000
,  // measure 2
0000
0000
0000
0000
,  // measure 3
0000
0000
0000
0000
,  // measure 4
1100
0000
1000
0100
0010
0001
0010
0000
,  // measure 5
0100
0000
1000
0100
0010
0100
0010
0000
,  // measure 6
0100
0000
0010
0100
0010
0001
0010
0000
,  // measure 7
0100
0000
0100
0010
0100
1000
0100
0000
,  // measure 8
1010
0000
0001
0010
0100
0001
0100
0000
,  // measure 9
1000
0100
0010
0001
,  // measure 10
0011
0000
0001
1000
0010
0100
0001
0000
,  // measure 11
0001
0010
0100
1000
,  // measure 12
1100
0000
1000
0010
0100
0001
1000
0000
,  // measure 13
0100
0010
0100
2100
,  // measure 14
0200
0000
0000
0000
0000
0000
0000
3300
,  // measure 15
0100
0000
0100
0000
1000
0100
0010
0001
,  // measure 16
1001
0000
0000
0000
0001
0000
0100
0000
0001
0000
0000
0010
0000
0000
0100
0000
,  // measure 17
1000
0010
0100
0010
1000
0100
0010
0100
,  // measure 18
1000
0000
0000
0000
0001
0000
1000
0000
0010
0000
0000
0100
0000
0000
1000
0000
,  // measure 19
0100
0010
0100
1000
0100
0010
0001
0010
,  // measure 20
0100
0000
0010
0000
1000
0000
0001
0000
0010
0000
0000
0100
0000
0000
0010
0000
,  // measure 21
0001
0100
0001
0010
0100
0010
0001
1000
,  // measure 22
0001
0000
0000
0000
0001
0000
0010
0000
0100
0000
0000
0010
0000
0000
0100
0000
,  // measure 23
1000
0100
0010
0100
1000
0100
1000
0010
,  // measure 24
0110
0000
0000
0000
1000
0000
0010
0000
1000
0000
0000
0010
0000
0000
1000
0000
,  // measure 25
0010
0100
0001
0100
0010
0100
0010
0001
,  // measure 26
0010
0000
0000
0000
0100
0000
0010
0000
1000
0000
0000
0010
0000
0000
0010
0000
,  // measure 27
0100
0010
1000
0001
1000
0001
0010
0001
,  // measure 28
0100
0000
0000
0000
0001
0000
0010
0000
0100
0000
0000
0010
0000
0000
0001
0000
,  // measure 29
0001
0010
0001
0100
1000
0100
0001
0001
,  // measure 30
0100
0000
0000
0000
0010
0000
0100
0000
1000
0000
0000
0100
0000
0000
0010
0000
,  // measure 31
0200
0000
0000
0300
0001
0010
0100
1000
,  // measure 32
1001
0000
0000
0000
0000
0000
0000
0000
0001
0000
0000
0000
0000
0000
0000
0000
1000
0000
0000
0000
0000
0100
0000
0000
0000
0000
0000
0000
0010
0000
0000
0000
,  // measure 33
0100
0010
0001
0010
0100
0010
0100
0010
,  // measure 34
0100
0000
0000
0000
0000
0000
0000
0000
0010
0000
0000
0000
0000
0000
0000
0000
0001
0000
0000
0000
0000
0100
0000
0000
0000
0000
0000
0000
0010
0000
0000
0000
,  // measure 35
0100
0010
0001
0010
0100
0010
0001
0010
,  // measure 36
0100
0000
0000
0000
0001
0000
0000
0000
0000
0000
0000
0000
1000
0000
0000
0000
0100
0000
0000
0000
0000
0010
0000
0000
0000
0000
0000
0000
0001
0000
0000
0000
,  // measure 37
0100
0001
0010
0100
1000
0100
0001
0100
,  // measure 38
1000
0000
0000
0000
0000
0000
0000
0000
0010
0000
0000
0000
0000
0000
0000
0000
1000
0000
0000
0000
0000
0001
0000
0000
0000
0000
0000
0000
0010
0000
0000
0000
,  // measure 39
0001
0100
0010
1000
0100
0010
0001
0010
,  // measure 40
0011
0000
0001
0000
1000
0010
0100
0001
,  // measure 41
0010
0100
0100
0000
0010
0000
0001
1000
,  // measure 42
0001
0010
1000
0010
0100
0000
0010
0000
,  // measure 43
0001
0010
0100
0010
0001
1000
0010
0000
,  // measure 44
0010
0000
0100
1000
0100
0010
0100
0010
,  // measure 45
0010
0000
1000
0001
0010
0100
0100
0010
,  // measure 46
0001
0100
0010
0100
0001
0100
0010
0010
,  // measure 47
1000
0000
0001
0000
0100
0000
0010
0000
1000
0000
0100
1000
0100
0000
0010
0000
,  // measure 48
0100
0000
0000
0000
;
