#VERSION:0.83;
#TITLE:Покинула Чат;
#SUBTITLE:;
#ARTIST:Клава Кока;
#TITLETRANSLIT:Pokinula Chat;
#SUBTITLETRANSLIT:;
#ARTISTTRANSLIT:Klava Koka;
#GENRE:Pop;
#ORIGIN:;
#CREDIT:;
#BANNER:Pokinula Chat-bn.png;
#BACKGROUND:Pokinula Chat-bg.png;
#PREVIEWVID:;
#JACKET:Pokinula Chat-jacket.png;
#CDIMAGE:;
#DISCIMAGE:;
#LYRICSPATH:;
#CDTITLE:cdtitle.png;
#MUSIC:Pokinula Chat.ogg;
#OFFSET:-0.002000;
#SAMPLESTART:73.334999;
#SAMPLELENGTH:13.333000;
#SELECTABLE:YES;
#BPMS:0.000=72.000,
8.000=144.000,
36.000=72.000,
38.000=144.000,
70.000=72.000,
86.000=144.000,
114.000=72.000,
116.000=144.000,
144.000=72.000,
146.000=144.000,
210.000=72.000;
#STOPS:;
#DELAYS:;
#WARPS:;
#TIMESIGNATURES:0.000=4=4;
#TICKCOUNTS:0.000=4;
#COMBOS:0.000=1;
#SPEEDS:0.000=1.000=0.000=0;
#SCROLLS:0.000=1.000;
#FAKES:;
#LABELS:0.000=Song Start;
#BGCHANGES:0.000=Pokinula Chat.avi=1.000=1=0=0=StretchNoLoop==CrossFade==,
99999=-nosongbg-=1.000=0=0=0 // don't automatically add -songbackground-
;
#KEYSOUNDS:;
#ATTACKS:
;

//---------------dance-single - ----------------
#NOTEDATA:;
#CHARTNAME:X-Scale 11;
#STEPSTYPE:dance-single;
#DESCRIPTION:;
#CHARTSTYLE:;
#DIFFICULTY:Hard;
#METER:8;
#RADARVALUES:0.542633,0.725872,0.377271,0.231507,0.210071,443.000000,399.000000,44.000000,27.000000,0.000000,0.000000,0.000000,0.000000,0.000000,0.542633,0.725872,0.377271,0.231507,0.210071,443.000000,399.000000,44.000000,27.000000,0.000000,0.000000,0.000000,0.000000,0.000000;
#CREDIT:;
#NOTES:
// measure 0
0000
0000
0000
0000
,  // measure 1
0000
0000
0000
0000
,  // measure 2
1100
0000
1000
0001
0100
0001
1000
0000
,  // measure 3
1001
0000
0010
0001
0100
0010
0100
0000
,  // measure 4
0110
0000
1000
0001
0010
0100
1000
0000
,  // measure 5
1001
0000
0000
0001
0000
0000
0100
0000
0010
0000
0100
0000
0001
0000
0000
0000
,  // measure 6
0011
0000
0010
0100
1000
0001
0100
0000
,  // measure 7
0110
0000
1000
0001
0100
0010
1000
0000
,  // measure 8
1100
0000
1000
0100
0001
0100
1000
0000
,  // measure 9
2002
3003
1001
1000
,  // measure 10
0100
0000
0010
0000
0000
0000
0010
0001
0010
0000
0000
0000
0001
0000
1000
0000
,  // measure 11
0100
0000
0100
0000
0002
0000
0000
0003
1001
0000
0000
0000
1000
0000
0000
0000
,  // measure 12
0001
0000
0010
0000
0000
0000
0001
0100
0001
0000
0000
0000
1000
0000
0100
0000
,  // measure 13
0001
0010
1000
0000
0010
0000
0010
0000
,  // measure 14
1000
0000
0100
0000
0000
0000
0100
0010
0100
0000
0000
0000
1000
0000
0001
0000
,  // measure 15
0010
0010
1000
0000
1001
0000
0001
0000
,  // measure 16
0100
0000
0010
0000
0000
0000
0100
0001
0100
0000
0000
0000
0001
0000
1000
0100
,  // measure 17
1000
0000
0001
0000
0100
0000
0000
0000
0101
0000
1001
0000
1000
0100
0001
0100
,  // measure 18
1100
0000
0110
0000
0100
0010
0001
1000
0002
0000
0203
0000
0310
0100
0002
0000
,  // measure 19
0023
0000
0230
0300
1000
0010
0100
0001
0101
0000
0110
0000
0010
0100
0001
0000
,  // measure 20
1001
0000
0101
0000
0001
1000
0100
1000
0010
0100
0001
0010
0200
0000
2300
0000
,  // measure 21
3002
0000
1003
1000
0100
0100
1000
1000
1100
0000
0000
0000
0100
0000
0010
0000
,  // measure 22
0000
0001
1000
0100
0001
0100
0010
0001
,  // measure 23
0000
1000
0001
0010
1000
0010
0100
1000
,  // measure 24
0000
0001
0100
0010
0100
0001
0010
0100
,  // measure 25
0000
1000
0100
0000
1100
0000
0101
0000
,  // measure 26
0011
0000
1010
1000
0001
0100
0001
0010
,  // measure 27
0000
0001
1000
0100
0001
0100
0010
0001
,  // measure 28
0000
0000
1000
0000
0100
0000
0010
0100
0010
0000
0000
0000
0001
0000
0010
0000
,  // measure 29
0011
0000
1000
0010
1000
0001
0010
0000
,  // measure 30
0110
0000
0100
1000
0001
0100
0001
0000
,  // measure 31
0101
0000
1001
1000
0020
0000
2030
0000
,  // measure 32
3100
0000
0000
0010
0000
0000
0001
0000
0100
0000
0010
0000
0100
0000
0000
0000
,  // measure 33
0110
0100
0010
1000
0001
0010
0100
1000
,  // measure 34
0010
0000
1000
0000
0001
0000
0010
0100
0010
0000
0001
0000
1000
0000
0100
0000
,  // measure 35
0010
0000
0001
1000
0001
0000
0100
0000
0010
0000
0100
0000
0001
0000
0000
0000
,  // measure 36
2200
0000
3300
0000
1001
0001
1000
0010
,  // measure 37
0100
0000
0001
0000
1000
0000
0001
0010
0001
0000
0100
0000
1000
0000
0100
0000
,  // measure 38
0001
0001
1000
0000
1100
0000
0101
0001
,  // measure 39
1000
0001
0010
0100
1000
0010
1000
0001
,  // measure 40
0010
0001
1000
0100
0110
0000
1001
0000
,  // measure 41
0001
0000
0100
0000
0001
0000
1000
0100
1000
0000
0001
0000
0100
0000
0001
0000
,  // measure 42
0010
0010
1000
0000
1001
0000
0011
0010
,  // measure 43
0100
0000
1000
0000
0001
0000
0100
0000
0001
1000
0001
0000
0010
0000
0100
1000
,  // measure 44
0100
0010
0001
0000
0101
0100
0010
0001
,  // measure 45
0010
0000
1000
0000
0001
0000
1000
0100
1000
0000
0010
0000
1000
0000
0001
0000
,  // measure 46
0100
0100
1000
0000
1100
0000
1001
0000
,  // measure 47
0101
0001
0100
0010
0100
1000
0100
0001
,  // measure 48
0010
0100
1000
0000
0001
0010
1000
0010
,  // measure 49
0100
0000
1000
0000
0001
0000
1000
0010
1000
0000
0100
0000
1000
0000
0001
0000
,  // measure 50
0010
0010
0100
0000
0110
0000
0101
0000
,  // measure 51
1100
1000
0001
0010
0001
0100
0001
0000
,  // measure 52
0010
0000
0100
0000
1000
0000
0000
0000
0001
0000
0000
1000
0100
0100
0200
0000
,  // measure 53
0320
0030
0000
0001
0100
0100
0200
0000
0320
0030
0000
1000
0100
1000
0002
0000
,  // measure 54
0023
0030
0100
0010
0001
1000
0001
0010
0100
0000
0000
1000
0010
0010
0020
0000
,  // measure 55
0230
0300
0000
0001
0010
0010
0020
0000
0230
0300
0000
1000
0010
1000
0002
0000
,  // measure 56
0023
0030
0001
1000
0100
0001
0100
1000
0000
0000
0000
0000
0000
0000
0000
0000
;

//---------------dance-single - ----------------
#NOTEDATA:;
#CHARTNAME:X-Scale 10;
#STEPSTYPE:dance-single;
#DESCRIPTION:;
#CHARTSTYLE:;
#DIFFICULTY:Medium;
#METER:7;
#RADARVALUES:0.478938,0.677480,0.325825,0.085743,0.154338,391.000000,353.000000,38.000000,10.000000,0.000000,0.000000,0.000000,0.000000,0.000000,0.478938,0.677480,0.325825,0.085743,0.154338,391.000000,353.000000,38.000000,10.000000,0.000000,0.000000,0.000000,0.000000,0.000000;
#CREDIT:;
#NOTES:
// measure 0
0000
0000
0000
0000
,  // measure 1
0000
0000
0000
0000
,  // measure 2
1001
0000
0001
0010
0000
0010
1000
0000
,  // measure 3
1010
0000
1000
0100
0000
0100
0001
0000
,  // measure 4
0101
0000
0001
0010
0200
0000
2300
0000
,  // measure 5
3001
0000
0000
0010
0000
0000
0001
0000
0100
0000
0001
0000
1000
0000
0000
0000
,  // measure 6
1100
0000
1000
0010
0000
0010
0001
0000
,  // measure 7
0011
0000
0001
0100
0000
0100
1000
0000
,  // measure 8
1100
0000
0100
0010
0001
1000
0001
0000
,  // measure 9
1001
0000
0000
1000
0000
0000
0010
0000
1000
0000
0001
0000
0010
0000
0000
0000
0011
0000
0000
0000
0000
0000
0000
0000
0001
0000
0000
0000
0000
0000
0000
0000
,  // measure 10
0010
0100
0000
0100
1000
0000
0001
1000
,  // measure 11
0100
1000
0001
0000
0010
0000
0010
0000
,  // measure 12
0100
1000
0000
1000
0001
0000
0010
0100
,  // measure 13
1000
0100
0020
0000
0031
0000
0001
0000
,  // measure 14
1000
0010
0000
0010
0100
0000
0001
0010
,  // measure 15
1000
0010
0001
0000
1000
0000
1000
0000
,  // measure 16
0100
0010
0000
0010
0001
1000
0010
1000
,  // measure 17
0001
0000
0010
0000
0100
0000
0000
0000
0110
0000
0000
0100
0000
0000
1000
0000
,  // measure 18
1010
0000
0000
0010
0000
0000
1000
0000
1001
0000
0000
0001
0000
0000
0010
0000
,  // measure 19
0110
0000
0000
0100
0000
0000
1000
0000
1010
0000
0000
0010
0000
0000
0100
0000
,  // measure 20
0101
0000
0000
0001
0000
0000
1000
0000
1001
0000
0000
0100
0000
0000
1000
0000
,  // measure 21
0100
0000
1000
0010
0001
1000
0100
0001
1001
0000
0000
0000
1000
0000
0000
0000
,  // measure 22
0100
0000
0010
0100
1000
0001
2000
0010
,  // measure 23
3000
1000
0001
1000
0100
0001
0200
1000
,  // measure 24
0300
0100
0010
0001
1000
0001
0200
0010
,  // measure 25
0300
0100
0001
1000
0001
0000
0010
0000
,  // measure 26
0100
0000
1000
0100
0001
0100
2000
0010
,  // measure 27
3000
1000
0001
0010
0001
1000
0200
0010
,  // measure 28
0300
0100
1000
0001
1001
0000
0100
0010
,  // measure 29
0110
0000
1000
0100
0000
0100
0001
0000
,  // measure 30
0101
0000
0001
0010
0000
0010
1000
0000
,  // measure 31
1010
0000
1000
0100
0001
0100
1000
0000
,  // measure 32
1100
0000
0000
0100
0000
0000
0010
0000
0100
0000
1000
0000
0001
0000
0000
0000
,  // measure 33
1001
0000
1000
0010
0000
0010
0001
0000
,  // measure 34
0011
0000
0001
0100
0000
0100
1000
0000
,  // measure 35
1100
0000
1000
0010
0001
0010
1000
0000
,  // measure 36
1001
0000
0000
0001
0000
0000
0010
0000
0001
0000
1000
0000
0010
0000
0000
0000
1010
0000
0000
0000
1000
0000
0000
0000
0001
0000
0000
0000
1000
0000
0000
0000
,  // measure 37
0100
0010
0000
0010
0001
0000
1000
0100
,  // measure 38
0100
0100
0010
0000
0101
0001
1000
0001
,  // measure 39
0010
0100
0000
0100
1000
0000
0001
0100
,  // measure 40
1000
0100
0001
0000
1000
0010
1000
0001
,  // measure 41
0010
0100
0000
0100
1000
0000
0001
0010
,  // measure 42
0010
0010
0100
0000
1000
0010
1000
0001
,  // measure 43
0100
0010
0000
0010
1000
0000
0001
0100
,  // measure 44
0010
0100
0001
0000
0101
0100
0010
0100
,  // measure 45
0001
0010
0000
0010
1000
0000
0001
0100
,  // measure 46
0010
0010
0001
0000
1001
0000
0010
1000
,  // measure 47
0001
0200
0000
0000
0010
0000
1300
0100
,  // measure 48
0010
0100
0001
0000
1000
0001
0100
0001
,  // measure 49
1000
0100
0000
0100
0001
0000
1000
0001
,  // measure 50
0010
0010
1000
0000
1020
0000
0001
0000
,  // measure 51
0130
0010
0000
0100
0001
1000
0100
0010
,  // measure 52
0100
0000
1000
0000
0001
0000
0000
0000
1001
0000
0000
1000
0100
1000
0100
0000
,  // measure 53
1100
0000
0000
0001
0010
0001
0010
0000
0011
0000
0000
1000
0010
1000
0010
0000
,  // measure 54
1010
0000
0001
0010
1000
0010
0100
1000
1100
0000
0000
0001
0100
0001
0100
0000
,  // measure 55
0101
0000
0000
1000
0010
1000
0010
0000
1010
0000
0000
0001
0010
0001
0010
0000
,  // measure 56
0011
0000
0001
0010
1000
0010
0100
1000
0000
0000
0000
0000
0000
0000
0000
0000
;

//---------------dance-single - ----------------
#NOTEDATA:;
#CHARTNAME:X-Scale 6;
#STEPSTYPE:dance-single;
#DESCRIPTION:;
#CHARTSTYLE:;
#DIFFICULTY:Easy;
#METER:4;
#RADARVALUES:0.318476,0.408139,0.171487,0.000000,0.000000,260.000000,240.000000,20.000000,0.000000,0.000000,0.000000,0.000000,0.000000,0.000000,0.318476,0.408139,0.171487,0.000000,0.000000,260.000000,240.000000,20.000000,0.000000,0.000000,0.000000,0.000000,0.000000,0.000000;
#CREDIT:;
#NOTES:
// measure 0
0000
0000
0000
0000
,  // measure 1
0000
0000
0000
0000
,  // measure 2
0011
0001
0000
1000
,  // measure 3
1010
0010
0000
0100
,  // measure 4
0110
0010
0000
1000
,  // measure 5
1010
0010
0000
0100
,  // measure 6
0101
0001
0000
1000
,  // measure 7
1001
0001
0000
0010
,  // measure 8
0011
0001
0000
1000
,  // measure 9
1001
0000
1000
1000
,  // measure 10
0000
0100
0000
0100
0000
0000
0010
0001
,  // measure 11
1000
0001
0010
0000
0100
0000
0100
0000
,  // measure 12
0000
1000
0000
1000
0000
0000
0001
0100
,  // measure 13
0010
0100
0001
0000
1000
0000
1000
0000
,  // measure 14
0000
0100
0000
0100
0000
0000
0010
0001
,  // measure 15
1000
0001
0010
0000
0100
0000
0100
0000
,  // measure 16
0000
1000
0000
1000
0000
0000
1010
0000
,  // measure 17
0000
0000
0011
0000
0001
0010
0100
1000
,  // measure 18
0010
0100
0010
1000
0001
0100
0010
0100
,  // measure 19
0001
0010
0001
1000
0100
0010
0100
1000
,  // measure 20
0001
0100
0010
0100
0001
0010
0100
1000
,  // measure 21
0001
0000
1001
0100
,  // measure 22
1000
0000
0001
0000
0010
0100
0010
0000
,  // measure 23
0001
0000
1000
0000
0100
0010
0100
0000
,  // measure 24
1000
0000
0001
0000
0010
0100
0010
0000
,  // measure 25
0001
1000
0100
1000
,  // measure 26
0001
0000
0010
0000
0100
0010
0100
0000
,  // measure 27
1000
0000
0001
0000
0010
0100
0010
0000
,  // measure 28
0001
1000
1001
0000
,  // measure 29
0110
0000
1000
0000
0001
0100
0001
0000
,  // measure 30
0010
0000
0100
0000
1000
0100
1000
0000
,  // measure 31
0001
0100
0001
0010
,  // measure 32
0100
0000
1000
0010
1000
0001
0010
0000
,  // measure 33
0100
0000
1000
0000
0001
0100
0001
0000
,  // measure 34
0010
0000
0100
0000
1000
0100
1000
0000
,  // measure 35
0010
0000
0100
0000
0001
0010
0001
0000
,  // measure 36
0011
0000
1001
1000
,  // measure 37
0000
0100
0000
0100
0000
0000
0010
0001
,  // measure 38
1000
0001
0010
0000
0100
0000
0100
0000
,  // measure 39
0000
1000
0000
1000
0000
0000
0001
0100
,  // measure 40
0010
0100
0001
0000
1000
0000
1000
0000
,  // measure 41
0000
0100
0000
0100
0000
0000
0010
0001
,  // measure 42
1000
0001
0010
0000
0100
0000
0100
0000
,  // measure 43
0000
1000
0000
1000
0000
0000
1100
0000
,  // measure 44
0000
0101
1001
1000
,  // measure 45
0100
0010
0000
0010
0001
0000
1000
0000
,  // measure 46
0001
0100
0001
0000
0010
0000
0100
0000
,  // measure 47
1000
0010
0000
1000
0001
0000
0010
0000
,  // measure 48
0100
1000
0100
0000
0010
0000
0100
0000
,  // measure 49
1000
0001
0000
0001
0010
0000
0100
0000
,  // measure 50
1000
0100
1000
0000
0001
0000
0100
0000
,  // measure 51
0001
0010
0000
0100
1000
0000
1100
0000
,  // measure 52
0000
1010
0001
0010
,  // measure 53
0100
1000
0010
0100
,  // measure 54
0001
1000
0001
0010
,  // measure 55
0001
0100
0010
1000
,  // measure 56
0001
0000
0000
0000
;

//---------------dance-single - ----------------
#NOTEDATA:;
#CHARTNAME:X-Scale 2;
#STEPSTYPE:dance-single;
#DESCRIPTION:;
#CHARTSTYLE:;
#DIFFICULTY:Beginner;
#METER:2;
#RADARVALUES:0.132290,0.144049,0.000000,0.000000,0.000000,108.000000,108.000000,0.000000,0.000000,0.000000,0.000000,0.000000,0.000000,0.000000,0.132290,0.144049,0.000000,0.000000,0.000000,108.000000,108.000000,0.000000,0.000000,0.000000,0.000000,0.000000,0.000000,0.000000;
#CREDIT:;
#NOTES:
// measure 0
0000
0000
0000
0000
,  // measure 1
0000
0000
0000
0000
,  // measure 2
1000
0000
0000
0000
,  // measure 3
0100
0000
0000
0000
,  // measure 4
0010
0000
0000
0000
,  // measure 5
0001
0000
0000
0000
,  // measure 6
0100
0000
0000
0000
,  // measure 7
0010
0000
0000
0000
,  // measure 8
1000
0000
0000
0000
,  // measure 9
0001
0000
0000
0001
,  // measure 10
0000
0010
0000
0001
,  // measure 11
0000
0010
0000
0100
,  // measure 12
0000
1000
0000
0100
,  // measure 13
0000
1000
0000
0001
,  // measure 14
0000
0100
0000
0001
,  // measure 15
0000
0100
0000
0010
,  // measure 16
0000
1000
0000
0010
,  // measure 17
0000
1000
1000
0000
,  // measure 18
0100
0000
0010
0000
,  // measure 19
0001
0000
0100
0000
,  // measure 20
0010
0000
1000
0000
,  // measure 21
0001
0000
0000
1000
,  // measure 22
0000
0100
0000
1000
,  // measure 23
0000
0001
0000
0100
,  // measure 24
0000
0001
0000
0010
,  // measure 25
0000
0100
0000
0010
,  // measure 26
0000
0001
0000
1000
,  // measure 27
0000
0010
0000
1000
,  // measure 28
0000
0001
0000
0000
,  // measure 29
1000
0000
0001
0000
,  // measure 30
0100
0000
0001
0000
,  // measure 31
1000
0000
0100
0000
,  // measure 32
0010
0000
0100
0000
,  // measure 33
1000
0000
0001
0000
,  // measure 34
0010
0000
0001
0000
,  // measure 35
0100
0000
0001
0000
,  // measure 36
1000
0000
0001
0000
,  // measure 37
0010
0000
0001
0000
,  // measure 38
1000
0001
1000
0000
,  // measure 39
0100
0000
0010
0000
,  // measure 40
0001
0010
0001
0000
,  // measure 41
0100
0000
0010
0000
,  // measure 42
1000
0001
1000
0000
,  // measure 43
0010
0000
1000
0000
,  // measure 44
0001
1000
0001
0000
,  // measure 45
0010
0000
0100
0000
,  // measure 46
1000
0100
1000
0000
,  // measure 47
0001
0000
1000
0000
,  // measure 48
0100
0010
0100
0000
,  // measure 49
1000
0000
0001
0000
,  // measure 50
0010
0001
0010
0000
,  // measure 51
0100
0000
1000
0000
,  // measure 52
0001
0000
1000
0000
,  // measure 53
0100
0000
0010
0000
,  // measure 54
0001
0000
0100
0000
,  // measure 55
0010
0000
1000
0000
,  // measure 56
0001
0000
0000
0000
;
