#TITLE:Plot Armor;
#SUBTITLE:;
#ARTIST:LADY'S ONLY;
#TITLETRANSLIT:;
#SUBTITLETRANSLIT:;
#ARTISTTRANSLIT:;
#GENRE:Bassline;
#CREDIT:;
#BANNER:Plot Armor-bn.png;
#BACKGROUND:Plot Armor-bg.png;
#LYRICSPATH:;
#CDTITLE:cdtitle.png;
#MUSIC:Plot Armor.ogg;
#OFFSET:-0.002000;
#SAMPLESTART:54.859001;
#SAMPLELENGTH:13.714000;
#SELECTABLE:YES;
#DISPLAYBPM:140.000000;
#BPMS:0.000000=140.000000
,31.000000=280.000000
,32.000000=140.000000
,128.000000=280.000000
,128.500000=140.000000
,128.750000=70.000000
,129.000000=140.000000
,144.000000=280.000000
,144.500000=140.000000
,144.750000=70.000000
,145.000000=140.000000
,160.000000=280.000000
,160.500000=140.000000
,160.750000=70.000000
,161.000000=140.000000
,176.000000=280.000000
,176.500000=140.000000
,176.750000=70.000000
,177.000000=140.000000
,192.000000=280.000000
,192.500000=140.000000
,192.750000=70.000000
,193.000000=140.000000
,208.000000=280.000000
,208.500000=140.000000
,208.750000=70.000000
,209.000000=140.000000
,224.000000=280.000000
,224.500000=140.000000
,240.000000=280.000000
,240.500000=140.000000
,240.750000=70.000000
,241.000000=140.000000
,287.000000=280.000000
,288.000000=140.000000
;
#STOPS:31.000000=0.027000,
31.125000=0.027000,
31.250000=0.027000,
31.375000=0.027000,
31.500000=0.027000,
31.625000=0.027000,
31.750000=0.027000,
31.875000=0.027000,
224.750000=0.054000,
224.875000=0.054000,
287.000000=0.027000,
287.125000=0.027000,
287.250000=0.027000,
287.375000=0.027000,
287.500000=0.027000,
287.625000=0.027000,
287.750000=0.027000,
287.875000=0.027000
;
#BGCHANGES:;
#KEYSOUNDS:;
#ATTACKS:;

//---------------dance-single - ----------------
#NOTES:
     dance-single:
     X-Scale 14:
     Hard:
     10:
     0.684113,0.806533,0.266444,0.475278,0.590497,665.000000,628.000000,37.000000,66.000000,21.000000,0.000000,0.684113,0.806533,0.266444,0.475278,0.590497,665.000000,628.000000,37.000000,66.000000,21.000000,0.000000:
0000
0000
0000
0000
,
0000
0000
0000
0000
,
0000
0000
0000
0000
,
0000
0000
0000
0000
,
2000
3000
0002
0010
0203
0000
0300
0000
,
1000
0000
0000
1000
0010
0100
0020
0000
,
0032
0003
0001
0010
0100
0010
2000
0000
,
3100
0000
0000
0000
0000
0000
0000
0000
0000
0000
0000
0000
0100
0000
0000
0000
0010
0000
0000
0000
0001
0000
0000
0000
4000
0000
0004
0000
0000
0000
0000
3003
,
1001
0000
0000
1000
0010
0000
1000
0000
0100
0000
0001
0000
0100
0000
1000
0000
,
0002
0000
0000
0000
1003
0000
0001
0000
0010
0000
0100
0000
2000
0000
0000
3010
,
1000
0000
0000
0100
0010
0000
0001
0100
0001
0000
1000
0000
0020
0000
0100
0000
,
0230
0000
0000
0000
1300
0000
0100
0000
0001
0000
0100
0000
0010
0000
1000
0010
,
1000
0000
0100
0010
0000
0000
0001
0100
0001
0000
1000
0000
0010
0M00
0010
0000
,
0001
0000
0000
1000
0100
0000
1000
0000
0010
0000
0100
0000
0020
0000
0000
0130
,
0010
0000
0100
0000
0001
0000
0010
0000
0100
1000
0000
0000
0001
0000
1000
0000
,
0100
0000
0010
0000
0001
0000
1000
0100
00M0
0100
0001
0000
1000
0000
1000
0010
,
1000
0000
0000
0100
0010
0000
0001
0000
1000
0000
0100
0000
0001
0000
0100
0000
,
2000
0000
0000
0000
3001
0000
0010
0000
0100
1000
0000
0000
0001
0000
0100
0001
,
0100
0000
0000
0010
0100
0000
0001
0000
1000
0000
0010
0000
0100
0000
0010
0000
,
2000
0000
0000
0000
3001
0000
1000
0100
00M0
0100
0001
0000
1000
0000
0010
0100
,
0010
0000
1000
0001
0000
0000
0010
0000
0001
0000
1000
0000
0010
0M00
0010
0000
,
0001
0000
0000
0100
0010
0000
1000
0000
0001
0000
0010
0000
0100
0000
0000
1000
,
0100
0000
1000
0000
0001
0000
0100
0000
0010
0100
0000
0000
0001
0000
1000
0000
,
0001
0000
0000
0010
0000
0000
0001
0100
00M0
0100
1000
0000
0001
0000
4000
3000
,
1001
1000
0001
1000
0001
1000
0001
1000
,
0100
0010
0100
0010
0100
0010
0100
0010
,
0001
0100
0001
0100
0001
0100
0001
0100
,
0020
0030
1000
1000
0020
0030
1000
1000
,
0001
0100
0010
1000
0001
0100
0010
1000
,
0100
0010
0001
1000
0100
0010
0001
1000
,
0001
1000
0001
1000
0001
1000
0001
1000
0010
0100
0010
0100
0010
0100
0010
0100
,
0004
0040
0000
0000
0000
0000
0000
0033
0011
0000
0000
0000
1000
0000
0001
0000
,
2002
0000
0000
3003
1000
0010
0000
1000
0010
0000
0100
0000
0010
0000
0100
0000
,
0001
0000
0010
0000
1000
0000
0100
0000
0001
0100
0010
1000
0100
0010
0001
0000
,
0011
0000
0000
1000
0010
1000
0001
0000
1001
0000
0000
0010
1000
0001
0010
0000
,
0011
0000
0000
0001
0010
0100
1000
0000
1100
0000
0000
1000
0001
1000
0001
1000
,
2002
0000
0000
3003
1000
0001
0000
0100
0001
0000
0100
0000
1000
0000
0100
0000
,
0001
0000
0100
0000
0010
0000
0100
0000
0001
0100
0010
1000
0100
0010
0001
0000
,
0011
0000
0000
1000
0100
0010
0100
1000
0100
0000
0000
0010
0001
1000
0001
0010
,
0011
0000
0000
1001
0000
0000
1010
0000
1010
0000
0001
0000
0010
0000
0100
1000
,
2200
0000
0000
3300
1100
0100
0000
1000
0001
0000
1000
0000
0001
0000
0010
0M00
,
0010
0000
1000
0000
0100
00M0
0100
0000
0001
0100
0010
1000
0100
0010
0001
0000
,
1001
0000
0000
0001
1000
0100
1000
0000
1100
0000
0000
0100
0010
0001
1000
0000
,
1001
0000
0000
1000
0010
0100
0001
0000
0101
0000
0000
0001
1000
0010
1000
0001
,
2002
0000
0000
3003
1001
0001
0000
1000
0100
0000
1000
0000
0010
0M00
0010
0000
,
0001
0000
1000
0000
0100
00M0
0100
0000
0001
0100
0010
1000
0100
0010
0001
0000
,
1001
0000
0000
0001
1000
0001
0100
0000
1010
0000
0000
1000
0001
1000
0010
0000
,
0011
0000
0000
0000
0001
0000
0000
0000
4000
0000
0004
0000
0000
0000
0003
3000
M000
0000
0M00
0000
1000
0000
0000
0000
001M
0000
0100
0000
M010
0000
0000
0000
,
0220
0000
0000
0330
0110
0000
0100
0010
0000
0010
0100
0010
1000
0100
0010
0000
,
0002
0000
0000
0003
1001
0000
1000
0000
0010
0000
0100
0010
0100
0000
0001
0100
,
0002
0000
0000
0000
1003
0000
0100
1000
0000
1000
0100
0000
0010
0001
1000
0000
,
0010
0M00
0010
0000
0002
0000
0000
0000
1003
0010
0100
0010
1000
0000
0001
0010
,
0022
0000
0000
0033
0011
0000
0001
0100
0000
0100
0001
1000
0100
0010
0001
0000
,
1000
0000
0001
0000
1000
0000
0100
0010
0001
1000
0001
0100
0010
1000
0001
0000
,
0020
0000
0000
0000
0130
0000
0010
0001
0000
0001
1000
0000
0010
1000
0001
0000
,
1000
0000
0000
1000
0100
0000
1000
0000
0001
0000
0000
0001
0010
0000
0001
0000
,
2002
0000
0000
0000
3003
0000
M000
000M
1001
0000
0000
0000
1000
0000
0100
0000
00M0
0000
0100
0000
0001
0000
1000
0000
0001
0000
0010
0000
0100
0000
1000
0000
,
0002
0000
0010
0000
0013
0000
0100
1000
0000
0001
1000
0100
1000
0000
0001
0100
,
0002
0000
0000
0000
0013
0000
0001
0100
00M0
0100
1000
0000
0010
0100
0010
0000
,
1000
0000
0100
00M0
0100
0000
0001
0010
0001
1000
0001
0000
0010
0100
1000
0000
,
2200
0000
0000
3300
1100
0000
0010
1000
0000
1000
0001
1000
0100
0010
0001
0000
,
2000
0000
0010
0000
3010
0000
1000
0000
0100
0000
0010
0001
1000
0001
0010
0000
,
0200
0000
1000
0000
1300
0000
0100
1000
0000
1000
0010
0000
0100
0000
0001
0000
,
1000
0001
1000
0001
1000
0001
1000
0001
4000
0004
0000
0000
0000
0000
0000
3003
,
1001
0000
2000
0000
3020
0000
0130
0010
,
1000
0000
0000
0000
0001
0000
0010
0000
0100
0000
0010
0000
0001
0000
1000
0001
,
1000
0000
0000
0000
0001
0000
0100
00M0
0100
0000
1000
0000
0002
0000
0000
0000
,
0013
0000
0000
0000
0100
0000
0010
0000
0001
0000
1000
0000
0001
0000
1000
0001
,
1000
0000
0200
0000
2300
0000
3001
1000
,
0010
0000
0000
0000
1000
0000
0001
0000
0100
0000
0001
0000
1000
0000
0001
1000
,
0001
0000
0000
0000
1000
0000
0010
0M00
0010
0000
0001
0000
1000
0000
0000
0000
,
0010
0000
0000
0000
0000
0000
0000
0000
1000
0000
0000
0000
0100
0000
0000
0000
0001
0000
0000
0000
0100
0000
0000
0000
4000
0000
0400
0000
0000
0000
0000
3300
,
2100
0000
0000
0000
3000
0000
0002
0000
0003
2000
0000
3000
0002
0000
0003
0000
,
0020
0000
0000
0130
0010
0001
2000
0000
,
3020
0000
0000
0000
0030
0000
0200
0000
0300
0020
0000
0030
2000
0000
3100
0000
,
0020
0000
0000
0000
0000
0000
0031
0000
0010
0000
0100
0000
0100
0000
1000
0100
,
2000
0000
0000
0000
3000
0000
0002
0000
0003
0200
0000
0300
0002
0000
0003
0000
,
0020
0000
0000
0130
0010
0001
2000
0000
,
3002
0000
1003
0100
0100
0010
0001
0000
,
1001
0000
0000
0000
0000
0000
0000
0000
2000
3200
0300
0000
2000
0000
3002
0000
,
0003
0000
0000
0000
;

//---------------dance-single - ----------------
#NOTES:
     dance-single:
     X-Scale 12:
     Medium:
     8:
     0.546261,0.632714,0.180030,0.208834,0.187231,531.000000,506.000000,25.000000,29.000000,0.000000,0.000000,0.546261,0.632714,0.180030,0.208834,0.187231,531.000000,506.000000,25.000000,29.000000,0.000000,0.000000:
0000
0000
0000
0000
,
0000
0000
0000
0000
,
0000
0000
0000
0000
,
0000
0000
0000
0000
,
2000
3000
0002
0000
0023
0000
0030
0000
,
0100
0000
0000
0100
1000
0001
0200
0000
,
0320
0030
1000
0100
1000
0100
0020
0000
,
0031
0000
0000
0001
0100
0010
0200
0000
,
0301
0000
0000
0100
0000
0000
0001
0000
0010
0000
1000
0000
0010
0000
0001
0000
,
2000
0000
3000
0010
0100
0010
2000
0000
,
3001
0000
0000
0010
0000
0000
0001
0000
0100
0000
0010
0000
0100
0000
0001
0000
,
2000
0000
3000
0100
0010
0001
1000
0001
,
0010
0000
0100
1000
0000
0000
0001
0000
0100
0000
0010
0000
0001
0000
0010
0000
,
0100
0000
0000
0001
0000
0000
1000
0000
0100
0000
0010
0000
0001
0000
0000
1000
,
0001
0000
0100
0000
0010
0000
0100
0000
0000
0001
0000
0000
1000
0000
0000
0000
,
0100
0000
0000
0010
0000
0000
0001
0000
1000
0000
0000
0000
0001
0000
0100
0000
,
0001
0000
0000
0010
0000
0000
0100
0000
0010
0000
0001
0000
1000
0000
0001
0000
,
0200
0000
0300
0010
0100
0001
2000
0000
,
3100
0000
0000
0010
0000
0000
0001
0000
1000
0000
0010
0000
0100
0000
0010
0000
,
2000
0000
3000
0001
0100
1000
0100
0001
,
0010
0000
0100
1000
0000
0000
0001
0000
0100
0000
0010
0000
0001
0000
0010
0000
,
0100
0000
0000
0001
0000
0000
1000
0000
0100
0000
0010
0000
0001
0000
0000
1000
,
0001
0000
0010
0000
0100
0000
1000
0000
0000
0001
0000
0000
1000
0000
0000
0000
,
0010
0000
0000
0100
0000
0000
0001
0000
0010
0000
0000
0000
0100
0000
1000
0000
,
1001
0000
0001
0010
0100
0000
0010
0100
,
1000
0000
0001
0100
0010
0000
0100
0010
,
1000
0000
0001
0010
0100
0000
0010
0100
,
1000
0000
0001
1000
0001
0000
1000
0001
,
1000
0100
1000
0100
0010
0001
0010
0001
,
0100
0010
0100
0010
1000
0001
1000
0001
,
0010
0100
0010
0100
1000
0010
1000
0010
,
0100
0000
0001
0010
1000
0000
0001
0100
,
1100
0000
0000
0000
1000
0000
0000
0000
0001
0010
0100
0000
1000
0000
0000
0000
,
0001
0010
0100
0000
1000
0000
0000
0000
0001
0010
0100
0000
1000
0000
0000
0000
,
1001
0000
0000
1000
0000
0100
0010
0000
0011
0000
0000
0001
0000
0100
0010
0000
,
0101
0000
0000
0001
0000
1000
0100
0000
1100
0000
0000
0001
0000
1000
0010
0000
,
1001
0000
0000
0000
1000
0000
0000
0000
0010
0100
0001
0000
1000
0000
0000
0000
,
0010
0100
0001
0000
1000
0000
0000
0000
0010
0100
0001
0000
1000
0000
0000
0000
,
1001
0000
0000
0100
0000
1000
0001
0000
0011
0000
0000
0000
0001
1000
0001
1000
,
0001
0000
0000
0010
0000
0000
0100
0000
1000
0000
0001
0000
1000
0000
0100
0000
,
1100
0000
0000
0000
0001
1000
0001
0000
1000
0000
0100
0000
0001
0000
0100
0000
,
1000
0000
0100
0000
0001
0000
0100
0000
1000
0001
1000
0001
1000
0010
1000
0010
,
1000
0000
0100
0010
0101
0000
0001
1000
,
1001
0000
0100
0010
0101
0000
0001
1000
,
1001
0000
0000
0000
1000
0100
1000
0000
0001
0000
0100
0000
1000
0000
0100
0000
,
0001
0000
0100
0000
1000
0000
0100
0000
0001
0010
0001
0010
0001
1000
0001
1000
,
0001
0000
0010
0100
1010
0000
1000
0001
,
1001
0000
0000
0000
1000
0000
0100
0000
1010
1000
0000
0000
0001
0000
1000
0000
,
1001
0000
0000
0000
1000
0000
0001
0000
1000
0000
0001
0000
0010
0100
1000
0000
,
0002
0000
0103
0010
0100
1000
0100
0010
,
0200
0000
0000
0000
0301
0000
0100
0000
1000
0000
0100
0000
0001
0010
0100
0000
,
1000
1000
2000
0000
3001
0010
0100
1000
,
1100
0000
1001
0000
0001
0100
0001
0100
,
0020
0000
1030
0100
0001
0100
0010
0001
,
0021
0000
0130
0010
0001
1000
0001
0010
,
0100
0000
0000
1000
0000
0000
0100
0000
1000
0000
0001
0000
0010
0000
0001
0000
,
0011
0000
1001
1000
0001
0100
0001
1000
,
0200
0000
0310
0010
0100
1000
0001
1000
,
0020
0000
0000
0000
0130
0000
0010
0000
1000
0000
0001
0000
0010
0100
0010
0000
,
0001
0000
0001
0000
2000
0000
0000
0000
3100
0000
0010
0100
0010
0000
0001
0000
,
2000
0000
3001
0100
0010
1000
0100
0010
,
0002
0000
0000
0000
0013
0000
0010
0000
0100
0000
1000
0000
0001
1000
0001
0000
,
0010
0100
0010
0100
1000
0001
1000
0001
,
0010
0000
0000
0100
0000
0000
0010
0000
0001
0000
0000
0000
1000
0000
0001
0000
,
1001
0000
1000
0100
0010
0000
0100
0010
,
0001
0000
1000
0010
0100
0010
1000
0000
,
0001
0000
0100
0010
0010
1000
0001
0000
,
0010
0000
0100
0010
0001
1000
0001
0000
,
0010
0000
0100
0010
0001
0000
1000
0001
,
0100
0000
0010
0100
0001
1000
0001
0000
,
0010
0000
0100
1000
1000
0001
0100
0000
,
0010
0000
1000
0100
0010
0100
2000
0000
,
3001
0020
0230
1300
,
0001
0000
0000
0100
0010
0100
0002
0000
,
0013
0000
0100
0010
0010
0001
1000
0000
,
0010
0000
0000
1000
0001
1000
0010
0000
,
0100
0002
0023
0130
,
0010
0000
0000
0001
1000
0001
0100
0000
,
0010
0000
1000
0100
0100
0010
0001
0000
,
0011
0000
0000
0000
0000
0000
0000
0000
0001
0010
0000
0000
0001
0000
1000
0000
;

//---------------dance-single - ----------------
#NOTES:
     dance-single:
     X-Scale 7:
     Easy:
     5:
     0.439272,0.518485,0.237639,0.266444,0.028805,427.000000,394.000000,33.000000,37.000000,0.000000,0.000000,0.439272,0.518485,0.237639,0.266444,0.028805,427.000000,394.000000,33.000000,37.000000,0.000000,0.000000:
// measure 0
0000
0000
0000
0000
,  // measure 1
0000
0000
0000
0000
,  // measure 2
0000
0000
0000
0000
,  // measure 3
0000
0000
0000
0000
,  // measure 4
0001
0000
0000
0010
0000
0000
0000
0000
,  // measure 5
0100
0000
0000
0010
0000
0000
0000
0000
,  // measure 6
0001
0000
0000
0010
0000
0000
0100
0000
,  // measure 7
1000
0000
0000
0010
0000
0000
0000
0000
,  // measure 8
1001
0000
0000
0200
0000
0000
0010
0000
,  // measure 9
0302
0000
0000
0000
0003
0000
1000
0000
0000
0100
0000
0000
1000
0000
0000
0000
,  // measure 10
0010
0000
0000
0200
0000
0000
0010
0000
,  // measure 11
0301
0000
0000
0000
0100
0000
0010
0000
0000
0100
0000
0000
0001
0000
1000
0000
,  // measure 12
0001
0000
0000
0020
0000
0000
0100
0100
,  // measure 13
0130
0000
0010
0001
0100
0001
2000
0000
,  // measure 14
3010
0000
1000
0000
0001
0000
0020
0000
0000
0100
0000
0000
0100
0000
0000
0000
,  // measure 15
0031
0000
0000
0000
1000
0000
0010
0000
0000
1000
0000
0000
0001
0000
0010
0000
,  // measure 16
0101
0000
0010
0002
0000
0000
1000
0000
,  // measure 17
0013
0000
0000
0010
0100
0010
0100
0000
,  // measure 18
1000
0000
0100
0020
0000
0000
0100
0000
,  // measure 19
0031
0000
0000
1000
0010
1000
0001
0010
,  // measure 20
0100
0000
1000
0001
0010
1000
0100
0001
,  // measure 21
1000
0000
0010
0100
0001
0100
0010
0000
,  // measure 22
1000
0000
0100
0000
0010
0000
0001
0000
0000
0010
0000
0000
0001
0000
0000
0000
,  // measure 23
0010
0000
0000
0100
0000
0000
2000
0000
0001
0000
0000
0000
0010
0000
0000
0000
,  // measure 24
3001
1000
0001
1000
,  // measure 25
1001
0100
0001
0100
,  // measure 26
0101
0010
0100
0010
,  // measure 27
0110
1000
0001
1000
,  // measure 28
0110
0000
0100
0010
0100
0000
0001
0010
,  // measure 29
0001
0000
1000
0100
1000
0000
0010
0100
,  // measure 30
0010
0000
1000
0001
1000
0000
0010
0100
,  // measure 31
0010
1000
1010
0001
,  // measure 32
0011
0000
0011
0000
0010
0100
0010
0000
,  // measure 33
0100
0010
0100
0000
0010
0100
0010
0000
,  // measure 34
0101
0001
1001
1000
,  // measure 35
1100
0100
1010
0010
,  // measure 36
0110
0000
0110
0000
1000
0001
1000
0000
,  // measure 37
0001
1000
0001
0000
1000
0001
1000
0000
,  // measure 38
1001
0100
1010
1000
,  // measure 39
1001
0000
0000
0001
0000
0000
0010
0000
0001
0000
1000
0000
0001
0000
0000
0000
,  // measure 40
0011
0000
0011
0000
0100
0001
1000
0010
,  // measure 41
0100
0010
1000
0100
0010
0001
0100
0010
,  // measure 42
1001
0000
0100
0010
0110
0000
1000
0100
,  // measure 43
1100
0000
0001
0100
0101
0000
0010
0100
,  // measure 44
0110
0000
0110
0000
1000
0001
0010
0100
,  // measure 45
0010
0001
1000
0010
0100
0010
1000
0100
,  // measure 46
1010
0000
0001
0010
0011
0000
0010
0100
,  // measure 47
0110
0010
0100
0010
0100
0000
0000
0000
,  // measure 48
1100
0000
0100
0000
1000
0100
0010
0100
,  // measure 49
2000
0000
3001
0100
0010
0100
0001
0010
,  // measure 50
0200
0000
1300
0000
0001
0100
1000
0100
,  // measure 51
0001
0001
0002
0000
0013
0100
1000
0001
,  // measure 52
0010
0000
0001
0000
0100
0010
0001
0010
,  // measure 53
0200
0000
0301
1000
0100
1000
0001
0100
,  // measure 54
0020
0000
0130
0000
0001
0010
0100
0010
,  // measure 55
0001
0000
0100
0100
0001
0000
0100
0100
,  // measure 56
0001
0000
1001
1000
0100
0000
0010
0100
,  // measure 57
2000
0000
3001
0100
0010
0000
0100
0010
,  // measure 58
2000
0000
3001
0010
0100
0000
0010
0001
,  // measure 59
1000
1000
2000
0100
3100
0000
0010
0001
,  // measure 60
1000
0000
0001
0010
0100
0000
0010
0100
,  // measure 61
2000
0000
3001
1000
0010
0000
0100
0010
,  // measure 62
2000
0000
3001
0010
0100
0000
0010
0001
,  // measure 63
1000
0000
0000
0010
0000
0000
1000
0000
0001
0000
0000
0000
0010
0000
0100
0000
,  // measure 64
0110
0020
0032
1003
,  // measure 65
0020
0000
0000
0100
0130
0010
0100
0000
,  // measure 66
0001
0000
0010
0100
0100
0010
0001
0000
,  // measure 67
2000
0000
0000
0010
3010
1000
0010
0000
,  // measure 68
0100
0002
0023
0130
,  // measure 69
2000
0000
0000
0001
3001
1000
0001
0000
,  // measure 70
0100
0000
0010
1000
1000
0100
0010
0000
,  // measure 71
0002
0000
0000
0000
0013
0001
0020
0000
,  // measure 72
0130
0020
0032
0013
,  // measure 73
0000
0000
0010
0100
1000
0001
2000
0000
,  // measure 74
3100
0000
0010
0001
0001
1000
0001
0000
,  // measure 75
0000
0000
0010
0100
0010
0100
2000
0000
,  // measure 76
3010
0200
0320
1030
,  // measure 77
0000
0000
0001
0010
1000
0010
0002
0000
,  // measure 78
0103
0000
0010
1000
1000
0100
0010
0000
,  // measure 79
0022
0000
0000
0000
,  // measure 80
0033
0000
0000
0000
;

//---------------dance-single - ----------------
#NOTES:
     dance-single:
     X-Scale 3:
     Beginner:
     3:
     0.180030,0.284447,0.187231,0.014402,0.000000,175.000000,149.000000,26.000000,2.000000,0.000000,0.000000,0.180030,0.284447,0.187231,0.014402,0.000000,175.000000,149.000000,26.000000,2.000000,0.000000,0.000000:
// measure 0
0000
0000
0000
0000
,  // measure 1
0000
0000
0000
0000
,  // measure 2
0000
0000
0000
0000
,  // measure 3
0000
0000
0000
0000
,  // measure 4
1000
0000
0000
0000
,  // measure 5
0100
0000
0000
0000
,  // measure 6
0010
0000
0000
0000
,  // measure 7
0001
0000
0000
0000
,  // measure 8
1001
0000
0000
0000
,  // measure 9
0001
0000
0000
0000
,  // measure 10
0010
0000
0000
0000
,  // measure 11
0100
0000
0000
0000
,  // measure 12
1100
0000
0000
0000
,  // measure 13
0001
0000
0000
0000
,  // measure 14
1000
0000
0000
0000
,  // measure 15
0100
0000
0000
0000
,  // measure 16
0110
0000
0010
0000
,  // measure 17
0001
0000
1000
0000
,  // measure 18
0001
0000
0010
0000
,  // measure 19
0100
0000
0010
0000
,  // measure 20
0001
0000
1000
0000
,  // measure 21
0010
0000
1000
0000
,  // measure 22
0001
0000
0100
0000
,  // measure 23
0010
0000
0100
0000
,  // measure 24
0110
0000
0000
0000
,  // measure 25
1000
0000
0000
0000
,  // measure 26
0001
0000
0000
0000
,  // measure 27
1000
0000
1000
0000
,  // measure 28
1100
0000
0100
0000
,  // measure 29
0010
0000
0001
0000
,  // measure 30
0100
0000
0010
0000
,  // measure 31
1000
0000
0001
0000
,  // measure 32
1001
0000
1000
0000
,  // measure 33
0001
0000
1000
0000
,  // measure 34
1001
0000
0110
0000
,  // measure 35
1001
0000
0110
0000
,  // measure 36
1001
0000
0001
0000
,  // measure 37
0010
0000
0001
0000
,  // measure 38
0110
0000
1001
0000
,  // measure 39
0110
0000
0100
0001
,  // measure 40
0101
0000
0001
0000
,  // measure 41
1000
0000
0001
0000
,  // measure 42
1001
0000
0110
0000
,  // measure 43
1001
0000
0110
0000
,  // measure 44
1001
0000
1000
0000
,  // measure 45
0001
0000
1000
0000
,  // measure 46
0110
0000
1001
0000
,  // measure 47
0110
0010
0100
0000
,  // measure 48
0110
0000
1000
0000
,  // measure 49
0100
0000
0010
0000
,  // measure 50
0001
0000
1000
0000
,  // measure 51
0010
0000
0100
0000
,  // measure 52
0001
0000
0010
0000
,  // measure 53
0100
0000
0010
0000
,  // measure 54
0001
0000
1000
0000
,  // measure 55
0001
0000
0001
0000
,  // measure 56
1001
1000
0100
1000
,  // measure 57
0100
0010
0001
0010
,  // measure 58
0001
0100
0010
0100
,  // measure 59
0010
1000
0001
1000
,  // measure 60
0001
0100
0001
0100
,  // measure 61
0001
0010
0100
0010
,  // measure 62
0100
1000
0100
1000
,  // measure 63
0200
0000
0020
0000
,  // measure 64
0330
0010
0100
0010
,  // measure 65
0000
0001
0000
1000
,  // measure 66
0000
0001
0100
0001
,  // measure 67
0000
1000
0000
0100
,  // measure 68
0000
0010
0100
0010
,  // measure 69
0000
0001
0000
1000
,  // measure 70
0000
0010
0100
0010
,  // measure 71
0000
1000
0000
0001
,  // measure 72
1001
0000
0000
0000
,  // measure 73
0001
0000
0000
0000
,  // measure 74
1000
0000
0000
0000
,  // measure 75
0010
0000
0000
0000
,  // measure 76
0100
0000
0000
0000
,  // measure 77
0001
0000
0000
0000
,  // measure 78
0010
0000
0000
0000
,  // measure 79
0100
0000
0000
0000
;
