#VERSION:0.83;
#TITLE:Play That Demo;
#SUBTITLE:;
#ARTIST:Bruce Greene;
#TITLETRANSLIT:;
#SUBTITLETRANSLIT:;
#ARTISTTRANSLIT:;
#GENRE:Rock;
#ORIGIN:;
#CREDIT:;
#BANNER:ptd-bn.png;
#BACKGROUND:ptd-bg.png;
#PREVIEWVID:;
#JACKET:ptd-jacket.png;
#CDIMAGE:;
#DISCIMAGE:;
#LYRICSPATH:;
#CDTITLE:cdtitle.png;
#MUSIC:play that demo.ogg;
#OFFSET:-0.005000;
#SAMPLESTART:50.533001;
#SAMPLELENGTH:12.000000;
#SELECTABLE:YES;
#BPMS:0.000=75.912;
#STOPS:;
#DELAYS:;
#WARPS:;
#TIMESIGNATURES:0.000=4=4;
#TICKCOUNTS:0.000=4;
#COMBOS:0.000=1;
#SPEEDS:0.000=1.000=0.000=0;
#SCROLLS:0.000=1.000;
#FAKES:;
#LABELS:0.000=Song Start;
#BGCHANGES:0.000=play that demo.avi=1.000=1=0=0=StretchNoLoop==CrossFade==,
99999=-nosongbg-=1.000=0=0=0 // don't automatically add -songbackground-
;
#KEYSOUNDS:;
#ATTACKS:
;

//---------------dance-single - oh snap----------------
#NOTEDATA:;
#CHARTNAME:X-Scale 5;
#STEPSTYPE:dance-single;
#DESCRIPTION:oh snap;
#CHARTSTYLE:;
#DIFFICULTY:Easy;
#METER:3;
#RADARVALUES:0.249810,0.284336,0.077876,0.594690,0.046018,247.000000,236.000000,11.000000,84.000000,0.000000,0.000000,0.000000,0.000000,0.000000,0.249810,0.284336,0.077876,0.594690,0.046018,247.000000,236.000000,11.000000,84.000000,0.000000,0.000000,0.000000,0.000000,0.000000;
#CREDIT:;
#NOTES:
// measure 0
0000
0000
0000
0000
,  // measure 1
0000
0000
0000
0000
,  // measure 2
0000
0000
0000
0000
,  // measure 3
0000
0000
0000
0000
,  // measure 4
0101
0000
1000
0002
0000
0023
0031
0020
,  // measure 5
0130
0000
1000
0002
0000
0203
0310
0200
,  // measure 6
0301
0000
1000
0200
0000
0320
0031
0020
,  // measure 7
0130
0000
1000
0002
0000
0000
0000
0003
,  // measure 8
1001
0000
1000
0020
0000
0230
0301
0200
,  // measure 9
0310
0000
1000
0002
0000
2003
3100
2000
,  // measure 10
3001
0000
0010
0200
0000
2300
3001
2000
,  // measure 11
3010
0000
0100
0002
0000
2003
3100
2000
,  // measure 12
3010
0000
0100
0002
0000
2003
3100
2000
,  // measure 13
3010
0000
0100
0002
0000
0023
0130
0020
,  // measure 14
0031
0000
1000
0020
0000
0230
0301
0200
,  // measure 15
0310
0000
1000
0200
0000
2300
3001
2000
,  // measure 16
3100
0011
1100
1001
,  // measure 17
0101
0100
0010
2000
0000
3100
0020
0000
,  // measure 18
0031
0000
1001
2000
0100
0000
3010
0100
,  // measure 19
0102
0000
1003
0200
0000
0010
0000
1000
,  // measure 20
1300
0100
1000
0000
0001
0100
0001
0000
,  // measure 21
0010
0100
1000
0002
0000
0103
0020
0000
,  // measure 22
1030
0000
1001
0002
0000
0000
0103
0010
,  // measure 23
2000
0000
3001
0200
0000
0000
0000
0300
,  // measure 24
0110
0000
0100
0002
0000
2003
3100
2000
,  // measure 25
3001
0000
0010
0200
0000
2300
3001
2000
,  // measure 26
3010
0000
0000
0000
0100
0000
0000
0000
0001
0000
0000
0000
1000
0000
0000
0200
0000
0000
0000
0000
0000
0000
0300
0000
1000
0000
0100
0000
0010
0000
0000
0000
,  // measure 27
0100
0010
0001
0000
1000
0000
0002
0000
0000
0000
0000
0000
0000
0000
0003
0000
,  // measure 28
1001
0000
0000
1000
0100
0000
2000
0000
0000
0000
0000
0000
3000
0000
0001
0000
,  // measure 29
0010
0000
0100
0000
1000
0000
0001
0000
0100
0000
0010
0000
1000
0020
0000
0000
,  // measure 30
0130
0000
0001
0100
0001
0000
2000
0000
0000
0000
3200
0000
0310
0000
0200
0000
,  // measure 31
1300
0000
0001
0100
0001
0000
0020
0000
0000
0000
0230
0000
1300
0000
0200
0000
,  // measure 32
0310
0010
0002
0000
1003
1000
0200
0000
,  // measure 33
0310
0000
0001
0000
1000
0000
0002
0000
0000
0000
0103
0001
0200
0000
0000
0000
,  // measure 34
0310
0010
2000
0000
3001
0001
0020
0000
,  // measure 35
0230
0000
1000
2000
0000
3000
0010
0310
,  // measure 36
0100
0100
2000
0000
3001
0001
0020
0000
,  // measure 37
0130
0000
0010
0000
0001
0000
2000
0000
0000
0000
3001
1000
0002
0000
0000
0000
,  // measure 38
0103
0000
0010
1000
0001
1000
0100
0010
,  // measure 39
0002
0000
0103
0020
0000
0000
0000
0000
,  // measure 40
1000
0000
0030
0000
0010
0100
0020
0000
0000
0000
2030
0000
3001
0000
2000
0000
,  // measure 41
3100
0000
0000
0000
0010
0001
0020
0000
0000
0000
0230
0000
1300
0000
0200
0000
,  // measure 42
0310
0000
0000
0000
0001
0100
0002
0000
0000
0000
2003
0000
3010
0000
2000
0000
,  // measure 43
3100
0000
0000
0000
1000
0001
2000
0000
0000
0000
0000
0000
0000
0000
0000
0000
,  // measure 44
0000
0000
0000
0000
0000
3000
0000
0000
;

//---------------dance-single - PLAY THAT DEMO~ WHOA-OH-OAH!----------------
#NOTEDATA:;
#CHARTNAME:X-Scale 8;
#STEPSTYPE:dance-single;
#DESCRIPTION:PLAY THAT DEMO~ WHOA-OH-OAH!;
#CHARTSTYLE:;
#DIFFICULTY:Medium;
#METER:6;
#RADARVALUES:0.337800,0.379115,0.191150,0.176991,0.095575,334.000000,307.000000,27.000000,25.000000,0.000000,0.000000,0.000000,0.000000,0.000000,0.337800,0.379115,0.191150,0.176991,0.095575,334.000000,307.000000,27.000000,25.000000,0.000000,0.000000,0.000000,0.000000,0.000000;
#CREDIT:;
#NOTES:
// measure 0
0000
0000
0000
0000
,  // measure 1
0000
0000
0000
0000
,  // measure 2
0000
0000
0000
0000
,  // measure 3
0000
0000
0000
0000
,  // measure 4
1001
0000
1000
0000
0001
0010
0001
0000
0010
0000
0100
0000
1000
0000
0100
0010
,  // measure 5
0001
0000
0100
0000
0010
0000
0100
0000
0001
0000
0010
0000
0100
0010
0100
0000
,  // measure 6
1000
0000
0001
0000
0010
0001
0010
0000
0100
0000
0010
0000
0001
0000
1000
0100
,  // measure 7
0010
0100
1000
0002
0000
0000
0000
0000
,  // measure 8
0013
0001
1000
0010
0001
0010
0100
0001
,  // measure 9
1000
0100
1000
0010
1000
0100
0010
0001
,  // measure 10
0100
0010
0100
0001
0010
0100
1000
0010
,  // measure 11
1000
0100
0001
0100
0010
0001
1000
0001
,  // measure 12
1000
0100
1000
0200
0000
0301
0100
1000
,  // measure 13
0010
0100
0001
0020
0000
1030
0010
0001
,  // measure 14
0010
0000
0001
0000
1000
0001
1000
0000
0100
0000
0001
0000
0100
0000
1000
0000
,  // measure 15
0010
0000
0100
0000
0001
0100
0001
0000
0010
0000
0100
0000
0010
0000
0001
0000
,  // measure 16
0011
0010
0001
1000
1100
0100
0010
0001
,  // measure 17
1001
1000
0010
0020
0000
0230
0320
0030
,  // measure 18
0110
0100
0101
0002
0010
0013
0001
0100
,  // measure 19
0101
0000
0001
0000
1000
0000
0200
0000
0000
0000
0010
0000
0010
0000
0000
0300
,  // measure 20
1100
1000
0001
0100
0101
0001
0010
0100
,  // measure 21
0110
0010
0001
2000
0100
3200
2300
3000
,  // measure 22
1010
0010
0100
0002
0010
0013
0001
1000
,  // measure 23
1100
0000
0100
0000
0010
0000
0002
0000
0000
0000
0000
0000
0000
0000
0000
0003
,  // measure 24
0011
0000
0001
0010
0001
0000
0100
0000
1000
0000
0100
0000
0010
0000
1000
0000
,  // measure 25
0100
0000
1000
0000
0001
1000
0001
0000
0010
0000
0100
0000
0010
0001
0010
0001
,  // measure 26
0010
0000
0001
0000
0100
0000
0010
0000
1000
0000
0100
0000
0010
0001
0010
0000
,  // measure 27
0010
0100
0010
0000
0010
0000
0002
0000
0000
0000
0000
0000
0000
0000
0000
0000
,  // measure 28
1003
0000
0000
0001
1000
0000
0200
0000
0000
0000
0010
0000
0310
0000
0100
0000
,  // measure 29
1000
0000
0001
0000
0100
0000
1000
0000
0100
0000
0001
0000
0010
0002
0000
0000
,  // measure 30
1003
0000
0100
0010
0001
0000
0200
0000
0000
0000
0010
0000
0310
0100
0001
0000
,  // measure 31
1000
0001
1000
0000
0100
0000
1000
0000
0010
0000
0100
0010
0100
0000
0100
0000
,  // measure 32
0101
0001
1000
0100
1100
0100
0010
0001
,  // measure 33
0101
0000
0100
0000
0010
0000
2000
0000
0000
0000
3100
1000
0200
0000
0010
0300
,  // measure 34
0110
0100
1000
0001
1001
0001
0010
0100
,  // measure 35
0101
0000
0000
0001
0010
0000
0001
0000
0000
0000
1000
0000
1000
0000
0100
0000
,  // measure 36
1100
0101
1100
1000
1001
0110
1001
0001
,  // measure 37
0011
0000
0010
0000
0100
0000
2000
0000
0000
0000
3100
0010
0002
0000
0000
0003
,  // measure 38
0011
0000
0100
0001
0100
0000
0020
0000
0001
0000
0100
0000
1030
0000
0010
0000
,  // measure 39
1000
0000
0100
0010
0100
0000
0200
0000
0000
0000
0000
0000
0000
0000
0000
0000
,  // measure 40
1000
0000
0300
0000
1000
0000
0100
0000
0000
0000
1000
0000
0010
0000
0100
0001
,  // measure 41
0100
0001
1000
0020
0000
0130
0010
1000
,  // measure 42
0001
0000
0001
0000
0100
0010
0100
0000
0000
0000
0001
0000
1000
0000
0100
0010
,  // measure 43
0100
1000
0001
2000
0000
0000
0000
0000
,  // measure 44
0000
0000
0000
0000
0000
3000
0000
0000
;

//---------------dance-single - this disk that snap a disk----------------
#NOTEDATA:;
#CHARTNAME:X-Scale 10;
#STEPSTYPE:dance-single;
#DESCRIPTION:this disk that snap a disk;
#CHARTSTYLE:;
#DIFFICULTY:Hard;
#METER:7;
#RADARVALUES:0.409608,0.426504,0.382301,0.219469,0.261947,405.000000,351.000000,54.000000,31.000000,0.000000,0.000000,0.000000,0.000000,0.000000,0.409608,0.426504,0.382301,0.219469,0.261947,405.000000,351.000000,54.000000,31.000000,0.000000,0.000000,0.000000,0.000000,0.000000;
#CREDIT:;
#NOTES:
// measure 0
0000
0000
0000
0000
,  // measure 1
0000
0000
0000
0000
,  // measure 2
0000
0000
0000
0000
,  // measure 3
0000
0000
0000
0000
0000
0000
0000
1000
,  // measure 4
1100
0000
0000
0100
1000
0100
1000
0000
0000
0000
0001
0000
0100
0010
0100
0010
,  // measure 5
0100
0000
0000
0001
1000
0001
1000
0000
0000
0000
0100
0000
0010
0000
0100
0000
,  // measure 6
0110
0000
0000
0010
0001
0010
0001
0000
0000
0000
0001
0000
1000
0010
1000
0010
,  // measure 7
1000
0000
0001
0100
0001
0000
2000
0000
0000
0000
0000
0000
0000
0000
3000
0000
,  // measure 8
1001
0000
0000
0000
0001
0000
0000
0000
0100
0000
0000
0000
0002
0000
0000
0000
0000
0000
0003
0000
0001
0000
0000
0000
0100
0010
0000
0000
1000
0000
0010
1000
,  // measure 9
0010
0000
0100
0000
0010
0000
2000
0000
0000
3000
1000
1000
0100
0000
1000
0000
,  // measure 10
0010
0000
0000
0000
0100
0000
0000
0000
0001
0000
0000
0000
0010
0000
0000
0000
0001
0000
0000
0000
1000
0000
0000
0000
0010
0000
0000
0000
1000
0000
0000
1000
,  // measure 11
0100
0010
0100
1000
0001
0100
0001
0010
,  // measure 12
0011
0001
1000
0020
0100
0130
0010
1000
,  // measure 13
1010
0000
0000
0000
0010
0000
0000
0000
0100
0000
0000
0000
0002
0000
0000
0000
0010
0000
0000
0000
0013
0000
0000
0000
0001
0000
0000
1000
0001
0000
0000
0000
,  // measure 14
1001
0000
1000
0100
1000
0100
0010
0000
0001
0000
0100
0000
0001
0000
0010
0001
,  // measure 15
0100
0010
0001
0010
0100
0010
1000
0000
0001
0000
0100
0000
0001
0010
0001
0000
,  // measure 16
0011
0000
0011
0000
1000
0010
1000
0000
1010
0000
1010
0000
1000
0000
0100
0000
,  // measure 17
1100
0000
1100
0000
0010
0000
0200
0000
0000
0000
0302
0003
0002
0000
0000
0003
,  // measure 18
0101
0000
0000
0000
0101
0000
0000
0100
0010
0000
0000
0000
1000
0000
0000
0000
1010
0000
0000
0000
1010
0000
0000
0000
0100
0000
0000
0000
0001
0000
0000
0000
,  // measure 19
0101
0101
0001
0020
0001
1000
0001
0130
,  // measure 20
0110
0110
1000
0010
1010
1010
0001
0010
,  // measure 21
0011
0000
0011
0000
0001
0000
2000
0000
0000
0000
3020
0030
0020
0000
0000
0030
,  // measure 22
1010
1010
0100
0010
0110
0110
0001
1000
,  // measure 23
1001
0000
1001
0000
0010
0000
2000
0000
0000
0000
0000
0000
0000
0000
0000
3000
,  // measure 24
1100
0000
1000
0001
0100
0001
1000
0000
0010
0000
0100
0000
0001
0010
0100
0010
,  // measure 25
0001
0000
1000
0010
0100
0010
1000
0000
0000
0000
1000
0100
0001
0100
1000
0100
,  // measure 26
0010
0000
0100
1000
0001
0010
0100
0010
0001
0000
0001
0000
1000
0010
0001
0000
,  // measure 27
1000
0100
0001
0000
0001
0000
0020
0000
0000
0000
0000
0000
0000
0000
0000
0030
,  // measure 28
0011
0000
0001
0010
0001
0000
2000
0000
0010
0000
0100
0000
3010
0000
1000
0100
,  // measure 29
0010
0001
1000
0010
0100
0001
1000
0100
0010
0001
0100
0000
0100
0002
0000
0003
,  // measure 30
1001
0000
0000
0000
1000
0000
0010
0000
0100
0000
0000
0000
0002
0000
0000
0000
0010
0000
0003
0000
0001
0000
0000
0000
0100
0000
0000
0100
0010
0000
0000
0000
,  // measure 31
1000
0000
0001
0100
0010
0000
2000
0000
0100
0000
0001
0000
0100
0100
0100
3000
,  // measure 32
1100
1010
1100
0010
0110
1010
0110
0100
,  // measure 33
0101
0000
0101
0000
0001
0000
0020
0000
0000
0000
0031
0010
0002
0000
0000
0003
,  // measure 34
0011
0010
0001
0000
0011
0000
0100
0000
0110
0000
0101
0000
0110
0000
0010
0000
,  // measure 35
2010
0000
0000
0000
0100
0000
0100
0000
0000
0000
0001
0000
0001
3000
1000
0000
,  // measure 36
1100
1000
0100
0000
1100
0000
0001
0000
0011
0000
0101
0000
0011
0000
0100
0000
,  // measure 37
0001
0000
1000
0000
0100
0000
2000
0000
0000
0000
3100
1000
0020
0000
0000
0030
,  // measure 38
1010
0000
0010
0100
0001
0000
1000
0000
0010
0000
1000
0100
0010
0000
0100
0000
,  // measure 39
1000
0000
0001
0010
0100
0000
0210
0000
0000
0000
0000
0000
0000
0000
0000
0000
,  // measure 40
2000
0000
3300
0100
1000
0001
2000
0000
0000
3000
0001
0000
0001
1000
0100
1000
,  // measure 41
0010
0100
0001
0010
0100
1000
0020
0000
0000
0000
2030
0000
3010
1000
0001
0000
,  // measure 42
0100
0000
0001
0010
0100
0010
0002
0000
0000
0003
0002
0000
1003
0001
1000
0010
,  // measure 43
0100
0001
0010
0100
0010
0001
2000
0000
0000
0000
0000
0000
0000
0000
0000
0000
,  // measure 44
0000
0000
0000
0000
0000
3000
0000
0000
;

//---------------dance-single - ----------------
#NOTEDATA:;
#CHARTNAME:X-Scale 2;
#STEPSTYPE:dance-single;
#DESCRIPTION:;
#CHARTSTYLE:;
#DIFFICULTY:Beginner;
#METER:2;
#RADARVALUES:0.174968,0.205354,0.021239,0.120354,0.000000,173.000000,170.000000,3.000000,17.000000,0.000000,0.000000,0.000000,0.000000,0.000000,0.174968,0.205354,0.021239,0.120354,0.000000,173.000000,170.000000,3.000000,17.000000,0.000000,0.000000,0.000000,0.000000,0.000000;
#CREDIT:;
#NOTES:
// measure 0
0000
0000
0000
0000
,  // measure 1
0000
0000
0000
0000
,  // measure 2
0000
0000
0000
0000
,  // measure 3
0000
0000
0000
0000
,  // measure 4
0011
1000
0001
1000
,  // measure 5
0100
0010
0100
0010
,  // measure 6
0001
1000
0001
1000
,  // measure 7
0010
0000
0100
0200
0000
0000
0000
0000
,  // measure 8
0301
0000
0100
0001
0000
0001
1000
0000
,  // measure 9
0100
0000
1000
0010
0000
0010
0100
0000
,  // measure 10
0001
0000
0010
0100
0000
0100
1000
0000
,  // measure 11
0001
0000
0010
0001
0000
0001
1000
0000
,  // measure 12
0010
0000
0100
0010
0000
0010
1000
0000
,  // measure 13
0001
0000
0010
0100
0000
0100
1000
0000
,  // measure 14
0001
0000
1000
0100
0000
0100
0010
0000
,  // measure 15
0001
0000
1000
0010
0000
0010
0100
0001
,  // measure 16
0101
1000
0001
1000
,  // measure 17
0100
0000
0000
0000
0010
0000
0002
0000
0000
0000
1003
0000
0002
0000
0000
0003
,  // measure 18
1000
0100
1000
0001
,  // measure 19
0010
0000
0000
0000
0100
0000
2000
0000
0000
0000
0000
0000
0001
0000
0000
3000
,  // measure 20
0001
1000
0100
1000
,  // measure 21
0001
0000
0000
0000
0010
0000
0200
0000
0000
0000
1300
0000
0200
0000
0000
0300
,  // measure 22
1000
0001
1000
0100
,  // measure 23
0010
0000
0000
0000
0001
0000
0002
0000
0000
0000
0000
0000
0000
0003
0000
0000
,  // measure 24
1000
0010
1000
0010
,  // measure 25
0100
0001
0100
0001
,  // measure 26
1000
0010
1000
0100
,  // measure 27
0010
0000
0001
0002
0000
0000
0000
0000
,  // measure 28
1003
0000
0010
0020
0000
0000
0130
0010
,  // measure 29
1000
0000
0001
0010
0001
0000
1000
0010
,  // measure 30
0100
0000
0001
0002
0000
0003
1000
0100
,  // measure 31
0010
0000
0001
1000
0100
1000
0001
0001
,  // measure 32
1000
0100
1000
0001
,  // measure 33
0010
0000
0000
0000
0100
0000
2000
0000
0000
0000
3001
0000
2000
0000
0000
3000
,  // measure 34
0100
0010
0001
1000
,  // measure 35
0002
0000
0000
0010
0000
0000
0013
0000
,  // measure 36
0011
1000
0001
1000
,  // measure 37
0100
0000
0010
0002
0000
1003
0002
0000
,  // measure 38
0013
0001
1000
0001
,  // measure 39
0100
0000
0010
0020
0000
0000
0000
0000
,  // measure 40
1000
0030
0000
0010
0000
0000
1000
0000
,  // measure 41
0001
0000
0000
0010
0000
0000
0001
0000
,  // measure 42
1000
0000
0000
0100
0000
0000
1000
0000
,  // measure 43
0001
0000
0000
0002
0000
0000
0000
0000
,  // measure 44
0000
0000
0000
0000
0000
0003
0000
0000
;
