#TITLE:Play Odds;
#SUBTITLE:;
#ARTIST:Golin;
#TITLETRANSLIT:;
#SUBTITLETRANSLIT:;
#ARTISTTRANSLIT:;
#GENRE:Hyper Pop;
#CREDIT:;
#BANNER:Play Odds-bn.png;
#BACKGROUND:Play Odds-bg.png;
#LYRICSPATH:;
#CDTITLE:cdtitle.png;
#MUSIC:Play Odds.ogg;
#OFFSET:-0.006000;
#SAMPLESTART:59.083000;
#SAMPLELENGTH:14.769000;
#SELECTABLE:YES;
#BPMS:0.000000=130.000000
;
#STOPS:
;
#BGCHANGES:0.000=Play Odds.avi=1.000=1=0=0=StretchNoLoop==CrossFade==,
220.000=Play Odds-bg.png=1.000=1=0=1===CrossFade==,
99999=-nosongbg-=1.000=0=0=0 // don't automatically add -songbackground-
;
#KEYSOUNDS:;
#ATTACKS:;

//---------------dance-single - ----------------
#NOTES:
     dance-single:
     X-Scale 12:
     Hard:
     8:
     0.488684,0.609116,0.125622,0.241581,0.449340,354.000000,341.000000,13.000000,25.000000,0.000000,0.000000,0.488684,0.609116,0.125622,0.241581,0.449340,354.000000,341.000000,13.000000,25.000000,0.000000,0.000000:
// measure 0
0000
0000
0000
0000
,  // measure 1
0000
0000
0000
0000
,  // measure 2
0000
0000
0000
0000
,  // measure 3
0000
0000
0000
0000
,  // measure 4
0001
0000
0010
0001
0000
1000
0000
0100
0000
0000
0000
0000
0000
0000
0000
0000
,  // measure 5
1001
0000
0000
0000
0000
0000
0000
0000
0010
0100
0010
0100
0010
0000
0000
0000
,  // measure 6
0001
0000
0010
0001
0000
1000
0000
0010
0000
0100
0000
0000
0000
0000
0000
0000
,  // measure 7
0001
0000
0010
0100
0000
1000
0000
0001
0000
0000
0000
0000
1001
0000
1000
0001
,  // measure 8
1000
0000
0000
0100
0000
0000
1000
0000
0000
0001
0010
0000
0001
0000
0001
0000
,  // measure 9
0001
0000
0000
0010
0000
0000
0100
0000
0000
1000
0000
0000
0010
0000
0010
0000
,  // measure 10
0010
0000
0000
0100
0000
0000
0001
0000
0000
0010
0001
0000
1000
0000
1000
0000
,  // measure 11
1000
0000
0000
0100
0000
0000
0001
0000
0000
0100
0000
0000
1000
0000
1000
0000
,  // measure 12
1000
0000
0000
0001
0000
0000
0010
0000
0000
0100
0010
0000
0100
0000
0100
0000
,  // measure 13
0100
0000
0000
1000
0000
0000
0001
0000
0000
1000
0000
0000
0010
0000
0010
0000
,  // measure 14
0010
0000
0000
1000
0000
0000
0100
0000
0000
0010
0001
0000
0001
0000
1000
0000
,  // measure 15
0200
0000
0000
0010
0000
0300
2000
0000
0000
0000
3001
0000
1000
0000
0001
0000
,  // measure 16
1001
0000
1000
0100
0000
1000
0000
0000
0000
0001
0020
0000
0100
0000
0000
0000
,  // measure 17
0031
0000
0000
0010
0001
0000
2000
0000
0100
0000
0000
0000
3001
0000
1000
0000
,  // measure 18
0001
0000
0000
0010
0001
0000
1000
0000
0000
0010
2000
0000
3002
0000
0023
0000
,  // measure 19
0031
0000
0000
0010
0001
0000
0100
0000
0200
0000
0000
0000
0010
0000
0310
0000
,  // measure 20
0110
0000
0100
0010
0000
1000
0000
0000
0001
0010
0002
0000
0100
0000
0000
0000
,  // measure 21
1003
0000
0001
1000
0100
0000
0020
0000
0001
0000
0000
0000
0100
0000
0130
0000
,  // measure 22
0110
0000
0000
0000
1001
0000
1000
0000
0000
0001
2000
0000
3020
0000
0230
0000
,  // measure 23
0302
0000
0000
0003
,  // measure 24
0001
0000
0000
0010
0010
0100
1000
0002
,  // measure 25
0000
0003
0100
0002
0003
0000
1000
0100
,  // measure 26
1000
0100
0000
0010
0001
1000
0010
0100
,  // measure 27
0000
0001
0010
0100
0000
0000
1000
0010
,  // measure 28
1000
0000
0000
0001
0001
0100
0010
2000
,  // measure 29
0000
3000
0100
0020
0030
0000
0001
1000
,  // measure 30
0001
1000
0000
0010
0010
0100
0001
0020
,  // measure 31
0000
0030
0100
2000
3000
0000
0001
0000
,  // measure 32
1000
0000
0000
1000
0000
0000
1001
0000
0000
0010
0001
0000
0100
0000
0010
0000
,  // measure 33
0100
0000
0000
0001
0000
0000
0010
0000
0000
0100
1000
0100
0000
0010
0001
0000
,  // measure 34
0010
0100
0100
1000
0002
0000
0203
0000
,  // measure 35
0301
0000
0000
0000
0010
0000
0100
0000
1000
0100
1000
0100
0010
0000
0000
0000
,  // measure 36
0001
0000
0000
0001
0000
0000
0101
0000
0000
0100
0001
0000
1000
0000
0010
0000
,  // measure 37
0100
0000
0000
0010
0000
0000
1000
0000
0000
0100
0010
0100
0000
1000
0001
0000
,  // measure 38
0010
0100
0100
1000
0002
0000
0023
0000
,  // measure 39
0130
0000
0000
0010
0001
0000
1000
0000
0100
0000
0100
0000
0001
0000
0000
0000
,  // measure 40
0011
0000
0000
0001
0010
0000
0001
0000
1000
0001
1000
0000
0010
0000
0100
0000
,  // measure 41
0001
0000
0000
0010
0100
0000
0010
0000
0001
1000
0000
0000
0200
0000
0000
0300
,  // measure 42
0010
0001
0010
0001
0000
0000
0010
0100
0010
0100
0000
0000
1000
0100
1000
0100
,  // measure 43
1000
0000
0001
0100
0000
0000
0001
0000
1000
0100
1000
0001
1000
0000
0000
0000
,  // measure 44
1001
0000
0000
0001
1000
0000
0010
0000
1000
0100
0010
0000
0100
0000
1000
0000
,  // measure 45
1100
0000
1000
0001
0100
0000
0001
0000
1000
0001
1000
0000
0001
0000
0100
0000
,  // measure 46
0101
0000
0000
0001
0000
0000
1000
0000
0100
1000
0000
1000
0001
0000
0000
0000
,  // measure 47
0010
0000
0000
0001
0000
0000
0010
0000
0000
0010
0001
0000
0001
0000
0000
0000
,  // measure 48
1000
0000
0000
0010
0000
0000
0100
0000
0000
0001
0100
0000
0100
0000
0000
0000
,  // measure 49
0010
0000
0000
1000
0000
0000
0100
0000
0000
0100
1000
0000
0001
0000
0000
0000
,  // measure 50
0010
0000
0000
0100
0000
0000
1000
0000
0000
0010
1000
0000
1001
0000
0000
0000
,  // measure 51
1000
0000
0000
0001
0000
0000
0100
0000
0000
0001
1000
0000
0100
0000
0000
0000
,  // measure 52
1000
0000
0000
0010
0000
0000
0100
0000
0000
0001
0010
0000
0001
0000
0000
0000
,  // measure 53
0000
0010
0000
0000
0100
0000
0000
1000
0000
0000
0100
0000
0000
0100
0001
0000
,  // measure 54
1000
0000
0000
0001
0000
0000
0010
0000
0000
0010
1000
0000
0001
1000
0000
0000
;

//---------------dance-single - ----------------
#NOTES:
     dance-single:
     X-Scale 9:
     Medium:
     6:
     0.381008,0.502609,0.106296,0.193265,0.309224,276.000000,265.000000,11.000000,20.000000,0.000000,0.000000,0.381008,0.502609,0.106296,0.193265,0.309224,276.000000,265.000000,11.000000,20.000000,0.000000,0.000000:
0000
0000
0000
0000
,
0000
0000
0000
0000
,
0000
0000
0000
0000
,
0000
0000
0000
0000
,
1000
0000
0000
0100
0000
0000
0001
0000
0000
0100
0000
0000
1000
0000
0000
0000
,
0001
0000
0000
0010
0000
0000
1000
0000
0000
0010
0000
0000
0001
0000
0000
0000
,
0100
0000
0000
0010
0000
0000
0100
0000
0000
1000
0000
0000
0100
0000
0000
0000
,
0001
0000
0000
0010
0000
0000
1000
0000
0000
0100
0000
0000
0001
0000
0000
0000
,
0101
0000
2000
0000
3200
0000
0310
0100
,
2000
0000
0000
0100
3000
0000
0002
0000
0000
0000
0003
0000
0010
0000
0100
0000
,
0010
0000
0002
0000
1003
0100
0010
0010
,
0002
0000
0000
0100
0003
0000
2000
0000
0000
0000
3000
0000
0010
0000
1000
0000
,
0001
0000
0000
0010
0000
0000
0001
0000
0000
1000
0000
0000
0010
0000
1000
0000
,
0001
0000
0000
0010
0000
0000
0001
0000
0000
0100
0000
0000
0010
0000
0100
0000
,
0010
0000
0000
1000
0000
0000
0100
0000
0000
0010
0000
0000
0001
0000
0010
0000
,
0001
0000
0000
1000
0000
0000
0010
0000
0000
1000
0000
0000
0100
0000
0010
0000
,
0011
0000
0010
0001
0000
0010
0000
0000
0000
0001
2000
0000
0000
0000
0000
0000
,
3100
0000
0000
1000
0000
0000
0002
0000
0000
0000
0000
0000
0013
0000
0100
0000
,
0010
0000
0000
0000
0010
0000
0000
0000
0000
0001
0020
0000
0000
0000
0000
0000
,
0130
0000
0000
0010
0000
0000
0001
0000
1000
0000
0000
0000
0100
0000
1000
0000
,
0001
0000
0010
0001
0000
1000
0000
0000
0000
0100
2000
0000
0000
0000
0000
0000
,
3001
0000
0000
0010
0000
0000
0002
0000
0000
0000
0000
0000
0103
0000
0001
0000
,
1000
0000
0000
0000
1000
0000
0000
0000
0000
0100
0020
0000
0000
0000
0000
0000
,
0032
0000
0000
0003
,
0000
0000
0000
1000
0100
0001
0100
1000
,
0000
0000
0001
0010
0000
0000
0011
0000
,
0000
0000
0000
1000
0010
0001
0010
1000
,
0000
0000
0100
0010
0000
0000
0000
0000
,
0001
0000
0000
1000
0001
0010
0001
1000
,
0000
0000
0010
0100
0000
0000
1001
0000
,
0000
0000
0000
0001
0010
1000
0010
0001
,
0000
0000
1000
0100
0000
0000
1100
0000
,
0100
0000
0000
0100
0000
0000
0110
0000
0000
0010
0001
0000
1000
0000
0001
0000
,
0100
0000
0000
0010
0000
0000
0100
0000
0000
0001
0000
0000
0010
0000
0000
0000
,
0000
0100
0100
1000
0002
0000
0023
0000
,
0130
0000
0100
1000
0002
0000
0013
0000
,
0001
0000
0000
0001
0000
0000
1001
0000
0000
0000
0000
0000
0100
0000
1000
0000
,
0001
0000
0000
0100
0000
0000
1000
0000
0000
0100
0000
0000
0010
0000
0000
0000
,
0000
0100
0100
0001
2000
0000
3020
0000
,
0031
0000
0001
0010
1000
1000
1010
0000
,
1001
0000
1000
0010
1000
0000
0100
0010
,
0001
0000
0100
0010
0100
0000
0001
0010
,
0001
0010
0001
0010
0000
0100
1000
0100
1000
0000
0000
0000
0001
1000
0001
1000
,
0001
0000
0000
0100
0000
0000
0010
0000
2000
0000
0000
0000
3010
0000
0000
0000
,
1001
0000
0001
0010
0001
0000
1000
0010
,
1000
0000
0100
0010
0100
0000
1000
0000
,
0001
0000
0000
0001
0000
0000
1000
0100
0000
0010
0001
0010
0001
0000
0000
0000
,
0010
0000
0000
0100
0000
0000
1000
0000
0000
0001
0000
0000
1000
0000
0000
0000
,
0100
0000
0000
1000
0000
0000
0001
0000
0000
0100
0000
0000
0001
0000
0000
0000
,
0010
0000
0000
0100
0000
0000
1000
0000
0000
0001
0000
0000
1000
0000
0000
0000
,
0100
0000
0000
0001
0000
0000
0100
0000
0000
1000
0000
0000
1100
0000
0000
0000
,
0100
0000
0000
1000
0000
0000
0001
0000
0000
0010
0000
0000
0001
0000
0000
0000
,
1000
0000
0000
0100
0000
0000
0001
0000
0000
0010
0000
0000
1000
0000
0000
0000
,
0000
0001
0000
0000
0100
0000
0000
0010
0000
0000
0100
0000
0000
0001
0000
0000
,
0010
0000
0000
0100
0000
0000
1000
0000
0000
0001
0000
0000
1000
0000
0000
0000
;

//---------------dance-single - ----------------
#NOTES:
     dance-single:
     X-Scale 5:
     Easy:
     3:
     0.260907,0.343890,0.115959,0.222254,0.014495,189.000000,177.000000,12.000000,23.000000,0.000000,0.000000,0.260907,0.343890,0.115959,0.222254,0.014495,189.000000,177.000000,12.000000,23.000000,0.000000,0.000000:
0000
0000
0000
0000
,
0000
0000
0000
0000
,
0000
0000
0000
0000
,
0000
0000
0000
0000
,
0001
0000
0000
1000
0000
0000
0001
0000
,
1001
0000
0000
1000
0000
0000
0100
0000
,
1000
0000
0000
0001
0000
0000
0010
0000
,
0001
0000
0000
1000
0000
0000
0010
0000
,
1010
1000
0100
0010
,
0002
0000
0000
2003
0000
3000
0000
0000
,
0001
0000
1000
0000
0010
1000
0001
1000
,
0020
0000
0000
2030
0000
3000
0000
0100
,
0010
0000
0200
0000
0000
2300
0000
0000
,
3002
0000
0023
0000
0000
0000
0100
0100
,
0230
0000
0000
2300
0000
3001
0020
0000
,
0230
0000
0000
0320
0000
0031
0010
0001
,
0011
0000
0000
0011
0000
0000
0001
0000
,
0100
0010
0100
0001
,
0101
0101
0001
1000
,
0100
0000
1000
0000
0010
0000
1000
0100
,
1100
0000
0000
1100
0000
0000
0100
0000
,
0010
0001
1000
0001
,
1001
1001
0001
0010
,
0200
0000
0000
0300
,
1000
0000
0000
0100
0000
0000
1000
0000
,
0001
0000
0000
0010
0000
0000
0001
0000
,
0100
0000
0000
0010
0000
0000
0100
0000
,
0001
0000
0000
0010
0000
0000
0100
0000
,
1000
0000
0000
0001
0000
0000
1000
0000
,
0010
0000
0000
1000
0000
0000
0100
0000
,
0010
0000
0000
0100
0000
0000
1000
0000
,
0001
0000
0000
0010
0000
0000
0100
0000
,
1000
0000
0000
1100
0000
0000
0100
0010
,
0001
0000
0000
1000
0000
0000
0001
0000
,
0000
0010
0001
0010
0200
0000
2300
0000
,
3000
0000
0010
0100
0002
0000
0013
0000
,
0001
0000
0000
1001
0000
0000
1000
0010
,
1000
0000
0000
0001
0000
0000
0010
0000
,
0100
1000
0100
1000
0002
0000
0023
0000
,
0130
0000
0000
0010
0001
0010
0001
0000
,
1000
0001
0100
0010
,
1000
0100
0010
0001
,
0020
0000
0030
0200
0000
0300
2000
0000
,
3010
1000
0100
1000
,
0001
0010
0001
1000
,
0100
1000
0001
1000
,
0200
0000
0000
0300
,
0010
0000
0000
0001
0000
0000
0010
0000
,
0001
0000
0000
1000
0000
0000
0001
0000
,
0100
0000
0000
0010
0000
0000
0100
0000
,
0001
0000
0000
0010
0000
0000
0100
0000
,
1000
0000
0000
0001
0000
0000
1000
0000
,
0100
0000
0000
1000
0000
0000
0001
0000
,
0000
0010
0000
0000
0000
0000
0000
0001
0000
0000
0000
0000
0000
1000
0000
0000
,
0100
0000
0000
1000
0000
0000
0001
0000
;

//---------------dance-single - ----------------
#NOTES:
     dance-single:
     X-Scale 2:
     Beginner:
     2:
     0.131144,0.182635,0.000000,0.000000,0.000000,95.000000,95.000000,0.000000,0.000000,0.000000,0.000000,0.131144,0.182635,0.000000,0.000000,0.000000,95.000000,95.000000,0.000000,0.000000,0.000000,0.000000:
0000
0000
0000
0000
,
0000
0000
0000
0000
,
0000
0000
0000
0000
,
0000
0000
0000
0000
,
1000
0000
0000
0000
,
0100
0000
0000
0000
,
0010
0000
0000
0000
,
0001
0000
0000
0000
,
1000
0000
0000
0100
0000
0000
1000
0000
,
0001
0000
0000
0100
0000
0000
0001
0000
,
0010
0000
0000
0100
0000
0000
0010
0000
,
0001
0000
0000
1000
0000
0000
0001
0000
,
0010
0000
0000
0100
0000
0000
1000
0000
,
0100
0000
0000
1000
0000
0000
0001
0000
,
0100
0000
0000
0001
0000
0000
1000
0000
,
0100
0000
0000
0010
0000
0000
0001
0000
,
0010
0000
0001
0000
,
1000
0000
0001
0000
,
0010
0000
0001
0000
,
1000
0000
0100
0000
,
0010
0000
0100
0000
,
1000
0000
0001
0000
,
1000
0000
0010
0000
,
1000
0000
0000
0000
,
0001
0000
0000
0000
,
0010
0000
0000
0000
,
0100
0000
0000
0000
,
1000
0000
0000
0000
,
0010
0000
0000
0000
,
0100
0000
0000
0000
,
0001
0000
0000
0000
,
1000
0000
0000
0000
,
0100
0000
0000
1000
0000
0000
0001
0000
,
0010
0000
0000
0001
0000
0000
1000
0000
,
0100
0000
0000
1000
0000
0000
0001
0000
,
0010
0000
0000
0001
0000
0000
1000
0000
,
0010
0000
0000
1000
0000
0000
0001
0000
,
0100
0000
0000
0010
0000
0000
0100
0000
,
0001
0000
0000
0010
0000
0000
0100
0000
,
1000
0000
0000
0100
0000
0000
0010
0000
,
0001
0000
0100
0000
,
0001
0000
1000
0000
,
0100
0000
0000
0000
,
1000
0000
0001
0000
,
0010
0000
0001
0000
,
1000
0000
0100
0000
,
1000
0000
0000
0000
,
0001
0000
0000
0000
,
0010
0000
0000
0000
,
0100
0000
0000
0000
,
1000
0000
0000
0000
,
0010
0000
0000
0000
,
0100
0000
0000
0000
,
0001
0000
0000
0000
,
1000
0000
0000
0000
;

//---------------dance-single - ----------------
#NOTES:
     dance-single:
     X-Scale 14:
     Challenge:
     9:
     0.590838,0.635599,0.396193,0.135285,0.555636,428.000000,387.000000,41.000000,14.000000,0.000000,0.000000,0.590838,0.635599,0.396193,0.135285,0.555636,428.000000,387.000000,41.000000,14.000000,0.000000,0.000000:
0000
0000
0000
0000
,
0000
0000
0000
0000
,
0000
0000
0000
0000
,
0000
0000
0000
0000
,
1000
0000
0100
0010
0000
0001
0000
1000
0000
0000
0010
0000
0000
0001
0000
0000
,
0011
0000
0000
0001
0000
0000
1000
0000
0100
0010
0001
1000
0001
0000
0000
0000
,
0010
0000
0100
1000
0000
0001
0000
0100
0000
0001
0000
0000
0010
0000
0000
0010
,
0001
0000
1000
0010
0000
1000
0000
0100
0000
0000
0001
0000
0011
0000
0001
0010
,
0001
0000
0000
0011
0000
0000
1001
0000
0000
0001
1000
0000
0100
0000
0100
0000
,
0110
0000
0000
1001
0000
0000
0101
0000
0000
0001
0000
0000
0010
0000
0010
0000
,
0110
0000
0000
1010
0000
0000
1100
0000
0000
1000
0001
0000
0001
0000
0010
0000
,
0101
0000
0000
1001
0000
0000
1100
0000
0000
0100
0000
0000
0010
0000
0001
0010
,
0001
0000
0000
0011
0000
0000
1010
0000
0000
0001
1000
0000
0010
0000
0010
0000
,
0110
0000
0000
1001
0000
0000
1010
0000
0000
1000
0000
0000
0100
0000
0100
0000
,
1100
0000
0000
1001
0000
0000
0101
0000
0000
0100
0010
0000
0010
0000
0001
0000
,
0011
0000
0000
0110
0000
0000
1010
0000
0000
1000
0001
0000
0010
0000
0100
0000
,
1000
0100
1000
0100
0000
1000
0000
0000
0001
0100
0004
0000
0100
0000
0000
0000
,
1003
0001
0100
0001
0000
0000
0020
0000
1000
0000
0000
0000
0031
0000
0010
0000
,
0001
1000
0001
1000
0000
0000
0100
0000
0000
0010
0004
0000
0403
0000
0340
0000
,
0130
0010
0100
0001
0000
0000
0010
0000
0020
0000
0000
0000
0130
0000
0100
0000
,
1000
0100
1000
0001
0000
0010
0000
0000
0100
1000
0400
0000
0010
0000
0000
0000
,
1300
0100
1000
0001
0000
0000
0020
0000
1000
0000
0000
0000
0031
0000
0001
0000
,
0100
0001
1000
0010
0000
0000
0100
0000
0000
0001
0040
0000
0034
0000
4003
0000
,
3200
0000
0000
0000
0000
0000
0000
0000
0000
0000
0000
0300
LL00
0000
0000
0000
,
1000
0100
0001
0010
0010
0001
1000
0001
,
0010
0000
0010
0000
0020
0000
0002
0000
0000
0000
0000
0033
00LL
0000
0001
0000
,
1000
0001
1000
0001
0001
0010
0100
1000
,
0100
0001
0100
1000
0001
0100
0001
1000
,
0010
0100
0010
1000
1000
0001
0010
0100
,
0010
0000
0001
0000
0020
0000
0200
0000
0000
0000
0000
0330
0LL0
0000
0010
0000
,
0001
1000
0001
0010
0010
0100
1000
0001
,
1000
0000
0010
0000
0020
0000
0200
0000
0000
0000
0000
0330
0LL0
0000
0000
0000
,
1000
0000
0000
1000
0000
0000
1100
0000
0000
0100
0010
0000
0100
0000
1000
0000
,
0001
0000
0000
0010
0000
0000
0001
0000
0100
0010
0100
0010
0000
1000
0100
0000
,
1000
0010
0001
0010
2000
0000
3002
0000
,
0013
0001
0010
0001
1000
0000
0100
0000
0010
0001
0010
0001
0100
0000
0000
0000
,
0001
0000
0000
0001
0000
0000
0101
0000
0000
0001
1000
0000
0100
0000
1000
0000
,
0010
0000
0000
0100
0000
0000
0001
0000
0010
0100
0010
0100
0000
1000
0100
0000
,
1000
0010
0001
0010
2000
0000
3200
0000
,
0310
0000
0000
0001
0010
0000
0001
0000
1000
0000
1000
0000
1100
0000
0000
0100
,
1000
0000
0100
0010
0000
0000
0011
0000
0001
0010
0001
0000
1000
0000
0010
0000
,
1000
0000
0000
0100
0010
0000
0100
1000
0000
0000
0001
0000
0100
0000
0001
0000
,
1000
0100
0010
0001
0000
0000
0100
0001
1000
0010
0000
0000
1000
0001
0100
0001
,
1000
0000
0001
0100
0000
0000
0001
0000
0010
0100
1000
0001
1000
0000
0000
0000
,
0100
0000
0010
0001
0000
0000
0101
0000
0001
1000
0001
0000
0010
0000
0100
0000
,
1000
0000
0100
0010
0100
0000
1000
0000
0001
1000
0010
0100
0001
1000
0001
0100
,
0001
0000
0000
0001
0000
0000
0010
0100
0010
0100
0000
0010
0001
0000
0000
0000
,
1000
0000
0000
0100
0000
0000
0010
0000
0000
0001
0100
0000
0001
0000
0000
0000
,
0101
0000
0000
0100
0000
0000
0001
0000
0000
1000
0010
0000
1000
0000
0000
0000
,
1010
0000
0000
1000
0000
0000
0001
0000
0000
0100
0010
0000
1000
0010
0000
0000
,
1001
0000
0000
0010
0000
0000
0100
0000
0000
1000
0100
0000
1100
0000
0000
0000
,
1001
0000
0000
0001
0000
0000
0010
0000
0000
0001
1000
0000
0100
0000
0000
0000
,
0101
0000
0000
0001
0000
0000
1000
0000
0000
0100
0010
0000
0001
0000
0000
0000
,
0000
1100
0000
0000
0100
0000
0000
0001
0000
0000
0100
1000
0000
0010
1000
0000
,
1010
0000
0000
1000
0000
0000
0001
0000
0000
0010
0001
0000
0001
0010
0000
0000
;
