#TITLE:Pitbull Terrier;
#SUBTITLE:;
#ARTIST:Die Antwoord;
#TITLETRANSLIT:;
#SUBTITLETRANSLIT:;
#ARTISTTRANSLIT:;
#GENRE:Electro;
#CREDIT:;
#BANNER:Pitbull Terrier-bn.png;
#BACKGROUND:Pitbull Terrier-bg.png;
#LYRICSPATH:;
#CDTITLE:cdtitle.png;
#MUSIC:Pitbull Terrier.ogg;
#OFFSET:-0.004000;
#SAMPLESTART:90.972000;
#SAMPLELENGTH:15.500000;
#SELECTABLE:YES;
#BPMS:0.000000=124.000000
;
#STOPS:
;
#BGCHANGES:0.000=Pitbull Terrier.avi=1.000=1=0=0=StretchNoLoop==CrossFade==,
99999=-nosongbg-=1.000=0=0=0 // don't automatically add -songbackground-
;
#KEYSOUNDS:;
#ATTACKS:;

//---------------dance-single - ----------------
#NOTES:
     dance-single:
     X-Scale 13:
     Hard:
     9:
     0.515577,0.551809,0.040012,0.208060,0.448129,451.000000,446.000000,5.000000,26.000000,0.000000,0.000000,0.515577,0.551809,0.040012,0.208060,0.448129,451.000000,446.000000,5.000000,26.000000,0.000000,0.000000:
// measure 0
0000
0000
0000
0000
,  // measure 1
0000
0000
0000
0000
,  // measure 2
0000
0000
0000
0000
,  // measure 3
0000
0000
0000
0000
,  // measure 4
0000
0000
0000
0000
,  // measure 5
1010
0000
0010
0000
1000
0100
0010
0000
,  // measure 6
0001
0000
0100
0010
0000
1000
0001
0000
0010
0000
1000
0000
0010
0000
0001
0000
,  // measure 7
0100
0000
0010
0000
1000
0100
0010
0000
,  // measure 8
0001
0000
0100
0010
0000
1000
0001
0000
0010
0100
0000
0010
0001
0000
1000
0000
,  // measure 9
0001
0000
1000
0000
0001
0010
0100
0000
,  // measure 10
1000
0000
0010
0100
0000
0001
0010
0000
0001
0000
1000
0000
0010
0000
1000
0000
,  // measure 11
0001
0000
0100
0000
0001
0010
0100
0000
,  // measure 12
1000
0000
0001
0010
0000
0100
1000
0000
0100
0010
0000
0100
1000
0000
0010
0000
,  // measure 13
0000
0000
0000
0000
,  // measure 14
0011
0000
1000
0001
0000
1000
0001
0000
0010
0000
0100
0010
0000
0100
0010
0000
,  // measure 15
0001
0000
1000
0010
0000
1000
0010
0000
0100
0000
0001
0010
0000
0001
0010
0000
,  // measure 16
0100
0000
1000
0010
0000
1000
0010
0000
0100
0000
0001
0010
0000
0001
0010
0000
,  // measure 17
0100
0000
1000
0001
0000
1000
0001
0000
0010
0000
0100
1000
0000
0100
1000
0000
,  // measure 18
0001
0000
0100
0001
0000
0100
0001
0000
0010
0000
0100
1000
0000
0100
1000
0000
,  // measure 19
0010
0000
0100
0010
0000
0100
0010
0000
1000
0000
0001
0010
0000
0001
0010
0000
,  // measure 20
0100
0000
1000
0010
0000
1000
0010
0000
0100
0000
0001
0100
0000
0001
0100
0000
,  // measure 21
0020
0000
0001
0000
1030
0010
1000
0010
,  // measure 22
1010
2000
0001
0000
0100
0000
3001
1000
,  // measure 23
0100
0000
0000
0010
0000
0000
0100
0000
1000
0010
0000
1000
0001
0000
0100
0000
,  // measure 24
0001
0020
1000
0000
0100
0000
0031
0000
,  // measure 25
0010
0000
0000
0001
0000
0000
1000
0000
0100
0000
0010
0000
1000
0000
0010
0000
,  // measure 26
0001
0200
1000
0000
0301
0100
0001
0010
,  // measure 27
0100
0000
0000
1000
0100
0000
1000
0000
0001
0010
0000
0001
1000
0000
0100
0010
,  // measure 28
0100
1000
0010
0100
0001
0010
0100
1000
,  // measure 29
0001
0000
0000
0100
0001
0000
0100
0000
0010
0100
0000
0001
0100
0000
0001
0000
,  // measure 30
1000
0000
0100
2000
0000
0000
3100
0000
1000
0000
0020
0000
0100
0000
0130
0000
,  // measure 31
0010
0000
1000
0002
0000
0000
0013
0000
0001
0000
0000
0200
0000
0000
0301
0000
,  // measure 32
0100
0000
0000
0020
0000
0000
1030
0000
0001
0000
0000
0200
0000
0000
0301
0000
,  // measure 33
1000
0000
0000
0200
0000
0000
0310
0000
0100
0000
0000
2000
0000
0000
3001
1000
,  // measure 34
0001
0000
0020
0000
0000
0032
0000
0000
1003
0000
0000
0001
0000
0100
0001
0000
,  // measure 35
0010
0000
0000
0100
0000
0000
1000
0000
0010
0000
0000
1000
0000
0001
1000
0000
,  // measure 36
0010
0000
0000
0100
0000
0010
0100
0000
0001
0000
0000
0020
0000
0000
0030
0000
,  // measure 37
0002
0000
0003
0002
0000
0003
0002
0000
0003
0002
0000
0003
0002
0000
0000
0000
,  // measure 38
1003
0000
0000
0010
0000
0000
1000
0000
0100
0010
0000
0100
1000
0000
0001
0000
,  // measure 39
0100
0000
0000
0001
0000
0000
0010
0000
0100
1000
0000
0001
1000
0000
0010
0000
,  // measure 40
1000
0000
0000
0100
0000
0000
0010
0000
0001
0100
0000
0001
1000
0000
0010
0000
,  // measure 41
1000
0020
0000
0000
0001
0000
0000
0000
0100
0000
0000
0000
0001
0000
0000
0000
,  // measure 42
1030
0000
0010
0000
1000
0000
0100
0010
0001
0000
0010
0100
0000
0000
1000
0000
,  // measure 43
0001
0000
0100
0000
0001
0000
0010
0100
1000
0000
0001
0100
0000
0000
0010
0000
,  // measure 44
1000
0000
0001
0000
1000
0000
0100
0010
0001
0000
1000
0001
0000
0000
0100
0000
,  // measure 45
0001
0010
0001
1000
0020
0000
0001
0000
,  // measure 46
2000
0000
0000
0000
0000
0000
0000
3030
,  // measure 47
1010
0010
0100
0001
1000
0100
0010
0100
,  // measure 48
1000
0001
0100
0001
1000
0100
0010
0001
,  // measure 49
0100
0000
0001
0000
0010
0000
0001
0000
1000
0000
0100
0000
0010
0000
0100
0010
,  // measure 50
0000
0010
0000
0010
0001
0010
0100
1000
0010
0000
1000
0010
0000
0000
1000
0000
,  // measure 51
0100
0001
0100
1000
0010
0100
0001
0010
,  // measure 52
0100
0010
0001
1000
0010
0100
0001
0010
,  // measure 53
0001
0000
1000
0000
0100
0000
1000
0000
0010
0000
0100
0000
0001
0000
0010
0100
,  // measure 54
0000
0100
0000
0100
1000
0100
0010
0001
0010
0000
0001
0010
0000
0000
0001
0000
,  // measure 55
1001
1000
0001
0010
0100
1000
0010
1000
,  // measure 56
0100
0000
0010
0100
0000
1000
0100
0000
0001
0000
0100
0000
1000
0000
0010
0000
,  // measure 57
0100
0000
0001
0000
1000
0000
0001
0000
0010
0000
0100
0000
1000
0000
0001
0010
,  // measure 58
0000
0010
0000
0010
0001
0010
0100
1000
0100
0000
1000
0100
0000
0000
1000
0000
,  // measure 59
0001
0010
0100
1000
0001
0100
0010
1000
,  // measure 60
0001
0000
0010
0100
0000
0010
0001
0000
0100
0000
0001
0000
0010
0000
0100
0000
,  // measure 61
2000
0000
3020
0000
0031
0010
0200
0000
,  // measure 62
0300
0000
0000
0001
0100
0010
1000
0100
0010
0000
0001
0100
0000
0000
0000
0000
;

//---------------dance-single - ----------------
#NOTES:
     dance-single:
     X-Scale 10:
     Medium:
     7:
     0.425265,0.476562,0.048014,0.024007,0.276080,372.000000,366.000000,6.000000,3.000000,0.000000,0.000000,0.425265,0.476562,0.048014,0.024007,0.276080,372.000000,366.000000,6.000000,3.000000,0.000000,0.000000:
// measure 0
0000
0000
0000
0000
,  // measure 1
0000
0000
0000
0000
,  // measure 2
0000
0000
0000
0000
,  // measure 3
0000
0000
0000
0000
,  // measure 4
0000
0000
0000
0000
,  // measure 5
1001
0000
1000
0000
0001
0010
0100
0000
,  // measure 6
1000
0000
0000
0010
0000
0000
1000
0000
0001
0000
0000
0010
0000
0000
0001
0000
,  // measure 7
0100
0000
0010
0000
1000
0100
0010
0000
,  // measure 8
0001
0000
0000
0100
0000
0000
0001
0000
1000
0000
0000
0100
0000
0000
1000
0000
,  // measure 9
0010
0000
0100
0000
0001
0010
0100
0000
,  // measure 10
1000
0000
0000
0010
0000
0000
1000
0000
0001
0000
0000
0010
0000
0000
0001
0000
,  // measure 11
0100
0000
0010
0000
1000
0100
0010
0000
,  // measure 12
0001
0000
0000
0100
0000
0000
0001
0000
1000
0000
0000
0100
0000
0000
1000
0000
,  // measure 13
0000
0000
0000
0000
,  // measure 14
1001
0000
0001
0000
0100
0000
0001
0000
0010
0000
0000
0100
0000
0000
0010
0000
,  // measure 15
0001
0000
1000
0000
0001
0000
0100
0000
0010
0000
0000
1000
0000
0000
0001
1000
,  // measure 16
0001
0000
1000
0000
0100
0000
0010
0000
0001
0000
0000
0100
0000
0000
0001
0000
,  // measure 17
0010
0000
1000
0000
0010
0000
0001
0000
0100
0000
0000
0001
0000
0000
1000
0001
,  // measure 18
1000
0000
0010
0000
0001
0000
0010
0000
0100
0000
0000
0001
0000
0000
1000
0000
,  // measure 19
0001
0000
0010
0000
0100
0000
0010
0000
0001
0000
0000
1000
0000
0000
0100
1000
,  // measure 20
0100
0000
0010
0000
0001
0000
0100
0000
0001
0000
0000
1000
0000
0000
0010
0000
,  // measure 21
1010
0000
0000
0000
0011
0000
0000
0000
1001
0000
0000
0001
0000
0000
1000
0000
,  // measure 22
1001
1000
0100
0000
0010
0000
0001
0100
,  // measure 23
0001
0000
0000
0010
0000
0000
0001
0000
1000
0000
0000
0010
0000
0000
1000
0000
,  // measure 24
0001
0000
0010
0000
1000
0000
0000
0000
0010
0000
0000
0001
0000
0000
0100
0000
,  // measure 25
0001
0000
0000
0010
0000
0000
0100
0000
1000
0000
0010
0000
1000
0000
0100
0000
,  // measure 26
0010
0000
0000
0000
0001
0000
0100
0000
0001
0000
0000
0010
0000
0000
0100
0000
,  // measure 27
1000
0000
0000
0010
0000
0000
1000
0000
0100
0000
0010
0000
0100
0000
1000
0000
,  // measure 28
0010
0100
0001
1000
0100
0010
0001
0100
,  // measure 29
0001
0000
0000
0010
0000
0000
0100
0000
1000
0000
0000
0000
0001
0000
0100
0000
,  // measure 30
0001
0000
0010
0001
0000
0000
0000
0000
1000
0000
0000
0010
0000
0000
1000
0000
,  // measure 31
0100
0000
1000
0100
0000
0000
1000
0000
0001
0000
0000
0100
0000
0000
0001
0000
,  // measure 32
0010
0000
0000
0001
0000
0000
1000
0000
0010
0000
0000
1000
0000
0000
0100
0000
,  // measure 33
0010
0000
0000
0001
0000
0000
0100
0000
0001
0000
0000
0010
0000
0000
0100
1000
,  // measure 34
0100
0000
0000
1000
0000
0000
0010
0000
1000
0000
0000
0100
0000
0000
0010
0000
,  // measure 35
0001
0000
0000
0100
0000
0000
0001
0000
0010
0000
0000
0100
0000
0000
1000
0000
,  // measure 36
0001
0000
0000
0100
0000
0000
0001
0100
0001
0000
0000
1000
0000
0000
0000
0000
,  // measure 37
0010
0000
0000
2000
,  // measure 38
3100
0000
0000
1000
0000
0000
0010
0000
1000
0000
0000
0100
0000
0000
0010
0000
,  // measure 39
0001
0000
0000
0100
0000
0000
0001
0000
0010
0000
0000
0000
0100
0000
0010
0000
,  // measure 40
0001
0000
0000
1000
0000
0000
0001
0000
0100
0000
0000
0010
0000
0000
1000
0000
,  // measure 41
0100
2000
0000
0000
0010
0000
0000
0000
0001
0000
0000
0000
0010
0000
0000
0000
,  // measure 42
3100
0000
1000
0000
0001
0000
1000
0001
1000
0000
0100
0010
0000
0000
0001
0000
,  // measure 43
0100
0000
0001
0000
0010
0000
0100
1000
0100
0000
1000
0010
0000
0000
1000
0000
,  // measure 44
0100
0000
0010
0000
0001
0000
0100
0001
0100
0000
0010
0100
0000
0000
0001
0000
,  // measure 45
0100
0000
1000
0000
0100
0000
0001
0000
0020
0000
0000
1000
0000
0000
0001
0000
,  // measure 46
0001
0000
0000
0000
,  // measure 47
0130
0000
1000
0000
0001
0010
0100
0000
,  // measure 48
1000
0000
0000
0010
0000
0000
1000
0000
0100
0000
0010
0000
0001
0000
0100
0000
,  // measure 49
0001
0000
0010
0000
0001
0010
0100
0000
,  // measure 50
1000
0000
0000
0010
0000
0000
1000
0000
0100
0000
0010
0100
0000
0000
0010
0000
,  // measure 51
0001
0000
0100
0000
0001
0010
0100
0000
,  // measure 52
1000
0000
0000
0010
0000
0000
1000
0000
0100
0000
0001
0000
0100
0000
1000
0000
,  // measure 53
0010
0000
0100
0000
0001
0010
0100
0000
,  // measure 54
1000
0000
0000
0001
0000
0000
1000
0000
0100
0000
0010
0001
0000
0000
0100
0000
,  // measure 55
0001
0010
0100
1000
0001
0100
0010
1000
,  // measure 56
0001
0000
0000
0001
0000
0000
0100
0000
0001
0000
0010
0000
0100
0000
1000
0000
,  // measure 57
0010
1000
0100
0010
0001
0100
0001
0010
,  // measure 58
0001
0000
1000
0000
0010
0000
1000
0100
1000
0000
0001
0100
0001
0000
0010
0000
,  // measure 59
0100
1000
0010
0100
0001
1000
0010
1000
,  // measure 60
0100
0000
0000
0100
0000
0000
0010
0000
0001
0000
0100
0000
0001
0000
0010
0000
,  // measure 61
0100
0000
1000
0000
0001
0010
0100
0000
,  // measure 62
0000
0000
0000
0010
1000
0010
1000
0010
1000
0000
0010
0100
0000
0000
0000
0000
;

//---------------dance-single - ----------------
#NOTES:
     dance-single:
     X-Scale 6:
     Easy:
     4:
     0.336097,0.396914,0.168048,0.216062,0.000000,294.000000,273.000000,21.000000,27.000000,0.000000,0.000000,0.336097,0.396914,0.168048,0.216062,0.000000,294.000000,273.000000,21.000000,27.000000,0.000000,0.000000:
// measure 0
0000
0000
0000
0000
,  // measure 1
0000
0000
0000
0000
,  // measure 2
0000
0000
0000
0000
,  // measure 3
0000
0000
0000
0000
,  // measure 4
0000
0000
0000
0000
,  // measure 5
2000
0000
3002
0000
1003
0010
0200
0000
,  // measure 6
0302
0000
0000
1000
1003
0100
0010
0100
,  // measure 7
2000
0000
3002
0000
1003
0010
0200
0000
,  // measure 8
0302
0000
0000
1000
2003
3000
0000
0002
,  // measure 9
2003
0000
3002
0000
1003
0010
0200
0000
,  // measure 10
0302
0000
0000
1000
1003
0100
0010
0100
,  // measure 11
2000
0000
3002
0000
1003
0010
0200
0000
,  // measure 12
0302
0000
0000
1000
2003
3000
0000
0002
,  // measure 13
0003
0000
0000
0000
,  // measure 14
1001
1000
0100
1000
,  // measure 15
0100
0010
0001
0010
,  // measure 16
0001
0100
0001
0100
,  // measure 17
0010
1000
0010
1000
,  // measure 18
0001
0010
0001
0010
,  // measure 19
0100
1000
0100
1000
,  // measure 20
0010
0100
0010
0100
,  // measure 21
0001
1000
0001
1000
,  // measure 22
1001
0002
0010
0000
1000
0000
0013
0100
,  // measure 23
1000
0000
0010
0000
1000
0000
0001
0100
,  // measure 24
0010
2000
0001
0000
0100
0000
3001
0000
,  // measure 25
1000
0000
0100
0000
0010
0100
1000
0001
,  // measure 26
1000
1001
0010
0101
,  // measure 27
0001
1001
0100
1010
,  // measure 28
1000
0100
0010
0001
0100
0010
1000
0001
,  // measure 29
0100
0010
1000
0001
,  // measure 30
0000
1010
0010
0101
,  // measure 31
0100
0000
1100
0100
1000
0000
1001
0000
,  // measure 32
0001
0000
0011
0001
0100
0000
0110
0000
,  // measure 33
1000
0000
1010
0001
0100
0000
0101
0000
,  // measure 34
0001
1001
0100
1100
,  // measure 35
0001
1001
0100
1010
,  // measure 36
0001
0011
0010
0101
,  // measure 37
0000
0000
0000
0000
,  // measure 38
1000
0100
0010
0001
,  // measure 39
1000
0000
0100
0000
0010
0000
0001
1000
,  // measure 40
0001
0100
0010
1000
,  // measure 41
0001
0100
0010
1000
,  // measure 42
0001
0010
0100
0000
0010
0000
0001
1000
,  // measure 43
0001
0010
0100
0000
0010
0000
0001
1000
,  // measure 44
0001
0010
0100
0000
0010
0000
0001
0000
,  // measure 45
1000
0100
0001
0100
2000
0000
0000
0000
,  // measure 46
0020
0000
0000
0000
0000
0000
0000
3030
,  // measure 47
1010
0000
1000
0000
0001
0010
0100
0000
,  // measure 48
0010
0000
0001
0000
1000
0010
0100
0010
,  // measure 49
1000
0000
0001
0000
0010
0100
1000
0000
,  // measure 50
0001
0000
1000
0010
0100
0010
1000
0100
,  // measure 51
0010
0000
0001
0000
1000
0001
0100
0000
,  // measure 52
0010
0000
0100
0000
0001
0010
1000
0010
,  // measure 53
0001
0000
1000
0000
0100
0010
0001
0000
,  // measure 54
1000
0000
0001
0100
0010
0100
0001
0010
,  // measure 55
0100
0000
0010
0100
1000
0000
0001
1000
,  // measure 56
0010
0000
0100
0010
1000
0100
0001
0100
,  // measure 57
1000
0000
0001
0010
0100
0000
0010
0100
,  // measure 58
1000
0000
0001
1000
0010
1000
0001
0100
,  // measure 59
0010
0000
1000
0001
0100
0000
0010
0100
,  // measure 60
0001
0000
0010
0100
1000
0000
0001
1000
,  // measure 61
0200
0000
2300
0000
3001
0010
0200
0000
,  // measure 62
0300
0000
0000
0000
;
