#TITLE:피노키오;
#SUBTITLE:(Danger);
#ARTIST:f(x);
#TITLETRANSLIT:Pinocchio;
#SUBTITLETRANSLIT:;
#ARTISTTRANSLIT:;
#GENRE:K-Pop;
#CREDIT:;
#BANNER:Pinocchio (Danger)-bn.png;
#BACKGROUND:Pinocchio (Danger)-bg.png;
#LYRICSPATH:;
#CDTITLE:cdtitle.png;
#MUSIC:Pinocchio (Danger).ogg;
#OFFSET:-0.389000;
#SAMPLESTART:42.580002;
#SAMPLELENGTH:16.271000;
#SELECTABLE:YES;
#BPMS:0.000000=118.000000
;
#STOPS:
;
#BGCHANGES:3.000=Pinocchio (Danger).avi=1.000=0=0=0=StretchNoLoop====,
99999=-nosongbg-=1.000=0=0=0 // don't automatically add -songbackground-
;
#KEYSOUNDS:;
#ATTACKS:;

//---------------dance-single - ----------------
#NOTES:
     dance-single:
     X-Scale 12:
     Hard:
     8:
     0.540491,0.562453,0.198221,0.163748,0.185294,439.000000,416.000000,23.000000,19.000000,0.000000,0.000000,0.540491,0.562453,0.198221,0.163748,0.185294,439.000000,416.000000,23.000000,19.000000,0.000000,0.000000:
0000
0000
0000
0000
,
1001
0000
0001
0001
0001
0001
0011
0000
,
0010
0000
0100
0000
1000
0000
0000
0100
0010
0000
0100
0000
1000
0000
0000
0000
,
1001
0000
0001
0000
0100
0000
0000
0010
0100
0000
0001
0000
0010
0000
0000
0000
,
0011
0000
1000
0100
1000
0000
1100
0100
,
0010
0001
0100
0010
0100
0001
0000
1000
,
1000
0100
0001
0100
1000
0001
0100
0001
,
1000
0100
0001
0100
0010
0001
0000
1000
,
0010
1000
0001
0100
0010
0100
0001
0010
,
1000
0010
0100
1000
0002
0000
0103
0001
,
1000
0001
0010
0010
0010
0010
0100
0010
,
0001
1000
0010
0001
0010
1000
0100
0010
,
0100
0000
0000
1000
0000
0000
0001
0000
0010
0000
0100
0000
1000
0000
0000
0000
0000
0000
1001
0000
0000
0000
0000
0000
,
0110
0000
0100
0001
1000
0001
0010
1000
,
0010
0001
0100
0010
0100
0001
1001
0000
,
0110
0000
0001
0010
1000
0010
0001
0100
,
0010
0000
0100
0000
0001
0000
0000
1000
0100
0000
1000
0000
1100
0000
0000
0000
,
0101
0000
0001
1000
0100
1000
0001
0010
,
0100
0010
0022
0033
2020
3030
1000
0010
,
1000
0010
0001
0010
0100
0010
1000
0001
,
0100
0000
0010
0000
0110
0000
0000
0101
0000
0000
0021
0000
0001
0000
0001
0000
,
0100
0100
0130
0000
1000
1000
1000
0001
,
1000
0000
0001
0010
0100
0000
0000
0000
0010
0000
0010
0000
0001
0000
0001
0000
,
0010
0100
2000
0000
3100
1000
0001
0010
,
0100
0010
0001
1000
0100
2000
0001
0001
,
0010
0010
3001
0000
1000
1000
0100
1000
,
0001
0000
0010
0100
0010
0000
0001
0000
0100
0000
0100
0000
0001
0000
0010
0000
,
0001
0000
1000
0100
1000
0000
0001
0000
0100
0000
1000
0000
0100
0000
0001
0000
,
0010
1000
0010
0100
0010
0001
0000
0001
,
0100
0001
1000
0001
0010
0000
0100
1000
0000
0000
0001
0000
0100
0000
0010
0100
,
0001
1000
0100
0000
0010
0100
0000
0010
0000
0000
0001
0000
1000
0000
0100
0010
,
0001
0000
1000
0000
0001
0000
0010
0001
0000
0000
1000
0000
0010
1000
0001
0010
,
0100
0010
0001
1000
0001
0000
0100
0010
0000
0000
1000
0000
1001
0000
0000
0000
,
0101
0100
0010
0100
0001
0010
0000
0001
,
1000
0100
1000
0000
1100
0000
0100
0000
,
1000
0001
0100
0001
1000
0100
0010
0000
,
0101
0000
0000
0000
0001
0000
0000
1000
0001
0000
0001
0000
0011
0000
0000
0000
,
0010
0100
1000
0001
1000
0010
1000
0001
,
0100
0001
1000
0000
0010
0000
0000
0100
0010
0000
1000
0000
0100
0000
0000
0000
,
0010
0100
1000
0001
0100
0001
1000
0100
,
0020
0000
0000
0000
0130
0000
0000
0010
0001
0000
1000
0000
0001
0000
0100
0010
,
0100
0000
0001
0000
1000
0000
0010
0000
1000
0000
0001
0000
1000
0000
0100
1000
,
0100
0000
0010
0000
1000
0000
0010
0000
0001
0000
0010
0000
0100
0000
1000
0100
,
1000
0000
0000
0001
0000
0000
0100
0000
0000
0001
0000
0000
0010
0000
0000
0100
0000
0000
1000
0000
0010
0000
0001
0000
,
1000
0000
0100
0000
0001
0000
0101
0000
0000
0000
0000
0000
0000
0000
0000
0000
0000
0000
0001
0000
0000
0010
0000
0000
,
0001
0010
0100
0000
1000
1000
0100
0001
,
0100
0001
0100
0010
0100
1000
1100
1000
,
0001
0100
0020
0000
0031
0010
1000
0001
,
0010
0000
0001
0000
1000
0000
0000
0100
1000
0000
0002
0000
0100
0000
0100
0000
,
1000
1000
0013
0000
0100
0100
0010
0001
,
1000
0000
0001
0010
0100
0000
0010
0000
0001
0000
1000
0000
0010
0000
0100
0000
,
0001
0000
1000
0010
1000
0000
0100
0000
1000
0000
0001
0000
0010
0000
1000
0000
,
0010
0001
1000
0100
0001
0100
1000
0000
,
0000
0200
0320
0031
,
0000
0000
0001
0000
0010
0000
0001
2000
0000
0000
3000
0000
0100
0000
0000
0000
,
0000
0000
0000
0000
1000
0000
0100
0000
1000
0200
0300
0020
0000
0030
0001
0000
,
0010
0002
0003
2000
0000
3000
0100
0000
1000
0002
0000
0000
0003
0000
0000
0000
;

//---------------dance-single - ----------------
#NOTES:
     dance-single:
     X-Scale 9:
     Medium:
     6:
     0.392749,0.391271,0.180985,0.232694,0.034473,319.000000,298.000000,21.000000,27.000000,0.000000,0.000000,0.392749,0.391271,0.180985,0.232694,0.034473,319.000000,298.000000,21.000000,27.000000,0.000000,0.000000:
0000
0000
0000
0000
,
0000
0000
0000
1001
,
1000
0000
0000
0000
0001
0000
0000
0010
0000
0000
0001
0000
1000
0000
0000
0000
,
1100
0000
0000
0000
0100
0000
0000
0010
0000
0000
0001
0000
0100
0000
0000
0000
,
0101
0000
0000
0001
1001
0000
1000
0000
,
0100
0000
1000
0001
0100
0001
1000
0000
,
0010
0000
0100
0001
1000
0001
0100
0000
,
0001
0000
0010
0100
1000
0100
0010
0000
,
0001
0000
1000
0001
0100
0001
1000
0000
,
0100
0000
0010
0100
2000
0000
3001
0000
,
1000
0000
0100
0010
0100
0010
0100
0000
,
1000
0000
0001
0100
0010
0100
0001
0000
,
0010
0100
1000
1100
,
1001
0000
0001
0100
0001
0000
0100
0010
,
0100
0000
0001
0010
0001
0000
0011
0000
,
1001
0000
1000
0100
1000
0000
0001
0010
,
0001
0000
1000
0000
0100
0010
0110
0000
,
0101
0000
0001
0100
0001
0000
1000
0010
,
1000
0000
1100
0000
0011
0000
0001
0100
,
0001
0000
0010
0100
0010
0000
0001
1000
,
0001
0000
0000
0000
1001
0000
0000
1000
0000
0000
0100
0000
1100
0000
0000
0000
,
1000
0001
1000
0000
0010
0000
0100
0001
,
0100
0001
0010
0000
0100
0000
1000
1000
,
1000
0100
0010
0000
0001
0010
0100
0000
,
1000
0000
0001
0100
0001
0000
0001
0000
,
1000
0010
1000
0000
0100
0000
0010
0001
,
1000
0001
0010
0000
0100
0100
1000
0001
,
0100
0000
0001
0010
0100
1000
0000
0100
,
0000
0001
0000
0010
0000
1000
0000
0000
,
0010
0100
0010
0100
0000
0001
0010
0001
,
0010
0001
0000
0000
1001
0000
1000
0000
,
1010
0010
1000
0010
0000
0100
0010
0100
,
0010
0100
0000
0001
1000
0001
1001
0000
,
1000
0100
0020
0000
0032
1000
0003
0100
,
0020
0000
2030
0000
3001
0010
1000
0010
,
0002
0010
0013
0010
1001
1000
0002
0000
,
0203
0000
0301
0000
0010
0100
2000
0000
,
3010
1000
0001
0010
0100
2000
0010
0000
,
0100
0000
0000
0000
3010
0000
0000
0010
1000
0000
0100
0000
0020
0000
0000
0000
,
1030
0010
0001
0100
0010
2000
0000
3001
,
0200
0000
0000
0000
1000
0000
0000
0010
0000
0000
0001
0000
0301
0000
0100
0000
,
0010
0100
0001
0100
0010
1000
0000
1000
,
0100
0001
0100
1000
0000
0010
0100
0001
,
1000
0000
0000
0100
0000
0000
0010
0000
0000
0001
0000
0000
0100
0000
0000
0020
0000
0000
0001
0000
0000
0000
0100
0000
,
0100
0000
0000
0000
1000
0000
1000
0000
0000
0000
0000
0000
0000
0000
0000
0030
0000
0000
1000
0000
0000
0010
0000
0000
,
1000
0010
1000
0000
0100
0100
0010
0001
,
0010
0001
0100
0000
1001
0000
1100
1000
,
1000
0000
0002
0000
0013
0100
1000
0000
,
1001
0000
0000
0000
0001
0000
0000
0010
0000
0000
0001
0000
1000
0000
0000
0000
,
0010
1000
0002
0000
0103
0000
0001
0000
,
1000
0100
0020
0000
0031
0001
0001
0000
,
0100
0000
0010
1000
0001
2000
0000
3200
,
0000
0302
0000
0023
0000
2030
0002
3000
,
0000
0023
0000
0230
,
0000
0000
0000
2300
,
0000
0020
0000
0000
,
0000
0000
0000
3030
;

//---------------dance-single - ----------------
#NOTES:
     dance-single:
     X-Scale 6:
     Easy:
     4:
     0.273324,0.312306,0.043092,0.103420,0.000000,222.000000,217.000000,5.000000,12.000000,0.000000,0.000000,0.273324,0.312306,0.043092,0.103420,0.000000,222.000000,217.000000,5.000000,12.000000,0.000000,0.000000:
0000
0000
0000
0000
,
0000
0000
0000
0110
,
0100
0001
1000
0100
,
1000
0001
0010
0001
,
1000
0000
0000
0001
1000
0000
0001
0000
,
0100
0000
0001
0000
1000
0010
1000
0000
,
0010
0000
0100
0001
0100
0000
0001
0000
,
0010
0100
0010
0000
0001
0100
0001
0000
,
1000
0000
0010
1000
0001
1000
0010
0000
,
1000
0000
0100
0000
1000
0010
1000
0000
,
0001
0000
0100
0010
0100
0000
0001
0000
,
1000
0000
0010
0000
1000
0001
1000
0000
,
0100
0000
0010
0000
0001
0010
0200
0000
,
2300
3100
0010
0001
,
1000
0000
0010
0000
1000
0100
0020
0000
,
0032
1003
0010
1000
,
0001
0000
0010
0000
0001
1000
0020
0000
,
0230
0310
1000
0001
,
1000
0100
1000
0001
,
0100
0001
1000
0010
,
1000
0001
0000
1001
,
1000
1000
0001
0010
,
0010
0000
0001
0000
0100
0000
0010
0100
,
0010
0000
1000
0000
0001
1000
0001
0000
,
0100
0010
1000
0001
,
0001
0100
0010
1000
,
1000
0000
0100
0000
0010
0000
0001
0010
,
0001
0000
1000
0000
0010
1000
0000
0001
,
0000
0100
0000
0010
0000
1000
0000
0000
,
0001
0000
1000
0000
,
0001
0000
1000
0000
,
0100
0000
0010
0000
,
0100
0000
0010
0110
,
0100
1000
0001
0100
,
0001
1000
0100
0010
,
0001
0010
0100
1000
,
0001
0100
0001
2000
,
0001
0100
0001
3020
,
0100
1000
0100
2030
,
0100
0001
0100
3002
,
0010
0100
0010
0103
,
0001
1000
0001
0000
1001
0000
1000
0000
,
0100
0010
0100
0000
0110
0000
0100
0000
,
1000
0010
1000
0000
0001
0020
0100
0000
,
0000
0002
0000
0033
,
0000
0000
0000
0000
,
0000
0000
0000
0001
0100
0001
0100
0000
,
0010
1000
0100
0010
,
0100
0000
1000
0001
1000
0000
0100
0000
,
0010
0001
1000
0010
,
1000
0000
0001
0000
0010
0000
0100
0010
,
0100
0000
1000
0000
0001
1000
0000
0010
,
0000
0100
0000
0010
0000
1000
0001
0000
,
0000
0010
0000
0001
,
0000
0000
0000
1000
,
0000
0010
0000
1000
;

//---------------dance-single - ----------------
#NOTES:
     dance-single:
     X-Scale 3:
     Beginner:
     2:
     0.120656,0.141556,0.025855,0.000000,0.000000,98.000000,95.000000,3.000000,0.000000,0.000000,0.000000,0.120656,0.141556,0.025855,0.000000,0.000000,98.000000,95.000000,3.000000,0.000000,0.000000,0.000000:
// measure 0
0000
0000
0000
0000
,  // measure 1
0000
0000
0000
0000
,  // measure 2
0000
0000
0000
0000
,  // measure 3
0000
0000
0000
0000
,  // measure 4
0000
0000
0000
0000
,  // measure 5
1000
0000
0001
0000
,  // measure 6
1000
0000
0001
0000
,  // measure 7
0100
0000
0010
0000
,  // measure 8
0100
0000
0010
0000
,  // measure 9
1000
0000
0001
0000
,  // measure 10
1000
0000
0010
0000
,  // measure 11
1000
0000
0001
0000
,  // measure 12
1000
0000
0000
0001
,  // measure 13
1000
0001
0000
0010
,  // measure 14
0000
0100
0000
1000
,  // measure 15
0001
1000
0000
0010
,  // measure 16
0000
0100
0000
0001
,  // measure 17
0100
0001
0000
0010
,  // measure 18
0000
0100
0000
1000
,  // measure 19
0000
0100
0000
0010
,  // measure 20
0000
0001
0000
1001
,  // measure 21
0000
1000
0000
0010
,  // measure 22
0000
1000
0000
0001
,  // measure 23
0000
0100
0000
0001
,  // measure 24
0000
0010
0000
0001
,  // measure 25
0000
0100
0000
0010
,  // measure 26
0000
1000
0000
0100
,  // measure 27
0000
1000
0000
0001
,  // measure 28
0000
1000
0000
0000
,  // measure 29
0001
0000
1000
0000
,  // measure 30
0001
0000
1000
0000
,  // measure 31
0010
0000
0100
0000
,  // measure 32
0010
0000
0100
0000
,  // measure 33
0001
0000
1000
0000
,  // measure 34
0001
0000
1000
0000
,  // measure 35
0100
0000
0010
0000
,  // measure 36
0100
0000
0010
0000
,  // measure 37
0001
0000
0100
0000
,  // measure 38
0001
0000
1000
0000
,  // measure 39
0001
0000
0100
0000
,  // measure 40
0001
0000
0010
0000
,  // measure 41
0100
0000
1000
0000
,  // measure 42
0100
0000
0010
0000
,  // measure 43
0001
0000
1000
0000
,  // measure 44
0000
1001
0000
0000
,  // measure 45
0000
0000
0000
0000
,  // measure 46
0000
0000
1001
0000
,  // measure 47
1000
0000
0001
0000
,  // measure 48
0100
0000
0001
0000
,  // measure 49
1000
0000
0100
0000
,  // measure 50
0010
0000
0100
0000
,  // measure 51
1000
0000
0001
0000
,  // measure 52
0100
0000
0000
0001
,  // measure 53
0000
0000
0000
0000
,  // measure 54
0000
0000
0000
1000
;
