#VERSION:0.83;
#TITLE:Pick Me Up;
#SUBTITLE:;
#ARTIST:Emilia de Poret;
#TITLETRANSLIT:;
#SUBTITLETRANSLIT:;
#ARTISTTRANSLIT:;
#GENRE:Pop;
#ORIGIN:;
#CREDIT:;
#BANNER:pmu-bn.png;
#BACKGROUND:pmu-bg.png;
#PREVIEWVID:;
#JACKET:pmu-jacket.png;
#CDIMAGE:;
#DISCIMAGE:;
#LYRICSPATH:;
#CDTITLE:cdtitle.png;
#MUSIC:pick me up.ogg;
#OFFSET:-0.050000;
#SAMPLESTART:45.169998;
#SAMPLELENGTH:15.000000;
#SELECTABLE:YES;
#BPMS:0.000=125.000;
#STOPS:;
#DELAYS:;
#WARPS:;
#TIMESIGNATURES:0.000=4=4;
#TICKCOUNTS:0.000=4;
#COMBOS:0.000=1;
#SPEEDS:0.000=1.000=0.000=0;
#SCROLLS:0.000=1.000;
#FAKES:;
#LABELS:0.000=Song Start;
#BGCHANGES:0.000=pick me up.avi=1.000=1=0=0=StretchNoLoop==CrossFade==,
99999=-nosongbg-=1.000=0=0=0 // don't automatically add -songbackground-
;
#KEYSOUNDS:;
#ATTACKS:
;

//---------------dance-single - ----------------
#NOTEDATA:;
#CHARTNAME:;
#STEPSTYPE:dance-single;
#DESCRIPTION:;
#CHARTSTYLE:;
#DIFFICULTY:Easy;
#METER:3;
#RADARVALUES:0.323811,0.361409,0.201482,0.172699,0.000000,315.000000,287.000000,28.000000,24.000000,0.000000,0.000000,0.000000,0.000000,0.000000,0.323811,0.361409,0.201482,0.172699,0.000000,315.000000,287.000000,28.000000,24.000000,0.000000,0.000000,0.000000,0.000000,0.000000;
#CREDIT:;
#NOTES:
0000
0000
0000
0000
,
0000
0000
0000
0000
,
0000
0000
0000
0000
,
0000
0000
0000
0000
,
1001
0000
1000
0001
0000
0000
1000
0000
,
1001
0000
0010
0100
0000
0000
0010
0000
,
0110
0000
0100
0001
0000
0000
0100
0000
,
0101
0000
0010
1000
0000
0000
0010
0000
,
1010
0000
0100
0010
0000
0010
0000
0000
,
0110
0000
1000
0001
0000
0001
0000
0000
,
1001
0000
0010
1000
0000
1000
0000
0000
,
1010
0000
0010
0100
0000
0100
0000
0000
,
0110
0000
0001
1000
0000
1000
0000
0000
,
1001
0000
1000
0010
0000
0010
0000
0000
,
1010
0000
0100
0001
0000
0001
0000
0000
,
0101
0000
0010
0100
0000
0100
0000
0000
,
0110
0000
0100
0000
0001
0000
0001
1000
,
0001
0000
0010
0000
0100
0000
1000
0100
,
0000
0000
1000
0010
0000
0000
0100
0000
,
0110
0000
1000
0010
0000
0010
0000
0000
,
0110
0000
0010
0100
0000
0001
0000
0000
,
1000
0000
0010
0000
0100
0000
0001
0100
,
0101
0000
0010
1000
0000
1000
0000
0000
,
1001
0000
1000
0000
0100
0000
0010
0002
,
1000
0000
0003
0000
0100
0000
0010
2000
,
0001
0000
3000
0000
0001
0000
1000
0002
,
0100
0003
0010
0010
,
0110
0000
0100
0010
0100
0000
0010
2000
,
0001
0000
3000
0000
0010
0000
1000
0200
,
0010
0000
0300
0000
1000
0000
0100
0020
,
0001
0030
0100
0100
,
0110
0000
0001
1000
0010
0000
0010
0000
,
1010
0000
0100
0000
0001
0000
0010
0100
,
1000
0000
0010
0000
0100
0000
0001
1000
,
1001
0000
0010
0100
0000
0000
0100
0002
,
0000
0000
0010
0003
0001
0000
1000
0200
,
0010
0000
0300
0000
0000
0100
0010
0001
,
0000
0001
0100
0010
1000
0000
1000
0000
,
1010
0000
0010
0100
0000
0001
0100
0010
,
0000
0010
1000
0100
0010
0000
0010
0000
,
0110
0000
0100
0000
0100
1000
0000
0010
,
0000
0100
0000
0010
0000
1000
0000
0020
,
0000
0000
0030
0000
0000
0010
0100
0001
,
0000
0100
0000
0010
0000
1000
0000
0002
,
0000
0000
0003
0000
0100
0001
0000
0010
,
0000
0100
0000
2000
0000
3000
0010
0020
,
0000
0000
0030
0000
0000
0010
0100
0001
,
0000
0010
0000
0100
0000
1000
0000
0020
,
0000
0000
0030
0010
0000
0100
0000
0200
,
0000
0000
0000
0301
0000
1000
0000
2000
,
0000
0000
0000
3000
0000
0000
0000
0000
,
0100
0000
0010
0000
1000
0100
1000
0200
,
1000
0000
0300
0000
1000
0000
0100
0020
,
0001
0000
0030
0000
0100
0000
0001
0020
,
0100
0030
1000
1000
,
1010
0000
0100
0001
0010
0000
0100
2000
,
0001
0000
3000
0000
1000
0000
0100
0020
,
0001
0000
0030
0000
0001
0000
0100
0020
,
1000
0030
1000
1000
,
1010
0000
0010
0100
0001
0000
0001
0000
,
1001
0000
0010
0000
1000
0000
1000
0100
,
0010
0000
0001
0000
0100
0000
0010
0010
,
0000
0000
0100
0100
0000
0000
0010
2000
,
0000
0000
0010
3000
0010
0000
0100
0002
,
0000
0000
0003
0001
0000
1000
0100
0010
,
0000
0010
0100
0010
0001
0000
0010
0000
,
0011
0000
0001
0010
0000
0001
1000
0100
,
0000
0100
1000
0001
1000
0000
1000
0200
,
0000
0000
0300
1000
0000
0010
0100
0001
,
0000
0010
0100
0010
0001
0000
0001
0000
,
0011
0000
0001
0010
0000
0100
1000
0001
,
0000
0100
0010
0100
;

//---------------dance-single - ----------------
#NOTEDATA:;
#CHARTNAME:;
#STEPSTYPE:dance-single;
#DESCRIPTION:;
#CHARTSTYLE:;
#DIFFICULTY:Beginner;
#METER:2;
#RADARVALUES:0.218958,0.258149,0.172699,0.266245,0.000000,213.000000,189.000000,24.000000,37.000000,0.000000,0.000000,0.000000,0.000000,0.000000,0.218958,0.258149,0.172699,0.266245,0.000000,213.000000,189.000000,24.000000,37.000000,0.000000,0.000000,0.000000,0.000000,0.000000;
#CREDIT:;
#NOTES:
0000
0000
0000
0000
,
0000
0000
0000
0000
,
0000
0000
0000
0000
,
0000
0000
0000
0000
,
1001
0000
0000
1000
0000
0000
0010
0000
,
1010
0000
0000
0010
0000
0000
0100
0000
,
0110
0000
0000
0100
0000
0000
0001
0000
,
0101
0000
0000
0001
0000
0020
0030
0000
,
0011
0000
0000
0001
0000
0001
0000
0000
,
1000
0000
0001
0000
0100
0000
0010
2000
,
0000
0000
3000
0200
0000
0000
0300
0020
,
0000
0000
0030
0002
0000
0200
0303
0000
,
0101
0000
0000
1000
0000
1000
0000
0000
,
1100
0000
1000
0000
0010
0000
0100
0200
,
0000
0000
0300
0001
0000
0001
0000
0000
,
0101
0000
0000
1000
0000
2000
3000
0000
,
0001
0001
0001
0000
,
1000
0000
1000
0000
1000
0000
0010
0100
,
0000
0000
0001
1000
0000
0000
0000
0200
,
0000
0000
0300
0010
0000
0020
0030
0000
,
0110
0000
1000
0100
,
0010
0001
0010
0100
,
1001
0000
0000
0001
0000
1000
0000
0000
,
0000
0000
1000
0000
0100
0000
0010
0020
,
0000
0000
0030
0000
0100
0000
1000
2000
,
0000
0000
3000
0000
0001
0000
0010
0020
,
0000
0030
0100
0100
,
0110
0000
0000
0000
0010
0000
0100
0200
,
0000
0000
0300
0000
0010
0000
0001
0002
,
0000
0000
0003
0000
1000
0000
0001
0002
,
0000
0003
0100
0100
,
0110
0000
0010
0010
,
0110
0000
0000
0010
0000
0000
1000
0000
,
1000
0000
0000
0001
0000
0000
0100
0000
,
0101
0000
0000
0001
0000
0000
1000
0020
,
0000
0000
0000
0030
1000
0000
0001
0200
,
0000
0300
0000
0001
,
0001
0000
0000
1000
0000
0000
0100
0000
,
1100
0000
0000
0100
0000
0000
1000
0000
,
0001
0000
0000
0000
0100
0000
0100
0002
,
0100
0000
0000
0000
0000
0000
0000
0003
,
2000
0000
0000
0000
0000
0000
0000
3000
,
0020
0000
0000
0000
0000
0000
0000
0030
,
0200
0000
0000
0001
0000
0001
0000
0301
,
0020
0000
0000
0000
0000
0000
0000
0030
,
0200
0000
0000
0000
0000
0000
0000
0300
,
2000
0000
0000
0000
0000
0000
0000
3000
,
0020
0000
0000
1000
0000
1000
0000
1030
,
0002
0000
0000
0000
0000
0000
0000
0003
,
0200
0000
0000
0000
0000
0000
0000
0300
,
0110
0000
0000
0000
,
0000
0000
0000
0000
1000
0001
1000
0002
,
0000
0000
0003
0000
1000
0000
0010
0020
,
0000
0000
0030
0000
0100
0000
0001
0002
,
0000
0003
0010
0010
,
0011
0000
0000
0000
0010
0000
0100
0200
,
0000
0000
0300
0000
0100
0000
1000
2000
,
0000
0000
3000
0000
0100
0000
0010
0020
,
0000
0030
0001
0001
,
0101
0000
1000
1000
,
1010
0000
0000
0100
0000
0000
0001
0000
,
1000
0000
0000
0100
0000
0000
0010
0000
,
0110
0000
0000
0001
0000
0000
0010
0200
,
0000
0000
0300
0000
1000
0000
0001
0002
,
0000
0003
0000
1000
,
0001
0000
0010
0010
,
0011
0000
0000
0100
0000
0000
0010
0000
,
0110
0000
0000
0001
0000
0000
0100
0020
,
0000
0030
0000
0110
,
1000
0000
0100
1000
,
1100
0000
0000
0100
0000
0000
0010
0000
,
0000
0100
0010
0001
;

//---------------dance-single - ----------------
#NOTEDATA:;
#CHARTNAME:;
#STEPSTYPE:dance-single;
#DESCRIPTION:;
#CHARTSTYLE:;
#DIFFICULTY:Medium;
#METER:5;
#RADARVALUES:0.430720,0.464669,0.194287,0.187091,0.000000,419.000000,392.000000,27.000000,26.000000,0.000000,0.000000,0.000000,0.000000,0.000000,0.430720,0.464669,0.194287,0.187091,0.000000,419.000000,392.000000,27.000000,26.000000,0.000000,0.000000,0.000000,0.000000,0.000000;
#CREDIT:;
#NOTES:
// measure 0
0000
0000
0000
0000
,  // measure 1
0000
0000
0000
0000
,  // measure 2
0000
0000
0000
0000
,  // measure 3
0000
0000
0000
0000
,  // measure 4
1001
0000
1000
0001
0000
0100
0010
0000
,  // measure 5
0110
0000
0010
0100
0000
0001
1000
0000
,  // measure 6
1001
0000
0001
0010
0000
0100
1000
0000
,  // measure 7
1100
0000
1000
0100
0000
0010
0001
0000
,  // measure 8
0011
0000
0001
1000
1000
0100
0010
0001
,  // measure 9
0011
0000
1000
0001
0100
0001
1000
1000
,  // measure 10
1100
0000
0010
0010
0000
1000
1000
0000
,  // measure 11
1010
0000
0100
0100
0000
0001
0001
0000
,  // measure 12
0011
0000
0001
1000
0000
1000
0100
0010
,  // measure 13
0100
0010
0001
0010
0100
0010
0100
1000
,  // measure 14
1100
0000
0100
0100
0000
1000
1000
0000
,  // measure 15
1100
0000
0010
0010
0000
0001
0001
0000
,  // measure 16
0011
0000
0001
0010
0100
0000
0100
1000
,  // measure 17
0001
0000
0100
0010
1000
0000
1000
0100
,  // measure 18
1100
0000
1000
0010
0000
0100
0001
0000
,  // measure 19
1001
0000
0001
0100
0000
0010
1000
0010
,  // measure 20
1010
0000
1000
0100
0010
0100
0010
0001
,  // measure 21
0010
0000
0001
1000
0001
0000
0100
0010
,  // measure 22
0110
0000
0010
1000
0000
0001
0000
0000
,  // measure 23
0100
0000
0010
0000
0010
1000
0100
0020
,  // measure 24
0001
0000
0031
0001
0100
0000
0010
2000
,  // measure 25
0100
0000
3010
0010
1000
0000
0010
2000
,  // measure 26
0100
0000
3001
1000
0010
0000
0010
0000
,  // measure 27
0110
0000
0100
0001
0100
0010
0001
0200
,  // measure 28
0010
0000
0310
0010
0010
0000
0001
0002
,  // measure 29
0100
0000
1003
1000
0100
0000
0010
0002
,  // measure 30
0100
0000
1003
1000
0001
0000
0001
0000
,  // measure 31
1001
0000
0100
1000
0010
1000
0100
0010
,  // measure 32
0011
0000
0100
0100
0001
0000
0010
0100
,  // measure 33
1000
0000
0010
0010
0100
0000
0100
0001
,  // measure 34
0101
0000
0001
0100
0000
0000
0100
0002
,  // measure 35
0100
0000
0010
0003
0010
1000
0100
2000
,  // measure 36
0100
0000
3010
0010
0000
0100
0010
1000
,  // measure 37
0001
1000
0100
0010
0100
0000
0100
0000
,  // measure 38
0110
0000
1000
0100
0000
0010
0100
1000
,  // measure 39
0001
1000
0010
0100
0001
0000
0001
0000
,  // measure 40
0101
0000
0010
1000
0100
0010
0001
0010
,  // measure 41
0100
1000
0001
0100
0000
0010
0100
0002
,  // measure 42
1000
0000
0103
0100
0000
0001
1000
0010
,  // measure 43
0100
0010
1000
0001
0000
0010
0000
0020
,  // measure 44
0100
0000
0030
0000
0100
1000
0100
0010
,  // measure 45
0001
0010
0100
2000
0000
3000
0010
0020
,  // measure 46
0000
0000
0130
0100
0000
0010
0100
0001
,  // measure 47
0000
0010
0000
0100
0000
1000
0000
0020
,  // measure 48
0000
0000
0130
0100
0000
0001
0000
0200
,  // measure 49
0000
0000
0010
0310
0000
0100
0000
0002
,  // measure 50
1000
0100
1003
0001
,  // measure 51
1000
0000
0010
0000
0001
1000
0010
0200
,  // measure 52
0001
0000
0310
0010
1000
0000
0010
0200
,  // measure 53
0001
0000
0301
0001
0100
0000
0001
0200
,  // measure 54
0010
0000
0310
0010
1000
0000
1000
0000
,  // measure 55
1010
0000
0100
0001
0010
0001
0100
0020
,  // measure 56
1000
0000
0130
0100
0010
0000
0100
0002
,  // measure 57
0010
0000
0013
0010
0100
0000
1000
0020
,  // measure 58
0100
0000
0130
0010
1000
0000
0100
0000
,  // measure 59
1100
0000
1000
0010
1000
0001
0010
0100
,  // measure 60
0110
0000
0010
0100
1000
0000
1000
0100
,  // measure 61
0010
0000
0001
0010
0100
0000
1000
0020
,  // measure 62
0100
0030
0010
0200
0000
0300
0001
2000
,  // measure 63
0000
0000
0010
3000
0010
1000
0100
2000
,  // measure 64
0010
0000
3010
0010
0000
0100
1000
0010
,  // measure 65
1000
0100
1000
0010
1000
0000
0001
0000
,  // measure 66
1001
0000
1000
0001
0000
1000
0001
0100
,  // measure 67
0001
1000
0001
0010
0001
1000
0100
0020
,  // measure 68
0100
0000
0130
0100
0000
0010
0001
0100
,  // measure 69
0010
1000
0001
0010
0001
0000
0001
0000
,  // measure 70
0011
0000
0001
0010
0000
0100
1000
0010
,  // measure 71
0000
0010
0100
0001
1000
0000
1000
0000
;

//---------------dance-single - ----------------
#NOTEDATA:;
#CHARTNAME:;
#STEPSTYPE:dance-single;
#DESCRIPTION:;
#CHARTSTYLE:;
#DIFFICULTY:Hard;
#METER:8;
#RADARVALUES:0.495482,0.490484,0.187091,0.143916,0.050371,482.000000,456.000000,26.000000,20.000000,0.000000,0.000000,0.000000,0.000000,0.000000,0.495482,0.490484,0.187091,0.143916,0.050371,482.000000,456.000000,26.000000,20.000000,0.000000,0.000000,0.000000,0.000000,0.000000;
#CREDIT:;
#NOTES:
// measure 0
0000
0000
0000
0000
,  // measure 1
0000
0000
0000
0000
,  // measure 2
0000
0000
0000
0000
,  // measure 3
0000
0000
0000
0000
,  // measure 4
0011
0001
0010
0001
0010
0001
0010
0001
,  // measure 5
1000
0100
1000
0100
1000
0100
1000
0100
,  // measure 6
0010
0001
0010
0100
1000
0100
0010
0001
,  // measure 7
1000
0000
0001
0000
0100
0000
0010
0000
1000
0000
0001
0100
0010
0000
0100
0000
,  // measure 8
0110
0000
0001
1000
0010
0100
0010
0100
,  // measure 9
0001
0000
1000
0001
0100
0001
0010
0100
,  // measure 10
0110
0000
0010
0100
0000
0100
1000
0000
,  // measure 11
1100
0000
0000
0000
1000
0000
0010
0000
0000
0000
0100
0001
0010
0000
0000
0000
,  // measure 12
0011
0000
0001
1000
0000
0010
0100
0001
,  // measure 13
0100
0010
1000
0100
0010
0001
1000
0010
,  // measure 14
1010
0000
0100
0010
0000
1000
0001
0100
,  // measure 15
0101
0000
0000
0000
0010
0000
1000
0000
0000
0000
0001
1000
0100
0000
1000
0000
,  // measure 16
1100
0000
0010
0100
1000
0000
0100
0010
,  // measure 17
0001
0000
0010
0001
0100
0000
0001
1000
,  // measure 18
1001
0000
1000
0010
0000
0100
0001
0100
,  // measure 19
0101
0000
0000
0000
0010
0000
0100
0000
0000
0000
0010
1000
0001
0000
0010
0000
,  // measure 20
0101
0000
0001
0010
0100
0010
1000
0010
,  // measure 21
0001
0000
0100
0010
1000
0000
0001
0010
,  // measure 22
0011
0000
0010
0001
1000
0010
1000
0000
,  // measure 23
0001
0000
1000
0000
0100
0010
0001
0020
,  // measure 24
0001
0000
0031
0010
0100
0000
1000
2000
,  // measure 25
0100
0000
3010
1000
0001
0000
0010
0002
,  // measure 26
0100
0000
1003
0001
0100
0000
0010
0000
,  // measure 27
1010
0000
0000
0000
1000
0000
0001
0000
1000
0000
0100
1000
0001
0000
0200
0000
,  // measure 28
0010
0000
0301
0100
0010
0000
1000
0002
,  // measure 29
0100
0000
0013
0001
0100
0000
0010
2000
,  // measure 30
0100
0000
3001
1000
0010
0000
0100
0000
,  // measure 31
0110
0000
0000
0000
1000
0000
0001
0000
0100
0000
0001
0010
0100
0000
0010
0000
,  // measure 32
0110
0100
0010
0100
0010
0001
0010
0100
,  // measure 33
1000
0100
1000
0100
1000
0000
0001
0010
,  // measure 34
0011
0000
0001
0100
0000
0000
0100
0002
,  // measure 35
0100
0000
0000
0000
0010
0000
0003
0000
0010
0000
1000
0001
0100
0000
2000
0000
,  // measure 36
0100
0000
3010
0010
0000
0100
0010
1000
,  // measure 37
0001
0010
0100
1000
0010
0000
1000
0000
,  // measure 38
1010
0000
1000
0100
0000
0010
0100
1000
,  // measure 39
0001
0000
1000
0000
0010
0000
0100
0000
0001
0000
0001
1000
0001
0000
0000
0000
,  // measure 40
1001
1000
0001
0010
0100
0001
0100
0010
,  // measure 41
0100
1000
0100
0010
0001
0010
0100
0002
,  // measure 42
1000
0000
0103
0100
0000
0001
0010
0100
,  // measure 43
1000
0000
0100
0000
1000
0000
0010
0000
0100
0000
0010
1000
0001
0000
0100
0000
,  // measure 44
0110
0000
1000
0001
1000
0100
0010
0100
,  // measure 45
0010
0001
0100
0010
0100
0001
0010
0020
,  // measure 46
0000
0000
0130
0100
0000
1000
0100
0010
,  // measure 47
0001
0000
1000
0000
0001
0000
0100
0000
0010
0000
1000
0010
0100
0000
0010
0000
,  // measure 48
0110
0000
0010
1000
0000
0001
0000
0100
,  // measure 49
0101
0000
0100
0001
0000
1000
0000
0010
,  // measure 50
1010
0000
0010
0000
0100
1000
0100
0010
,  // measure 51
0000
1000
0001
0100
0001
0001
1000
0020
,  // measure 52
1000
0000
0130
0010
1000
0000
0001
0200
,  // measure 53
0010
0000
0301
0100
0010
0000
1000
0002
,  // measure 54
0010
0000
0103
0001
1000
0000
1000
0000
,  // measure 55
1001
0000
0000
0000
0100
0000
0001
0000
0010
0000
0001
1000
0100
0000
2000
0000
,  // measure 56
0001
0000
3010
1000
0100
0000
1000
0020
,  // measure 57
0001
0000
0130
0010
0100
0000
0001
0200
,  // measure 58
1000
0000
0310
0100
0001
0000
0001
0000
,  // measure 59
1001
0000
0000
0000
0100
0000
0010
0000
1000
0000
0100
0010
0001
0000
0010
0000
,  // measure 60
0011
0100
0010
0100
1000
0001
0010
0100
,  // measure 61
0010
0100
1000
0001
1000
0000
0010
0100
,  // measure 62
0110
0000
0010
2000
0000
3000
0010
0200
,  // measure 63
1000
0000
0000
0000
0001
0000
0300
0000
0100
0000
0010
1000
0010
0000
0200
0000
,  // measure 64
0001
0000
0310
0100
0000
0100
0010
1000
,  // measure 65
0100
0010
0001
0010
0100
1000
0100
0010
,  // measure 66
0100
1000
0100
0010
0001
1000
0010
0100
,  // measure 67
0010
0000
1000
0000
0100
0000
0010
0000
0001
0000
0100
0001
0010
0000
0002
0000
,  // measure 68
1000
0000
0103
0001
0000
0010
0001
0100
,  // measure 69
0010
0100
0001
1000
0010
0100
0010
1000
,  // measure 70
0100
0010
0001
0010
0100
0010
0010
0100
,  // measure 71
0000
1000
0001
0100
0010
0000
0010
0000
;
