#VERSION:0.83;
#TITLE:Переобулась;
#SUBTITLE:;
#ARTIST:Мари Краймбрери;
#TITLETRANSLIT:Pereobulas';
#SUBTITLETRANSLIT:;
#ARTISTTRANSLIT:Mari Kraymbreri;
#GENRE:House;
#ORIGIN:;
#CREDIT:;
#BANNER:Pereobulas'-bn.png;
#BACKGROUND:Pereobulas'-bg.png;
#PREVIEWVID:;
#JACKET:Pereobulas'-jacket.png;
#CDIMAGE:;
#DISCIMAGE:;
#LYRICSPATH:;
#CDTITLE:cdtitle.png;
#MUSIC:pereobulas'.ogg;
#OFFSET:-0.007000;
#SAMPLESTART:80.007004;
#SAMPLELENGTH:16.000000;
#SELECTABLE:YES;
#BPMS:0.000=120.000;
#STOPS:;
#DELAYS:;
#WARPS:;
#TIMESIGNATURES:0.000=4=4;
#TICKCOUNTS:0.000=4;
#COMBOS:0.000=1;
#SPEEDS:0.000=1.000=0.000=0;
#SCROLLS:0.000=1.000;
#FAKES:;
#LABELS:0.000=Song Start;
#BGCHANGES:;
#KEYSOUNDS:;
#ATTACKS:
;

//---------------dance-single - ----------------
#NOTEDATA:;
#CHARTNAME:X-Scale 13;
#STEPSTYPE:dance-single;
#DESCRIPTION:;
#CHARTSTYLE:;
#DIFFICULTY:Challenge;
#METER:9;
#RADARVALUES:0.583638,0.615512,0.076939,0.192348,0.619359,531.000000,521.000000,10.000000,25.000000,0.000000,0.000000,0.000000,0.000000,0.000000,0.583638,0.615512,0.076939,0.192348,0.619359,531.000000,521.000000,10.000000,25.000000,0.000000,0.000000,0.000000,0.000000,0.000000;
#CREDIT:;
#NOTES:
// measure 0
0000
0000
0000
0000
,  // measure 1
0000
0000
0000
0000
,  // measure 2
0000
0000
0000
0000
,  // measure 3
0000
0000
0000
0000
,  // measure 4
1001
0000
0000
1000
0100
0000
1000
0000
0100
0000
0001
0000
0100
0000
1000
0000
,  // measure 5
0001
0000
0000
0100
0001
0000
1000
0000
0010
0000
1000
0000
0001
0000
0010
0000
,  // measure 6
0100
0000
0000
0100
1000
0000
0100
0000
0001
0000
0010
0000
1000
0010
0100
0010
,  // measure 7
1000
0000
0100
0000
0010
0000
0100
0000
0000
1000
0000
0000
0001
0000
1000
0000
,  // measure 8
1010
0000
0000
0000
0000
0000
0000
0000
0000
0001
0000
0000
0000
0000
0000
0000
0000
0000
1000
0000
0000
0010
0000
0000
1000
0000
0000
0000
0100
0000
0000
0000
0010
0000
0000
0000
0001
0000
0000
0000
0000
0000
1000
0000
0000
0010
0000
0000
,  // measure 9
0100
0000
0000
0010
0000
0000
0001
0000
0010
0000
1000
0000
0001
0000
0010
0000
0100
0000
1000
0000
0000
0010
0000
0000
,  // measure 10
1000
0000
0000
0000
0000
0000
0000
0000
0000
0001
0000
0000
0000
0000
0000
0000
0000
0000
0100
0000
0000
0000
0000
0000
0001
0000
0000
0000
0010
0000
0000
0000
0100
0000
0000
0000
1000
0000
0000
0000
0010
0000
0000
0000
0100
0000
0000
0000
,  // measure 11
0001
0000
0000
0000
0100
0000
0000
0000
0010
0000
0000
0000
1000
0000
0000
0000
0000
0000
0001
0000
0000
0000
0000
0000
1000
0000
0000
0000
0000
0000
0010
0000
0000
0100
0000
0000
0000
0000
0000
0001
0000
0000
0010
0000
0000
0000
0000
0000
,  // measure 12
0001
0000
0000
0000
0000
0000
0000
0000
0000
0010
0000
0000
0000
0000
0000
0000
0000
0000
0001
0000
0000
1000
0000
0000
0010
0000
0000
0000
1000
0000
0000
0000
0100
0000
0000
0000
0010
0000
0000
0000
1000
0000
0000
0000
0010
0000
0000
0000
,  // measure 13
0001
0000
0100
0000
0001
0000
0010
0000
0100
0000
0001
0000
0100
0000
1000
0000
0010
0000
1000
0000
0000
0100
0000
0000
,  // measure 14
1000
0000
0000
0000
0000
0000
0000
0000
0000
1000
0000
0000
0000
0000
0000
0000
0000
0000
0001
0000
0000
0000
0000
0000
0010
0000
0000
0000
0100
0000
0000
0000
1000
0000
0000
0000
0001
0000
0000
0000
0000
0000
0000
0000
0000
0100
0000
0000
,  // measure 15
0010
0000
0000
0000
1000
0000
0000
0000
0001
0000
0000
0000
1000
0000
0000
0000
0000
0000
0001
0000
0000
0100
0000
0000
0010
0000
0000
0000
0000
0000
1000
0000
0000
0000
0000
0000
1000
0000
0000
0001
0000
0000
1000
0000
0000
0001
0000
0000
,  // measure 16
1000
0000
0000
0000
0000
0000
0000
0000
0000
0010
0000
0000
0100
0000
0000
0000
0000
0000
0010
0000
0000
1000
0000
0000
0001
0000
0000
0000
0010
0000
0000
0000
0100
0000
0000
0000
1000
0000
0000
0000
0001
0000
0000
0000
1000
0000
0000
0000
,  // measure 17
0010
0000
0000
0000
1000
0000
0000
0000
0001
0000
0000
0000
0010
0000
0000
0000
0000
0000
0100
0000
0000
1000
0000
0000
0100
0000
0000
0000
1000
0000
0000
0000
0001
0000
0000
0000
1000
0000
0000
0000
0000
0000
0000
0000
0000
0100
0000
0000
,  // measure 18
0010
0000
0000
0000
0000
0000
0000
0000
0000
0010
0000
0000
0001
0000
0000
0000
0000
0000
1000
0000
0000
0000
0000
0000
0010
0000
0000
0000
1000
0000
0000
0000
0100
0000
0000
0000
1000
0000
0000
0000
0000
0000
1000
0000
0000
0000
0000
0000
,  // measure 19
0001
0000
0000
0000
0100
0000
0000
0000
0001
0000
0000
0000
0010
0000
0000
0000
0100
0000
0000
0000
1000
0000
0000
0000
0010
0000
0000
0000
0000
0000
0100
0000
0000
0010
0000
0000
0000
0000
0000
0000
0000
0000
0100
0000
0000
0001
0000
0000
,  // measure 20
0100
0000
0000
0001
0010
0000
0001
0000
1000
0000
0100
0010
0100
0000
0000
0100
,  // measure 21
1000
0000
0001
0100
0001
0000
0010
0100
0010
0000
0001
1000
0001
0000
0010
0000
,  // measure 22
0100
0000
0000
0000
0000
0000
0000
0000
0000
0010
0000
0000
0100
0000
0000
0000
0000
0000
0010
0000
0000
0000
0000
0000
0001
0000
0000
0000
0000
0000
1000
0000
0000
0001
0000
0000
1000
0000
0000
0000
0001
0000
0000
0000
0010
0000
0000
0000
,  // measure 23
0100
0000
0000
0000
0010
0000
0000
0000
0001
0000
0000
0000
1000
0000
0000
0000
0010
0000
0000
0000
0100
0000
0000
0000
0001
0000
0000
0000
0000
0000
0001
0000
0000
0000
0000
0000
1000
0000
0000
0001
0000
0000
1000
0000
0000
0000
0000
0000
,  // measure 24
1001
0000
0000
0000
0000
0000
0000
0000
0000
0001
0000
0000
0100
0000
0000
0000
0000
0000
0001
0000
0000
0000
0000
0000
0010
0000
0000
0000
0001
0000
0000
0000
0100
0000
0000
0000
0001
0000
0000
0000
0000
0000
0000
0000
0000
0010
0000
0000
,  // measure 25
1000
0000
0010
0001
0010
0000
0100
1000
0100
0000
0010
0000
0001
0000
0000
1000
,  // measure 26
0001
0000
0000
0010
0100
0000
0010
0000
0001
0000
1000
0001
1000
0000
0100
0000
,  // measure 27
0010
0000
0000
0010
0001
0000
0100
0000
1000
0000
0100
0000
0010
0000
1000
0000
,  // measure 28
0001
0000
0000
0000
0000
0000
0000
0000
0000
1000
0000
0000
0001
0000
0000
0000
0000
0000
0010
0000
0000
0000
0000
0000
0100
0000
0000
0000
0010
0000
0000
0000
0001
0000
0000
0000
0010
0000
0000
0000
0000
0000
0000
0000
0000
0001
0000
0000
,  // measure 29
1000
0000
0000
0000
0001
0000
0000
0000
0100
0000
0000
0000
1000
0000
0000
0000
0100
0000
0000
0000
0001
0000
0000
0000
0010
0000
0000
0000
0000
0000
0100
0000
0000
0010
0000
0000
0100
0000
0000
0000
0000
0000
1000
0000
0000
0000
0000
0000
,  // measure 30
0001
0000
0000
0100
0010
0000
0100
0010
1000
0000
0000
0100
1000
0000
0100
0000
,  // measure 31
1100
0000
0000
2000
0000
0000
0000
0000
0000
0000
0000
0000
3002
0000
0000
0000
,  // measure 32
0013
0000
0000
0100
0000
0000
0010
0000
0001
0000
0100
0000
0002
0000
0003
0000
,  // measure 33
1000
0000
0000
0100
0000
0000
1000
0000
0010
0000
0100
0000
0002
0000
0013
0000
,  // measure 34
0010
0000
0000
0001
0000
0000
0010
0000
1000
0000
0010
0000
0002
0000
0003
0000
,  // measure 35
1001
0001
1000
0200
0000
2300
0000
3000
,  // measure 36
1000
0000
0000
1000
0001
0000
1000
0000
0100
0000
1000
0000
0020
0000
0030
0000
,  // measure 37
0001
0000
0000
0010
0100
0000
0001
0000
1000
0000
0010
0000
2000
0000
3100
0000
,  // measure 38
0100
0000
0000
1000
0100
0000
0010
0000
1000
0000
0010
0000
0002
0000
0003
0000
,  // measure 39
0011
0000
0001
0000
0100
0000
0002
0000
0003
0000
2000
0000
3100
0010
0001
1000
,  // measure 40
0001
0000
0000
0100
0010
0000
0100
0000
0001
0000
0010
0000
1000
0000
0100
0000
,  // measure 41
0001
0000
0000
0100
0010
0000
1000
0000
0100
0000
1000
0000
0010
1000
0001
0000
,  // measure 42
1000
0000
0000
0010
1000
0000
0100
0000
0010
0000
1000
0000
0010
0000
0001
0000
,  // measure 43
1000
0000
0001
0000
1000
0000
0200
0000
0300
2000
0000
0000
3100
1000
0001
0000
,  // measure 44
0100
0000
0000
0010
0100
0000
0001
0000
0010
0000
1000
0000
0010
0000
0001
0000
,  // measure 45
0010
0000
0000
0100
0010
0000
0100
0000
1000
0000
0001
0000
0100
0001
0010
0000
,  // measure 46
0001
0000
0000
0010
0100
0000
1000
0000
0001
0000
1000
0000
0010
0000
0100
0000
,  // measure 47
0110
0010
0100
0002
0000
2003
0000
3000
,  // measure 48
1001
0000
0000
1000
0001
0000
1000
0100
1000
0000
0001
0000
0100
0000
0010
0000
,  // measure 49
1000
0000
0000
1000
0001
0000
1000
0010
1000
0000
0010
0000
0100
0010
0000
0000
,  // measure 50
0100
0000
0000
0001
0010
0000
0001
1000
0001
1000
0000
0000
0100
0000
1000
0000
,  // measure 51
0001
0000
0010
0001
0010
0000
0001
0000
1000
0001
1000
0000
0010
0100
0000
0000
,  // measure 52
0100
0000
0000
0001
0010
0000
0001
0010
0001
0000
0100
0000
1000
0000
0100
0000
,  // measure 53
0010
0000
0000
1000
0010
0000
1000
0100
1000
0000
0001
0000
0100
0001
0000
0000
,  // measure 54
0010
0000
0000
0100
0010
0000
0001
1000
0001
1000
0000
0000
0200
0300
0200
0300
,  // measure 55
1100
0000
1000
0000
0010
0000
1000
0001
1000
0000
0100
0000
1000
0010
0000
0000
,  // measure 56
0110
0000
0000
0100
0010
0000
1000
0001
0100
0000
1000
0000
0100
0000
0001
0000
,  // measure 57
0010
0000
0000
0100
0010
0000
0001
1000
0100
0000
1000
0000
0001
0010
0000
0000
,  // measure 58
0010
0000
0000
0001
1000
0000
0001
0010
0001
1000
0000
0000
0100
0000
1000
0000
,  // measure 59
0100
0000
0010
0000
0100
0000
1000
0010
0000
0000
1000
0000
0001
1000
0000
0000
,  // measure 60
0010
0000
0000
0100
0010
0000
0100
0001
0000
0000
1000
0000
0001
0000
1000
0000
,  // measure 61
0010
0000
0000
0001
0010
0000
0100
0010
0000
0000
1000
0000
0001
1000
0001
0000
,  // measure 62
0010
0000
0000
0001
0100
0000
0001
0010
0000
0001
0000
0000
1000
0000
0000
0000
,  // measure 63
2000
3200
0302
0203
2300
3200
0320
0000
,  // measure 64
0030
0000
0000
0000
;

//---------------dance-single - ----------------
#NOTEDATA:;
#CHARTNAME:X-Scale 9;
#STEPSTYPE:dance-single;
#DESCRIPTION:;
#CHARTSTYLE:;
#DIFFICULTY:Medium;
#METER:6;
#RADARVALUES:0.364911,0.392389,0.046163,0.130796,0.150031,332.000000,326.000000,6.000000,17.000000,0.000000,0.000000,0.000000,0.000000,0.000000,0.364911,0.392389,0.046163,0.130796,0.150031,332.000000,326.000000,6.000000,17.000000,0.000000,0.000000,0.000000,0.000000,0.000000;
#CREDIT:;
#NOTES:
// measure 0
0000
0000
0000
0000
,  // measure 1
0000
0000
0000
0000
,  // measure 2
0000
0000
0000
0000
,  // measure 3
0000
0000
0000
0000
,  // measure 4
1010
0000
1000
0000
0001
0010
0100
0000
,  // measure 5
1000
0000
0001
0000
0100
0001
1000
0000
,  // measure 6
0100
0000
0010
0000
0001
0010
0100
0000
,  // measure 7
1000
0000
0000
0002
0000
2003
0000
3000
,  // measure 8
0001
0000
0000
0010
0000
0000
0001
0000
0000
0000
0001
0000
0000
0000
0001
0000
,  // measure 9
1000
0000
0000
0010
0000
0000
1000
0000
0000
0000
1000
0000
0000
0100
0000
0000
,  // measure 10
0010
0000
0000
0001
0000
0000
1000
0000
0000
0001
0000
0000
0010
0000
0000
0000
,  // measure 11
0100
0000
0000
1000
0000
0000
0001
0000
0000
1000
0000
0000
0100
0000
0010
0000
,  // measure 12
0100
0000
0000
1000
0000
0000
0001
0000
0000
0000
0001
0000
0000
0000
0001
0000
,  // measure 13
0010
0000
0000
0100
0000
0000
1000
0000
0000
0000
1000
0000
0000
0010
0000
0000
,  // measure 14
1000
0000
0000
0001
0000
0000
0100
0000
0000
0001
0000
0000
1000
0000
0000
0000
,  // measure 15
0200
0000
0300
0020
,  // measure 16
0031
0000
0010
0001
1000
0000
0010
1000
,  // measure 17
0001
0000
0100
0001
1000
0000
0010
1000
,  // measure 18
0001
0000
0010
0100
1000
0000
0001
0010
,  // measure 19
0100
0000
1000
0001
0010
0000
0100
0010
,  // measure 20
0001
0000
1000
0010
0100
0000
0010
0100
,  // measure 21
0001
0000
0010
0001
1000
0000
0100
1000
,  // measure 22
0001
0000
0010
0100
1000
0000
0100
0010
,  // measure 23
0001
0000
0000
0000
1000
0000
0001
0000
0100
0000
0010
0000
0000
0100
0000
0000
,  // measure 24
0110
0000
0000
0010
0000
0000
0100
0000
0001
0000
0000
0000
0010
0000
0100
0000
,  // measure 25
1000
0000
0000
0100
0000
0000
1000
0000
0001
0000
0000
0000
0100
0000
0001
0000
,  // measure 26
1000
0000
0000
0100
0000
0000
0001
0000
0000
0100
0000
0000
1000
0000
0000
0000
,  // measure 27
0001
0000
0000
0100
0000
0000
1000
0000
0000
0100
0000
0000
0001
0000
1000
0000
,  // measure 28
0001
0000
0000
0010
0000
0000
0001
0000
1000
0000
0000
0000
0100
0000
0010
0000
,  // measure 29
0001
0000
0000
1000
0000
0000
0001
0000
0010
0000
0000
0000
0100
0000
0010
0000
,  // measure 30
0001
0000
0000
0100
0000
0000
1000
0000
0000
0100
0000
0000
0001
0000
0000
0000
,  // measure 31
0101
0000
0000
2000
,  // measure 32
3100
0000
0000
0000
1000
0100
0010
0000
,  // measure 33
0001
0000
0000
0000
0100
0001
1000
0000
,  // measure 34
0010
0000
0000
0000
1000
0001
0010
0000
,  // measure 35
0100
0010
0001
2000
0000
3002
0000
0003
,  // measure 36
0010
0000
0000
0100
0000
0000
1000
0000
0001
0000
0100
0000
0001
0000
0000
0000
,  // measure 37
0010
0000
0000
0100
0000
0000
1000
0000
0001
0000
1000
0000
0100
0000
0000
0000
,  // measure 38
0010
0000
0000
0100
0000
0000
1000
0000
0001
0000
0010
0000
0001
0000
0000
0000
,  // measure 39
0010
0100
1000
0002
0000
0023
0000
0030
,  // measure 40
0011
0000
0000
0001
0000
0000
1000
0000
0010
0000
1000
0000
0001
0000
0000
0000
,  // measure 41
0010
0000
0000
0100
0000
0000
1000
0000
0001
0000
1000
0000
0100
0000
0000
0000
,  // measure 42
0010
0000
0000
0001
0000
0000
1000
0000
0010
0000
0100
0000
0001
0000
0000
0000
,  // measure 43
1000
0001
0010
0200
0000
2300
0100
3000
,  // measure 44
1000
0000
0000
0001
0000
0000
0100
0000
0001
0000
1000
0000
0010
0000
0000
0000
,  // measure 45
1000
0000
0000
0100
0000
0000
0010
0000
0100
0000
1000
0000
0001
0000
0000
0000
,  // measure 46
0010
0000
0000
0001
0000
0000
1000
0000
0001
0000
0100
0000
0001
0000
0000
0000
,  // measure 47
0010
0100
1000
0002
0000
2003
0000
3000
,  // measure 48
1001
0000
0000
0001
0000
0000
0010
0000
0001
0000
1000
0000
0001
0000
0010
0000
,  // measure 49
0100
0000
0000
1000
0000
0000
0001
0000
0100
0000
0001
0000
1000
0000
0100
0000
,  // measure 50
0010
0000
0000
0001
0000
0000
1000
0000
0001
0000
0100
0000
0001
0000
1000
0000
,  // measure 51
0100
0000
0000
0010
0000
0000
0001
0000
0010
0000
0100
0000
1000
0000
0001
0000
,  // measure 52
1000
0000
0000
0010
0000
0000
1000
0000
0001
0000
0100
0000
0001
0000
1000
0000
,  // measure 53
0100
0000
0000
0010
0000
0000
0001
0000
0010
0000
1000
0000
0010
0000
0100
0000
,  // measure 54
1000
0000
0000
0100
0000
0000
0010
0000
0100
0000
1000
0000
0001
0000
0100
0000
,  // measure 55
0001
0010
0100
2000
0000
3002
0000
0003
,  // measure 56
1001
0000
1000
0010
0000
0010
0001
0000
,  // measure 57
1000
0000
0001
0100
0000
0100
1000
0000
,  // measure 58
0001
0000
0100
0010
0000
0010
0001
0000
,  // measure 59
1000
0010
1000
0002
0000
0023
0000
0030
,  // measure 60
0100
0000
1000
0100
0000
0100
0001
0000
,  // measure 61
1000
0000
0001
0010
0000
0010
1000
0000
,  // measure 62
0001
0000
0100
0010
0000
0010
0001
0000
,  // measure 63
0100
0001
0100
0001
;

//---------------dance-single - ----------------
#NOTEDATA:;
#CHARTNAME:X-Scale 11;
#STEPSTYPE:dance-single;
#DESCRIPTION:;
#CHARTSTYLE:;
#DIFFICULTY:Hard;
#METER:8;
#RADARVALUES:0.453940,0.492410,0.115409,0.207735,0.296215,413.000000,398.000000,15.000000,27.000000,0.000000,0.000000,0.000000,0.000000,0.000000,0.453940,0.492410,0.115409,0.207735,0.296215,413.000000,398.000000,15.000000,27.000000,0.000000,0.000000,0.000000,0.000000,0.000000;
#CREDIT:;
#NOTES:
// measure 0
0000
0000
0000
0000
,  // measure 1
0000
0000
0000
0000
,  // measure 2
0000
0000
0000
0000
,  // measure 3
0000
0000
0000
0000
,  // measure 4
0110
0000
0000
0100
0000
0000
0001
0000
0000
0000
1000
0000
0000
0000
0001
0000
,  // measure 5
0001
0000
0000
0010
0000
0000
0100
0000
0000
0000
1000
0000
0000
0100
0000
0000
,  // measure 6
1000
0000
0000
0010
0000
0000
0001
0000
0000
0100
0000
0000
1000
0000
0000
0000
,  // measure 7
0001
0100
0001
2000
0000
3200
0000
0300
,  // measure 8
1100
0000
0000
1000
0000
0000
0001
0000
0000
0000
0100
0000
0000
0000
0001
0000
,  // measure 9
0001
0000
0000
0010
0000
0000
0100
0000
0000
0000
1000
0000
0000
0100
0000
0000
,  // measure 10
1000
0000
0000
0010
0000
0000
0001
0000
0000
0100
0000
0000
1000
0000
0000
0000
,  // measure 11
0001
0000
0000
0010
0000
0000
1000
0000
0000
0100
0000
0000
0001
0000
1000
0000
,  // measure 12
0001
0000
0000
0100
0000
0000
0001
0000
0000
0000
0010
0000
0000
0000
0100
0000
,  // measure 13
0100
0000
0000
1000
0000
0000
0001
0000
0000
0000
1000
0000
0000
0100
0000
0000
,  // measure 14
1000
0000
0000
0010
0000
0000
0001
0000
0000
0100
0000
0000
1000
0000
0000
0000
,  // measure 15
0002
0000
0000
0000
0000
0000
0000
0000
0003
0000
0000
0000
0100
0001
0100
0001
,  // measure 16
0100
0000
0000
0010
0100
0000
0001
0000
1000
0000
0100
0000
0001
0000
0100
0000
,  // measure 17
1000
0000
0000
0010
1000
0000
0001
0000
0010
0000
0001
0000
0100
0001
0000
0000
,  // measure 18
1000
0000
0000
0010
1000
0000
0001
0000
0010
0001
0000
0000
0011
0000
0000
0000
,  // measure 19
1000
0000
0000
0001
0100
0000
0001
0000
1000
0000
0100
0000
0010
0100
0010
0000
,  // measure 20
0001
0000
0000
0100
0001
0000
1000
0000
0001
0000
0010
0000
1000
0000
0010
0000
,  // measure 21
0001
0000
0000
0100
0010
0000
0100
0000
0001
0000
0010
0000
0100
1000
0000
0000
,  // measure 22
0001
0000
0000
1000
0010
0000
1000
0000
0001
0010
0000
0000
0011
0000
0000
0000
,  // measure 23
0001
0000
0000
1000
0010
0000
1000
0000
0001
0000
0010
0000
0100
1000
0000
0000
,  // measure 24
1100
0000
0000
0100
0010
0000
0100
1000
0100
0000
1000
0000
0001
0000
0100
0000
,  // measure 25
0001
0000
0000
0010
0100
0000
0010
0001
0010
0000
0001
0000
1000
0000
0010
0000
,  // measure 26
1000
0000
0000
0100
0010
0000
0100
1000
0100
0000
1000
0000
0001
0000
0100
0000
,  // measure 27
0001
0000
0000
0010
0100
0000
0010
0001
0010
0000
0001
0000
1000
0000
0010
0000
,  // measure 28
1000
0000
0000
0100
0010
0000
0100
1000
0100
0000
1000
0000
0001
0000
0100
0000
,  // measure 29
0001
0000
0000
0010
0100
0000
0010
0001
0010
0000
0001
0000
1000
0000
0010
0000
,  // measure 30
1000
0000
0000
0100
0010
0000
0100
1000
0100
0000
0010
0000
0001
0000
1000
0000
,  // measure 31
0001
0000
0000
0001
0000
0000
0001
0000
0000
0000
0000
0000
0020
0000
0000
0000
,  // measure 32
0230
0000
0300
0020
0000
0030
0001
0000
0100
0000
0010
0000
2000
0000
0000
0000
,  // measure 33
3002
0000
0003
0200
0000
0300
0001
0000
1000
0000
0010
0000
0200
0000
0000
0000
,  // measure 34
0302
0000
0003
0020
0000
0030
0001
0000
1000
0000
0010
0000
1000
0000
0000
0000
,  // measure 35
1200
0000
0300
0020
,  // measure 36
0031
0000
0011
0000
0001
1000
1001
0000
,  // measure 37
0100
0000
1100
0000
1000
0010
1010
0000
,  // measure 38
0001
0000
0011
0000
0010
0100
0110
0000
,  // measure 39
2002
0000
0000
0000
0000
0000
0000
0000
3003
0000
0000
0000
0001
1000
0001
1000
,  // measure 40
0001
0000
0000
0010
0001
0000
1000
0000
0010
0000
1000
0000
0001
0000
0000
0000
,  // measure 41
0010
0000
0000
0100
1000
0000
0001
0000
0100
0000
0010
0000
0100
0000
0000
0000
,  // measure 42
0001
0000
0000
0010
0100
0000
0010
0000
0001
0000
1000
0000
0001
0000
0000
0000
,  // measure 43
1000
0100
0010
0002
0000
2003
0000
3000
,  // measure 44
0100
0000
0000
1000
0001
0000
0100
0000
1000
0000
0100
0000
0001
0000
0000
0000
,  // measure 45
1000
0000
0000
0100
0010
0000
0100
0000
1000
0000
0001
0000
0100
0000
0000
0000
,  // measure 46
0010
0000
0000
0100
0001
0000
0010
0000
0001
0000
1000
0000
0100
0000
0000
0000
,  // measure 47
0010
0100
1000
0002
0000
2003
0000
3000
,  // measure 48
1001
0000
0000
0001
0010
0000
0001
1000
0001
0000
0010
0000
1000
0000
0010
0000
,  // measure 49
0001
0000
0000
0010
0100
0000
0010
0001
0010
0000
0100
0000
1000
0100
0000
0000
,  // measure 50
0010
0000
0000
0100
1000
0000
0001
0100
0001
0000
1000
0000
0100
0000
0010
0000
,  // measure 51
0001
0000
0100
0000
0010
0000
2000
0000
0000
0000
3002
0000
0000
1000
0003
0000
,  // measure 52
0001
0000
0000
0010
0100
0000
1000
0100
1000
0000
0001
0000
0100
0000
0001
0000
,  // measure 53
1000
0000
0000
0100
0010
0000
0100
1000
0100
0000
0010
0000
0001
0010
0000
0000
,  // measure 54
0001
0000
0000
1000
0010
0000
0100
0010
0100
0000
0001
0000
1000
0000
1000
0000
,  // measure 55
1000
0000
0100
0000
0010
0000
0002
0000
0000
0000
0203
0000
0000
0001
0300
0000
,  // measure 56
0101
0000
0001
0100
1000
0100
0001
0000
,  // measure 57
1000
0000
0010
0100
0001
0100
0010
0000
,  // measure 58
1000
0000
0100
0010
0001
0010
0100
1000
,  // measure 59
0001
0100
0001
0020
0000
0230
0000
0300
,  // measure 60
1000
0000
0010
0100
0000
0001
0010
0100
,  // measure 61
1000
0000
0000
0000
0010
0000
0100
0000
0000
0000
0001
0000
0010
0001
0000
0000
,  // measure 62
0100
0000
0000
0000
0010
0000
1000
0001
0000
0000
0001
0000
0010
0000
0000
0000
,  // measure 63
0100
0010
0100
0010
0100
0010
0002
0000
,  // measure 64
0003
0000
0000
0000
;

//---------------dance-single - ----------------
#NOTEDATA:;
#CHARTNAME:X-Scale 5;
#STEPSTYPE:dance-single;
#DESCRIPTION:;
#CHARTSTYLE:;
#DIFFICULTY:Easy;
#METER:3;
#RADARVALUES:0.250601,0.295446,0.053857,0.084633,0.000000,228.000000,221.000000,7.000000,11.000000,0.000000,0.000000,0.000000,0.000000,0.000000,0.250601,0.295446,0.053857,0.084633,0.000000,228.000000,221.000000,7.000000,11.000000,0.000000,0.000000,0.000000,0.000000,0.000000;
#CREDIT:;
#NOTES:
// measure 0
0000
0000
0000
0000
,  // measure 1
0000
0000
0000
0000
,  // measure 2
0000
0000
0000
0000
,  // measure 3
0000
0000
0000
0000
,  // measure 4
0001
0000
0010
0100
,  // measure 5
1000
0000
0100
0010
,  // measure 6
0001
0000
1000
0001
,  // measure 7
0100
0000
0000
0000
,  // measure 8
0001
0000
0000
0010
0000
0001
0000
0000
,  // measure 9
1000
0000
0000
0100
0000
1000
0000
0000
,  // measure 10
0010
0000
0000
0100
0000
0010
0000
0000
,  // measure 11
1000
0000
0000
0001
0000
1000
0000
0000
,  // measure 12
0100
0000
0000
0010
0000
0100
0000
0000
,  // measure 13
1000
0000
0000
0001
0000
0100
0000
0000
,  // measure 14
0001
0000
0000
0010
0000
0100
0000
0000
,  // measure 15
2000
0000
3000
0000
,  // measure 16
1001
0001
0010
0100
,  // measure 17
0010
0001
1000
0010
,  // measure 18
1000
0001
1000
0010
,  // measure 19
1000
0100
0010
0001
,  // measure 20
0100
0001
1000
0001
,  // measure 21
0100
0001
1000
0010
,  // measure 22
0100
0010
1000
0001
,  // measure 23
0010
0100
1000
0000
,  // measure 24
1100
0000
0100
0000
1000
0001
1000
0000
,  // measure 25
0010
0000
0100
0000
0001
0010
0001
0000
,  // measure 26
1000
0000
0100
0000
0010
0100
0010
0000
,  // measure 27
0001
0000
0010
0000
0100
1000
0100
0000
,  // measure 28
1000
0000
0001
0000
0100
0010
0100
0000
,  // measure 29
0001
0000
0010
0000
0100
0010
0100
0000
,  // measure 30
1000
0000
0001
0000
0100
0001
0100
0000
,  // measure 31
0101
0000
0000
0000
,  // measure 32
1000
0000
0100
0000
,  // measure 33
0010
0000
0001
0000
,  // measure 34
0100
0000
0010
0000
,  // measure 35
1000
0000
0000
0000
,  // measure 36
0001
1000
0010
1000
,  // measure 37
0001
0010
0100
0010
,  // measure 38
0001
1000
0010
1000
,  // measure 39
0001
0000
0000
0000
,  // measure 40
1001
0000
1000
0000
0001
0010
0100
0000
,  // measure 41
1000
0000
0001
0000
0100
0001
1000
0000
,  // measure 42
0010
0000
0100
0000
0001
1000
0010
0000
,  // measure 43
1000
0001
1000
0020
0000
0230
0000
0300
,  // measure 44
0001
0000
0010
0000
0100
0010
0001
0000
,  // measure 45
1000
0000
0001
0000
0100
0001
1000
0000
,  // measure 46
0001
0000
0100
0000
0010
1000
0001
0000
,  // measure 47
0100
0001
1000
0002
0000
2003
0000
3000
,  // measure 48
1001
0000
0001
0000
0010
0100
0010
0000
,  // measure 49
0001
0000
1000
0000
0010
1000
0010
0000
,  // measure 50
0100
0000
0001
0000
0010
0100
0010
0000
,  // measure 51
0001
1000
0001
0020
0000
0230
0000
0300
,  // measure 52
1000
0000
0010
0000
1000
0001
0010
0000
,  // measure 53
0100
0000
0010
0000
0001
1000
0100
0000
,  // measure 54
0010
0000
0100
0000
1000
0001
0010
0000
,  // measure 55
0001
1000
0010
2000
0000
3002
0000
0003
,  // measure 56
1001
1000
0010
1000
,  // measure 57
0001
0010
0100
1000
,  // measure 58
0100
0010
0001
1000
,  // measure 59
0010
0000
0000
1000
0000
0001
0000
0000
,  // measure 60
0000
0010
0000
0001
,  // measure 61
0000
0010
0000
0100
,  // measure 62
0000
1000
0000
0001
,  // measure 63
0000
0000
0000
2002
,  // measure 64
3003
0000
0000
0000
;

//---------------dance-single - ----------------
#NOTEDATA:;
#CHARTNAME:X-Scale 1;
#STEPSTYPE:dance-single;
#DESCRIPTION:;
#CHARTSTYLE:;
#DIFFICULTY:Beginner;
#METER:1;
#RADARVALUES:0.107715,0.144838,0.015388,0.000000,0.000000,98.000000,96.000000,2.000000,0.000000,0.000000,0.000000,0.000000,0.000000,0.000000,0.107715,0.144838,0.015388,0.000000,0.000000,98.000000,96.000000,2.000000,0.000000,0.000000,0.000000,0.000000,0.000000,0.000000;
#CREDIT:;
#NOTES:
// measure 0
0000
0000
0000
0000
,  // measure 1
0000
0000
0000
0000
,  // measure 2
0000
0000
0000
0000
,  // measure 3
0000
0000
0000
0000
,  // measure 4
1000
0000
0000
0000
,  // measure 5
0100
0000
0000
0000
,  // measure 6
0010
0000
0000
0000
,  // measure 7
0001
0000
0000
0000
,  // measure 8
1000
0000
0000
0000
,  // measure 9
0010
0000
0000
0000
,  // measure 10
1000
0000
0000
0000
,  // measure 11
0001
0000
0000
0000
,  // measure 12
0010
0000
0000
0000
,  // measure 13
0001
0000
0000
0000
,  // measure 14
1000
0000
0000
0000
,  // measure 15
0001
0000
0000
0000
,  // measure 16
1001
0000
1000
0000
,  // measure 17
0010
0000
1000
0000
,  // measure 18
0001
0000
0010
0000
,  // measure 19
0001
0000
0100
0000
,  // measure 20
0010
0000
0100
0000
,  // measure 21
0001
0000
1000
0000
,  // measure 22
0010
0000
1000
0000
,  // measure 23
0001
0000
0010
0000
,  // measure 24
0001
0000
1000
0000
,  // measure 25
0010
0000
1000
0000
,  // measure 26
0001
0000
0010
0000
,  // measure 27
0100
0000
1000
0000
,  // measure 28
0001
0000
0010
0000
,  // measure 29
0001
0000
1000
0000
,  // measure 30
0100
0000
0010
0000
,  // measure 31
0001
0000
0000
0000
,  // measure 32
1000
0000
0000
0000
,  // measure 33
0010
0000
0000
0000
,  // measure 34
0100
0000
0000
0000
,  // measure 35
0001
0000
0000
0000
,  // measure 36
0000
0010
0000
0001
,  // measure 37
0000
1000
0000
0010
,  // measure 38
0000
1000
0000
0001
,  // measure 39
0000
0000
0000
0000
,  // measure 40
1001
0000
1000
0000
,  // measure 41
0010
0000
1000
0000
,  // measure 42
0001
0000
0010
0000
,  // measure 43
0001
0000
0100
0000
,  // measure 44
0010
0000
0100
0000
,  // measure 45
0001
0000
0010
0000
,  // measure 46
0100
0000
0010
0000
,  // measure 47
0001
0000
0000
0000
,  // measure 48
1000
0000
0001
0000
,  // measure 49
1000
0000
0010
0000
,  // measure 50
1000
0000
0001
0000
,  // measure 51
0010
0000
0100
0000
,  // measure 52
0010
0000
0001
0000
,  // measure 53
1000
0000
0001
0000
,  // measure 54
0010
0000
0100
0000
,  // measure 55
1000
0000
0000
0000
,  // measure 56
0001
0000
0010
0000
,  // measure 57
0100
0000
1000
0000
,  // measure 58
0010
0000
0100
0000
,  // measure 59
0001
0000
0000
0000
,  // measure 60
0000
1000
0000
0100
,  // measure 61
0000
1000
0000
0001
,  // measure 62
0000
0100
0000
0001
;
