#VERSION:0.83;
#TITLE:Pegasus;
#SUBTITLE:;
#ARTIST:MEDUZA x Eli & Fur;
#TITLETRANSLIT:;
#SUBTITLETRANSLIT:;
#ARTISTTRANSLIT:;
#GENRE:Melodic Techno;
#ORIGIN:;
#CREDIT:;
#BANNER:Pegasus-bn.png;
#BACKGROUND:Pegasus-bg.png;
#PREVIEWVID:;
#JACKET:Pegasus-jacket.png;
#CDIMAGE:;
#DISCIMAGE:;
#LYRICSPATH:;
#CDTITLE:cdtitle.png;
#MUSIC:Pegasus.ogg;
#OFFSET:-0.005000;
#SAMPLESTART:61.445000;
#SAMPLELENGTH:15.360000;
#SELECTABLE:YES;
#BPMS:0.000=125.000;
#STOPS:;
#DELAYS:;
#WARPS:;
#TIMESIGNATURES:0.000=4=4;
#TICKCOUNTS:0.000=4;
#COMBOS:0.000=1;
#SPEEDS:0.000=1.000=0.000=0;
#SCROLLS:0.000=1.000;
#FAKES:;
#LABELS:0.000=Song Start;
#BGCHANGES:0.000=Pegasus.avi=1.000=1=0=0=StretchNoLoop==CrossFade==,
99999=-nosongbg-=1.000=0=0=0 // don't automatically add -songbackground-
;
#KEYSOUNDS:;
#ATTACKS:
;

//---------------dance-single - ----------------
#NOTEDATA:;
#CHARTNAME:X-Scale 2;
#STEPSTYPE:dance-single;
#DESCRIPTION:;
#CHARTSTYLE:;
#DIFFICULTY:Beginner;
#METER:1;
#RADARVALUES:0.101154,0.122351,0.010413,0.000000,0.000000,68.000000,67.000000,1.000000,0.000000,0.000000,0.000000,0.000000,0.000000,0.000000,0.101154,0.122351,0.010413,0.000000,0.000000,68.000000,67.000000,1.000000,0.000000,0.000000,0.000000,0.000000,0.000000,0.000000;
#CREDIT:iamthek3n;
#NOTES:
0000
0000
0000
0000
,
0000
0000
0000
0000
,
0000
0000
0000
0000
,
0000
0000
0000
0000
,
1000
0000
0001
0000
,
0100
0000
0001
0000
,
1000
0000
0001
0000
,
0100
0000
0001
0000
,
1000
0000
0100
0000
,
0010
0000
0100
0000
,
1000
0000
0100
0000
,
0010
0000
0100
0000
,
1000
0000
0001
0000
,
0100
0000
0010
0000
,
1000
0000
0001
0000
,
1000
0000
0100
0000
,
0010
0000
0001
0000
,
1000
0000
0001
0000
,
0100
0000
0010
0000
,
1000
0000
0000
0000
,
0001
0000
0000
0000
,
0010
0000
0000
0000
,
0100
0000
0000
0000
,
0000
0000
1000
0000
,
0001
0000
0000
0000
,
1000
0000
0000
0000
,
0010
0000
0000
0000
,
0000
0000
0000
0000
,
1001
0000
0000
0000
,
1000
0000
0000
0000
,
0001
0000
0000
0000
,
1000
0000
0000
0000
,
0001
0000
0010
0000
,
0100
0000
0010
0000
,
0001
0000
1000
0000
,
0001
0000
0100
0000
,
0010
0000
1000
0000
,
0100
0000
0010
0000
,
0100
0000
1000
0000
,
0001
0000
1000
0000
,
0010
0000
0000
0000
,
1000
0000
0000
0000
,
0001
0000
0000
0000
,
0100
0000
0001
0000
,
1000
0000
0000
0000
,
0100
0000
0000
0000
,
0010
0000
0000
0000
,
0001
0000
0000
0000
;

//---------------dance-single - ----------------
#NOTEDATA:;
#CHARTNAME:X-Scale 5;
#STEPSTYPE:dance-single;
#DESCRIPTION:;
#CHARTSTYLE:;
#DIFFICULTY:Easy;
#METER:3;
#RADARVALUES:0.220158,0.324882,0.041651,0.239496,0.000000,148.000000,144.000000,4.000000,23.000000,0.000000,0.000000,0.000000,0.000000,0.000000,0.220158,0.324882,0.041651,0.239496,0.000000,148.000000,144.000000,4.000000,23.000000,0.000000,0.000000,0.000000,0.000000,0.000000;
#CREDIT:iamthek3n;
#NOTES:
// measure 0
0000
0000
0000
0000
,  // measure 1
0000
0000
0000
0000
,  // measure 2
0000
0000
0000
0000
,  // measure 3
0000
0000
0000
0000
,  // measure 4
1001
0000
0001
0000
0100
0010
2000
0000
,  // measure 5
3200
1300
0001
0100
,  // measure 6
0001
0000
1000
0000
0010
0000
0100
0001
,  // measure 7
1000
0000
0001
0000
0010
0100
2000
0000
,  // measure 8
3002
0000
0103
0000
0010
0100
0002
0000
,  // measure 9
2003
3001
0010
0100
,  // measure 10
1000
0000
0001
0000
0100
0000
0001
0010
,  // measure 11
0100
0010
0001
0000
,  // measure 12
1001
0000
0100
0010
0100
0000
0001
0000
,  // measure 13
1000
0010
0100
0001
,  // measure 14
0010
0000
0100
1000
0100
0000
1000
0000
,  // measure 15
0001
0100
0001
1000
,  // measure 16
0100
0000
0010
0100
0010
0000
0001
0000
,  // measure 17
0100
0001
1000
0010
,  // measure 18
1000
0000
0001
0100
0001
0000
1000
0000
,  // measure 19
0000
0010
0000
1000
,  // measure 20
0002
0000
1000
0000
,  // measure 21
0203
0000
0010
0000
,  // measure 22
0320
0000
0100
0000
,  // measure 23
1000
0000
2030
0000
,  // measure 24
3200
0000
1000
0000
,  // measure 25
0320
0000
0100
0000
,  // measure 26
0002
0000
0000
0000
,  // measure 27
0033
0000
0000
0000
,  // measure 28
1001
0000
1000
0010
0100
0000
0001
0000
,  // measure 29
0010
0100
1000
0000
0001
0000
0100
0001
,  // measure 30
1000
0000
0010
1000
0001
0000
0100
0000
,  // measure 31
0001
0010
0100
0000
1000
0000
0100
0010
,  // measure 32
0002
1000
0000
1000
,  // measure 33
2003
0100
0000
0100
,  // measure 34
3200
0010
0000
1000
,  // measure 35
0000
0010
0320
0001
,  // measure 36
0032
0100
0000
0100
,  // measure 37
0203
0010
0000
0010
,  // measure 38
0320
1000
0000
0100
,  // measure 39
0000
1000
2030
0010
,  // measure 40
3001
0000
0100
0000
,  // measure 41
0010
0000
1000
0000
,  // measure 42
0100
0000
0010
0000
,  // measure 43
0001
0000
1000
0000
,  // measure 44
0001
0000
0100
0000
,  // measure 45
0010
0000
0100
0000
,  // measure 46
0001
0000
1000
0000
,  // measure 47
2200
0000
0000
0000
,  // measure 48
3300
0000
0000
0000
;

//---------------dance-single - ----------------
#NOTEDATA:;
#CHARTNAME:X-Scale 9;
#STEPSTYPE:dance-single;
#DESCRIPTION:;
#CHARTSTYLE:;
#DIFFICULTY:Medium;
#METER:6;
#RADARVALUES:0.389739,0.424845,0.052064,0.166606,0.458166,262.000000,257.000000,5.000000,16.000000,0.000000,0.000000,0.000000,0.000000,0.000000,0.389739,0.424845,0.052064,0.166606,0.458166,262.000000,257.000000,5.000000,16.000000,0.000000,0.000000,0.000000,0.000000,0.000000;
#CREDIT:iamthek3n;
#NOTES:
0000
0000
0000
0000
,
0000
0000
0000
0000
,
0000
0000
0000
0000
,
0000
0000
0000
0000
,
1001
0000
0000
0000
0100
0000
0001
0000
1000
0000
0000
0000
0100
0000
0000
0010
,
0000
0010
0000
0000
0001
0000
0000
0100
0000
0100
0000
0000
0010
0000
0000
0000
,
1000
0001
0100
0000
0001
0010
0100
0000
,
1000
0000
0010
1000
0001
0000
0010
0000
,
0100
0000
0000
0000
1000
0000
0001
0000
0010
0000
0000
0000
0001
0000
0000
0100
,
0000
0100
0000
0000
0010
0000
0000
1000
0000
1000
0000
0000
0001
0000
0000
0000
,
0100
0001
1000
0000
0001
0100
0010
0000
,
1000
0000
0000
0000
0100
0000
0000
0010
0000
0010
0000
0000
0001
0000
0000
0000
,
1001
0000
0000
1000
0000
0000
0010
0000
0000
1000
0000
0000
0100
0000
0000
0010
,
0000
0100
0000
1000
0000
0001
0000
0100
0000
1000
0000
0100
0000
0001
0000
0020
,
0000
0000
0000
0000
0130
0000
0010
0000
0001
0000
0000
0100
0001
0000
0000
1000
,
0000
1000
0001
0000
0100
0000
0001
0000
0020
0000
0000
0000
0230
0000
0000
0000
,
1000
0000
0000
0000
0301
0000
0100
0000
0001
0000
0000
0010
0100
0000
0000
1000
,
0000
0100
0000
0001
0000
1000
0000
0010
0000
0100
0000
1000
0000
0001
0000
0200
,
0000
0000
0000
0000
1300
0000
0100
0000
0001
0000
0000
0010
0100
0000
0000
1000
,
0000
1000
0001
0000
0100
0000
0010
0000
2000
0000
0000
0000
3200
0000
0000
0000
,
0010
0000
0000
0000
1300
0000
0000
0000
0001
0000
0000
0000
0100
0000
0000
0002
,
0000
0000
0000
0000
0013
0000
0000
0000
0100
0000
0000
0000
1000
0000
0000
0020
,
0000
0000
0000
0000
1030
0000
0000
0000
0100
0000
0000
0000
0010
0000
0000
0002
,
0000
0000
0000
0000
0103
0000
0001
0000
1000
0000
0000
0000
0010
0000
0000
0200
,
0000
0000
1300
0100
0001
0000
1000
0000
,
0001
0000
0000
0000
0010
0000
0100
0000
1000
0000
0000
0000
0001
0000
0000
2000
,
0000
0100
0000
0001
0000
0100
0000
3001
,
0000
1000
0100
0010
0001
0000
0100
0000
,
1001
0000
1000
0001
0100
0000
0001
0000
,
0010
0000
0100
0000
1000
0000
0000
0001
0000
0100
0000
0001
0000
0000
1000
0000
,
0100
0000
0010
0100
1000
0000
0001
0000
,
0100
0000
0001
0000
1000
0000
0000
0100
0000
0010
0000
0100
0000
0000
1000
0000
,
1100
0000
0000
0100
0010
0000
0001
0000
1000
0000
0000
0001
0100
0000
0001
0000
,
0010
0000
0000
0000
0100
0000
0000
0001
0000
1000
0000
0001
0000
0000
0010
0000
,
0100
0000
0000
1000
0100
0000
0010
0000
0001
0000
0000
1000
0001
0000
0000
0000
,
0010
0000
0100
0000
1000
0000
0000
0001
0000
0100
0000
0001
0000
0000
1000
0000
,
0100
0000
0000
0010
0001
0000
1000
0000
0001
0000
0000
0000
0010
0000
0000
0100
,
1000
0000
0001
0000
0100
0000
0000
0001
0000
0010
0000
0100
0000
0000
0100
0000
,
1000
0000
0000
0100
0001
0000
0100
0000
1000
0000
0000
0000
0001
0000
0000
0100
,
0001
1000
0010
0100
2000
0000
3200
0000
,
0301
0000
0000
0010
0000
0000
1000
0000
0000
0010
0000
0000
0001
0000
0000
0100
,
0000
0000
0010
0000
0000
1000
0000
0100
0000
0010
0000
0001
0000
0000
1000
0000
,
1000
0000
0000
0010
0000
0000
0001
0000
0000
0010
0000
0000
1000
0000
0000
0001
,
0000
0000
0100
0000
0000
0001
0000
0010
0000
0100
0000
1000
0000
0000
0001
0000
,
0001
0000
0000
1000
0000
0000
0100
0000
0000
0001
0000
0000
0100
0000
0000
0010
,
0000
0000
0001
0000
0000
1000
0000
0010
0000
1000
0000
0001
0000
0000
1000
0000
,
1000
0000
0000
0010
0000
0000
0001
0000
0000
0010
0000
0000
1000
0000
0000
0000
,
2001
0000
0000
0000
0200
0300
0002
0000
,
3003
0000
0000
0000
;

//---------------dance-single - ----------------
#NOTEDATA:;
#CHARTNAME:X-Scale 11;
#STEPSTYPE:dance-single;
#DESCRIPTION:;
#CHARTSTYLE:;
#DIFFICULTY:Hard;
#METER:8;
#RADARVALUES:0.456679,0.499818,0.041651,0.177019,0.572708,307.000000,303.000000,4.000000,17.000000,0.000000,0.000000,0.000000,0.000000,0.000000,0.456679,0.499818,0.041651,0.177019,0.572708,307.000000,303.000000,4.000000,17.000000,0.000000,0.000000,0.000000,0.000000,0.000000;
#CREDIT:iamthek3n;
#NOTES:
0000
0000
0000
0000
,
0000
0000
0000
0000
,
0000
0000
0000
0000
,
0000
0000
0000
0000
,
1100
0000
0000
0000
0100
0000
0010
0000
0001
0000
0000
0000
1000
0000
0000
1000
,
0000
1000
0001
0000
0100
0000
0000
0010
0000
0010
0100
0000
0001
0000
0010
0000
,
1000
0001
0100
0010
0001
1000
0010
0100
,
0001
0000
0100
0000
0001
0010
0100
0000
,
1000
0000
0000
0000
0001
0000
0100
0000
0010
0000
0000
0000
1000
0000
0000
0001
,
0000
0001
0100
0000
0010
0000
0000
1000
0000
1000
0100
0000
0010
0000
1000
0000
,
0010
0001
0100
0001
0010
1000
0010
0100
,
1000
0000
0000
0000
0001
0000
0000
0100
0000
0100
0001
0000
1000
0000
0000
0000
,
1001
0000
0000
1000
0100
0000
1000
0000
0001
0000
0100
0000
0001
0000
0000
0010
,
0000
0100
0000
1000
0000
0001
0000
0100
0000
1000
0000
0100
0000
0001
0000
2000
,
0100
0000
0000
0000
0001
0000
0010
0000
3001
0000
0000
0000
0010
0000
0000
0100
,
0000
0100
1000
0000
0001
0000
0100
0000
0020
0000
0000
0000
0230
0000
0000
0000
,
1000
0000
0000
0000
0301
0000
0010
0000
0100
0000
0000
0000
1000
0000
0000
0100
,
0000
0001
0000
0100
0000
1000
0000
0001
0000
0100
0000
0010
0000
0100
0000
0002
,
0100
0000
0000
0000
1000
0000
0100
0000
1003
0000
0000
0000
0100
0000
0000
0010
,
0000
0010
0001
0000
0100
0000
0001
0000
0020
0000
0000
0000
0230
0000
0000
0000
,
1000
0000
0000
0000
0310
0000
0100
0000
1000
0000
0000
0000
0001
0000
0000
0200
,
0000
0000
0000
0000
1300
0000
0100
0000
0010
0000
0000
0000
1000
0000
0000
0002
,
0000
0000
0000
0000
0103
0000
0001
0000
0010
0000
0000
0000
0100
0000
0000
2000
,
0000
0000
0000
0000
3001
0000
1000
0000
0010
0000
0000
0000
0100
0000
0000
0020
,
0000
0000
0001
0000
0000
0000
0130
0000
0010
0000
1000
0000
0000
0000
0000
0001
,
0000
0010
0000
1000
0000
0001
0000
0100
0000
0010
0000
0001
0000
1000
0000
0020
,
0000
0001
0000
0100
0000
0001
0000
1030
,
0000
0001
0010
0100
2000
0000
0020
3030
,
1010
0000
0000
1000
0000
0000
0010
0000
0000
0001
0000
0000
0100
0000
0000
1000
,
0000
0000
0001
0000
0000
0010
0000
0100
0000
1000
0000
0010
0000
0010
1000
0000
,
0001
0000
0000
0010
0000
0000
1000
0000
0000
0100
0000
0000
0001
0000
0000
1000
,
0000
0000
0010
0000
0000
1000
0000
0100
0000
0010
0000
0001
0000
0001
0100
0000
,
0101
0000
0000
0001
1000
0000
0001
0000
0010
0000
0100
0000
1000
0000
0000
0100
,
0010
0000
0100
0000
1000
0001
0000
0010
0000
0001
0000
1000
0000
1000
0100
0000
,
0010
0000
0000
0010
0001
0000
0100
0000
0001
0000
0010
0000
0100
0000
0000
0100
,
1000
0000
0001
0000
0100
0001
0000
1000
0000
0010
0000
1000
0000
1000
0100
0000
,
0010
0000
0000
0100
1000
0000
0001
0000
0100
0000
0010
0000
0001
0000
0000
0010
,
0100
0000
0010
0000
1000
0010
0000
0100
0000
1000
0000
0100
0000
0100
0001
0000
,
1000
0000
0000
0100
0010
0000
0001
0000
1000
0000
0010
0000
0100
0000
0000
0100
,
0001
0010
0100
1000
0002
0000
0203
0000
,
0310
0000
0000
0010
0100
0000
0001
0000
0000
1000
0000
0000
0100
0000
0000
0100
,
0010
0000
0001
0000
0000
1000
0000
0010
0000
0010
0000
0100
0000
0000
0010
0000
,
1000
0000
0000
0100
0010
0000
0001
0000
0000
0100
0000
0000
0001
0000
0000
0010
,
0100
0000
1000
0000
0000
0001
0000
0100
0000
0100
0000
0010
0000
0000
0100
0000
,
0001
0000
0000
0001
1000
0000
0010
0000
0000
0100
0000
0000
0001
0000
0000
0001
,
0010
0000
0100
0000
0000
1000
0000
0100
0000
0100
0000
0010
0000
0000
0100
0000
,
1000
0000
0001
0100
0001
0000
1000
0100
1000
0000
0010
0100
0010
0000
1000
0100
,
1000
0100
0001
0100
2000
0000
0002
0000
,
3003
0000
0000
0000
;
