#VERSION:0.83;
#TITLE:Particles;
#SUBTITLE:(Original Mix);
#ARTIST:High 5;
#TITLETRANSLIT:;
#SUBTITLETRANSLIT:;
#ARTISTTRANSLIT:;
#GENRE:Progressive Trance;
#ORIGIN:;
#CREDIT:;
#BANNER:Particles (Original Mix)-bn.png;
#BACKGROUND:Particles (Original Mix)-bg.png;
#PREVIEWVID:;
#JACKET:Particles (Original Mix)-jacket.png;
#CDIMAGE:;
#DISCIMAGE:;
#LYRICSPATH:;
#CDTITLE:cdtitle.png;
#MUSIC:Particles (Original Mix).ogg;
#OFFSET:-0.003000;
#SAMPLESTART:58.185001;
#SAMPLELENGTH:14.545000;
#SELECTABLE:YES;
#BPMS:0.000=66.000,
32.000=132.000,
160.000=66.000,
176.000=132.000;
#STOPS:;
#DELAYS:;
#WARPS:;
#TIMESIGNATURES:0.000=4=4;
#TICKCOUNTS:0.000=4;
#COMBOS:0.000=1;
#SPEEDS:0.000=1.000=0.000=0;
#SCROLLS:0.000=1.000;
#FAKES:;
#LABELS:0.000=Song Start;
#BGCHANGES:;
#KEYSOUNDS:;
#ATTACKS:
;

//---------------dance-single - ----------------
#NOTEDATA:;
#CHARTNAME:X-Scale 5;
#STEPSTYPE:dance-single;
#DESCRIPTION:;
#CHARTSTYLE:;
#DIFFICULTY:Easy;
#METER:4;
#RADARVALUES:0.262767,0.290427,0.067022,0.193618,0.000000,247.000000,238.000000,9.000000,26.000000,0.000000,0.000000,0.000000,0.000000,0.000000,0.262767,0.290427,0.067022,0.193618,0.000000,247.000000,238.000000,9.000000,26.000000,0.000000,0.000000,0.000000,0.000000,0.000000;
#CREDIT:iamthek3n;
#NOTES:
0000
0000
0000
0000
,
0000
0000
0000
0000
,
0000
0000
0000
0000
,
0000
0000
0000
0000
,
0021
0000
0000
0130
0000
0010
0000
0001
,
0000
1000
0000
0001
0000
0020
0000
0000
,
0130
0000
0000
0000
,
0001
0000
0000
0000
0000
0000
2002
3003
,
1100
0000
0100
0000
1000
0000
0001
0010
,
0000
0000
0100
0010
0002
0000
0003
0000
,
0010
0000
0000
0100
0000
0000
1000
0001
,
0000
0000
0002
0000
1003
0100
0020
0000
,
0031
0000
0100
0000
0001
0000
0010
0100
,
0000
0000
0100
1000
0002
0000
0003
0000
,
2000
0000
0000
3002
0000
0000
2003
0000
,
3000
0002
0000
0203
0000
0302
0000
0003
,
1001
1000
0001
0100
,
0010
0100
0001
1000
,
0100
0010
0100
1000
,
0001
1000
0010
1000
,
0100
0010
0001
1000
0000
0000
0001
1000
,
0001
0000
0010
0100
1000
0000
0100
0010
,
0001
1000
0001
0100
,
0001
1000
0001
1001
,
1100
0000
0100
0000
0010
0000
0001
0100
,
0001
0000
1000
0000
0001
0100
0001
0000
,
1000
0000
0001
0000
0010
0000
0100
1000
,
0100
0000
1000
0000
0001
0100
0001
0000
,
1000
0000
0010
0000
1000
0100
1000
0000
,
0100
0000
0010
0000
0001
0100
0001
0000
,
0010
0000
0100
0000
1000
0000
0001
0100
,
0001
2000
0000
3001
,
1001
0000
1000
0000
0001
0000
0010
0100
,
1000
0000
0001
0000
0100
0001
1000
0000
,
0100
0000
0010
0000
0001
0000
1000
0001
,
0100
0000
0001
0000
0010
0100
1000
0000
,
0001
0000
0100
0000
0001
0000
0010
0001
,
1000
0000
0001
0000
0100
0001
1000
0000
,
0010
1000
0001
1000
,
0010
1000
0001
1000
,
1100
0100
0000
0010
0000
0001
0000
1000
,
0000
0001
0000
0100
0000
0001
0000
0010
,
0000
0100
0000
1000
0000
0001
0000
0000
,
1000
0000
0000
0001
0000
0000
1000
0000
,
1001
0001
0100
0001
,
1000
0010
1000
0100
,
0010
0100
1000
0001
,
0100
0001
0010
0100
,
1000
0010
1000
0100
,
0010
0001
1000
0001
,
0200
0000
0000
0302
0000
0000
2003
0000
,
0000
3002
0000
0203
0000
0302
0000
2003
,
0001
0000
3100
0000
1000
0000
0001
0010
,
0100
0000
1000
0000
0001
0000
0100
0001
,
1000
0000
0100
0000
0010
0000
0100
0010
,
0001
0000
1000
0000
0001
0000
0100
0001
,
1000
0000
0001
0000
0010
0000
0100
0010
,
0001
0000
1000
0000
0001
0000
0010
0100
,
1000
0000
0001
0000
1000
0000
0010
1000
,
0001
0200
0000
0302
0000
2003
0000
0200
,
3300
0000
0000
0000
;

//---------------dance-single - ----------------
#NOTEDATA:;
#CHARTNAME:X-Scale 8;
#STEPSTYPE:dance-single;
#DESCRIPTION:;
#CHARTSTYLE:;
#DIFFICULTY:Medium;
#METER:6;
#RADARVALUES:0.364896,0.424470,0.044681,0.357449,0.171278,343.000000,337.000000,6.000000,48.000000,0.000000,0.000000,0.000000,0.000000,0.000000,0.364896,0.424470,0.044681,0.357449,0.171278,343.000000,337.000000,6.000000,48.000000,0.000000,0.000000,0.000000,0.000000,0.000000;
#CREDIT:iamthek3n;
#NOTES:
0000
0000
0000
0000
,
0000
0000
0000
0000
,
0000
0000
0000
0000
,
0000
0000
0000
0000
,
1100
0000
1000
0100
0000
0000
1000
0001
0000
0000
1000
0100
0000
0000
0010
0100
,
1000
0000
0000
0100
0000
0000
0010
0002
0000
0203
0000
2300
0000
3020
0000
0032
,
1000
0000
0000
0103
0000
0000
0001
0000
0000
0100
0000
0000
0001
0000
0000
1000
,
0001
0000
0000
0100
0000
0000
1000
0000
0000
0001
0000
0010
0000
1000
0000
0001
,
1001
0000
1000
0100
2000
0000
3100
0020
,
0030
0000
0001
0100
0002
0000
0003
0100
,
0010
0000
1000
0001
0200
0000
0301
0010
,
0200
0000
1300
0000
1000
0010
1000
0001
,
0010
0000
0001
1000
0001
0000
0010
0100
,
1000
0000
0000
0000
0001
0000
0010
0000
0001
0000
0000
0000
1000
0000
0100
1000
,
0100
1000
0001
0100
0020
0000
1030
0001
,
0020
0000
1030
0010
0001
0100
0001
0000
,
0101
0000
0100
0010
1000
0000
0001
0010
,
0100
0000
0000
0000
1000
0000
0001
0000
0010
0000
0000
0001
0100
0000
0100
0000
,
0010
0000
1000
0010
1000
0000
0100
0010
,
0001
0000
0000
0000
0100
0000
0010
0000
0100
0000
0000
0001
0010
0000
0010
0000
,
0100
1000
0001
1000
0100
1000
0001
1000
,
0100
0010
0100
1000
0100
0010
0100
1000
,
0002
0000
0000
0023
0000
0000
2030
0000
,
0000
3200
0000
0302
0000
2003
0000
3001
,
1001
0000
0001
0000
0100
0001
0100
0001
,
0000
0000
0010
0100
0010
0100
2000
0000
,
3001
0000
0100
0000
0001
1000
0001
1000
,
0000
0000
0200
0000
0310
0100
2000
0000
,
3001
0000
0100
0000
0001
0010
0001
0010
,
0000
0000
0100
1000
0100
1000
0020
0000
,
1030
0000
0001
0000
0100
0010
0100
0010
,
0000
0000
1000
0001
1000
0001
0200
0000
,
0310
1000
0001
0100
0000
0010
0100
0010
,
1000
0000
0100
0010
0001
1000
0001
0000
,
0100
0010
1000
0001
0000
0010
0200
0000
,
1300
0000
0001
0000
1000
0010
0001
0010
,
1000
0001
0100
0010
0000
1000
0100
1000
,
0001
0000
0010
0001
1000
0100
0010
0000
,
0001
0100
0001
1000
0000
0010
0020
0000
,
0030
0000
0000
0200
0000
0000
0301
1000
0001
2000
0000
0000
,
3100
0000
0100
1000
0000
0000
0100
0010
0000
0000
0001
0100
0000
0000
1000
0100
,
0001
0000
0000
0100
0000
0000
0010
0100
0000
1000
0000
0100
0000
0010
0100
0001
,
1000
0000
0010
0100
0000
0000
0001
1000
0000
0000
0010
0100
0000
0000
1000
0100
,
0020
0000
0000
2030
0000
0000
3002
0000
0000
2003
0000
3200
0000
2300
0000
3001
,
1001
0000
0001
1000
0010
0000
0100
0000
,
0100
0000
0001
0010
0001
0000
1000
0001
,
0200
0000
0000
0302
0100
0000
0000
1003
,
0000
0010
0000
0001
0010
1000
0000
0001
,
1000
0000
1000
0001
0100
0000
0001
0000
,
0001
0000
0010
0100
1000
0000
0010
1000
,
0002
0000
0000
2003
0000
0000
3020
0000
,
0000
0230
0000
0302
0000
0023
0000
0130
,
1100
0000
1000
0000
0001
1000
0100
0000
,
0010
0000
0001
0000
0000
0000
0001
0000
0000
0000
1000
0001
1000
0000
0100
0000
,
0010
0000
0001
0100
0001
0000
0010
0000
,
0100
0000
0010
0000
0000
0000
0010
0000
0000
0000
0001
0010
0001
0000
1000
0000
,
0001
0000
0010
0000
0100
1000
0001
0000
,
1000
0000
0100
0000
0000
0000
0100
0000
0000
0000
0010
0001
0010
0000
0100
0000
,
0020
0000
0000
0230
0000
0000
2300
0000
,
0001
0000
3002
0000
0100
0000
0203
0000
0000
0000
0320
1000
0000
0000
2000
0000
,
3030
0000
0000
0000
;

//---------------dance-single - ----------------
#NOTEDATA:;
#CHARTNAME:X-Scale 12;
#STEPSTYPE:dance-single;
#DESCRIPTION:;
#CHARTSTYLE:;
#DIFFICULTY:Hard;
#METER:8;
#RADARVALUES:0.459577,0.558514,0.171278,0.402130,0.301597,432.000000,409.000000,23.000000,54.000000,10.000000,0.000000,1.000000,0.000000,0.000000,0.459577,0.558514,0.171278,0.402130,0.301597,432.000000,409.000000,23.000000,54.000000,10.000000,0.000000,1.000000,0.000000,0.000000;
#CREDIT:iamthek3n;
#NOTES:
// measure 0
0000
0000
0000
0000
,  // measure 1
0000
0000
0000
0000
,  // measure 2
0000
0000
0000
0000
,  // measure 3
0000
0000
0000
0000
,  // measure 4
1001
0000
0001
0000
0100
0000
0002
0000
0003
0020
0000
0030
0010
0000
0100
0000
0000
0000
0000
0000
0010
0000
0001
0000
0000
0000
0000
0000
1000
0000
0001
0000
,  // measure 5
0010
0000
1000
0010
0000
0000
0001
0100
0000
0010
0000
0010
0100
0010
1000
0000
,  // measure 6
1001
0000
0001
0000
0100
0000
0020
0000
0030
2000
0000
3000
0001
0000
0000
0000
0000
0000
0001
0000
0000
0000
0000
0000
0001
0000
0000
0000
0010
0000
0100
0000
,  // measure 7
1000
0000
0100
0020
0000
0000
0032
0000
0000
0203
0000
2300
0000
3020
0000
0031
,  // measure 8
1001
0000
1000
0100
0002
0000
0103
2000
,  // measure 9
3000
0000
0001
0100
0020
0000
1030
0001
,  // measure 10
2000
0000
3010
0100
0002
0000
1003
0020
,  // measure 11
0030
0000
2000
0000
3100
1000
0001
0100
,  // measure 12
0001
0000
1001
0010
2000
0000
3001
0100
,  // measure 13
0002
0000
0103
0010
0200
0000
0310
0100
,  // measure 14
1000
0100
0001
2000
3000
0100
0020
0000
,  // measure 15
0031
0000
0100
0000
0000
0000
0001
0000
0000
0000
1000
0000
0001
0010
0M00
0010
,  // measure 16
1000
0000
1100
0100
0010
0000
0100
1000
,  // measure 17
0001
0000
0000
0000
0100
0000
0001
0000
1000
0000
0010
1000
0001
0000
0001
0000
,  // measure 18
0100
0000
0001
1000
0100
00M0
0100
0001
,  // measure 19
1000
0000
0000
0000
0100
0000
0010
0000
0001
0000
1000
0001
1000
0100
00M0
0100
,  // measure 20
0001
0100
0010
0100
1000
0100
0010
0100
,  // measure 21
0001
1000
0010
0100
1000
0100
0010
0100
,  // measure 22
0001
0100
0001
0100
0001
0100
0001
0100
0010
1000
0010
1000
0010
1000
0010
1000
,  // measure 23
0002
2000
0000
0000
0000
0000
0000
0000
0000
0000
3003
0000
MMMM
0000
0000
0000
,  // measure 24
0110
0000
1001
0000
0001
1000
0001
1000
,  // measure 25
1100
0000
0001
0100
1000
0100
0002
0000
,  // measure 26
1003
0000
1001
0000
0001
0100
0001
0100
,  // measure 27
0101
0000
2000
0000
3001
0100
0010
1000
,  // measure 28
1100
0000
0101
0000
0001
0010
0001
0010
,  // measure 29
0011
0000
1000
0010
0001
0010
2000
0000
,  // measure 30
3010
0000
1001
0000
0100
0001
0100
0001
,  // measure 31
0101
0000
0001
0100
0010
1000
0002
0000
,  // measure 32
0013
0000
1001
0001
0100
1000
0100
0010
,  // measure 33
0200
0000
0301
0100
1000
0001
0010
1000
,  // measure 34
0002
0000
0100
0203
0000
0000
0301
1000
,  // measure 35
0100
1000
2000
0000
3001
0100
1000
0100
,  // measure 36
0001
0000
0101
0000
0100
0001
1000
0001
,  // measure 37
0020
0000
1030
0010
0001
0010
0200
0000
,  // measure 38
1300
0000
1100
0000
0001
0100
0001
0100
,  // measure 39
0000
0000
0000
0000
0000
0000
0000
0000
0000
0000
0000
0000
0004
0000
0000
0000
0000
0000
0000
0000
0000
0000
0000
0000
1003
0000
0000
0000
0010
0000
0000
0000
0100
0000
0000
0000
0001
0000
0000
0100
0000
0000
00M0
0000
0000
0100
0000
0000
,  // measure 40
1000
0000
0001
0000
0100
0000
0002
0000
0003
2000
0000
3000
0001
0000
0010
0000
0000
0000
0000
0000
0100
0000
0010
0000
0000
0000
0000
0000
1100
0000
1000
0000
,  // measure 41
0002
0000
0100
0203
0000
0000
0310
0002
0000
0023
0000
2030
0000
3100
0010
0001
,  // measure 42
1000
0000
0001
0000
0010
0000
0200
0000
0300
2000
0000
3000
0001
0000
0100
0000
0000
0000
0000
0000
1000
0000
0100
0000
0000
0000
0000
0000
0001
0000
1000
0000
,  // measure 43
0020
0000
0000
0000
0100
0000
0230
0000
0000
0000
0000
0000
0001
0000
0302
0000
0000
0000
0023
0000
0000
0000
0230
0000
0000
0000
2300
0000
3001
0100
00M0
0100
,  // measure 44
1000
0010
1010
2000
3001
0020
0130
0010
,  // measure 45
0001
0000
0000
0100
0001
0000
0010
0000
0100
0000
1000
0100
1000
0000
0001
0000
,  // measure 46
0100
0000
0000
0100
0001
0000
1000
0000
0100
0000
0000
0100
1000
0000
0001
0000
,  // measure 47
0100
0000
0010
0000
0001
0000
0010
0000
1000
0000
0010
1000
0001
0000
0001
0000
,  // measure 48
1000
0000
0000
0000
1100
0000
1000
0000
0001
0000
0000
0001
0010
0000
0100
0000
,  // measure 49
1000
0000
0000
1000
0001
0000
0100
0000
0001
0000
0010
0100
1000
0000
0010
0000
,  // measure 50
1000
0000
1001
0000
0010
0000
0011
0001
,  // measure 51
0000
0000
0100
0000
0000
0000
0001
0000
0000
0000
1000
0000
0001
0010
0M00
0010
,  // measure 52
1000
0000
0001
0000
1000
0000
0200
0000
0300
0020
0000
0030
1000
0000
0010
0000
,  // measure 53
0001
0000
0000
0000
1000
0000
0001
0000
0100
0000
0010
0100
0010
0000
1000
0000
,  // measure 54
0001
0000
1000
0001
0100
0000
0001
0010
,  // measure 55
0100
0000
0010
0000
0001
0000
0000
0000
1000
0000
0010
0100
0001
0000
1000
0000
,  // measure 56
0001
0000
0010
0100
1000
0000
0001
0100
,  // measure 57
1000
0000
0100
0000
0001
0000
0000
0000
1000
0000
0010
0100
0001
0000
1000
0000
,  // measure 58
0001
0000
0010
0100
1000
0000
0010
1000
,  // measure 59
0001
0000
0100
0000
0010
0000
1000
0000
0000
0000
0100
1000
0200
0000
0020
0000
,  // measure 60
0330
0000
0000
0000
;

//---------------dance-single - ----------------
#NOTEDATA:;
#CHARTNAME:X-Scale 13 (DANCERUSH Special);
#STEPSTYPE:dance-single;
#DESCRIPTION:;
#CHARTSTYLE:;
#DIFFICULTY:Challenge;
#METER:9;
#RADARVALUES:0.363832,0.424470,0.096809,0.171278,0.163831,342.000000,329.000000,13.000000,23.000000,140.000000,0.000000,0.000000,6.000000,0.000000,0.363832,0.424470,0.096809,0.171278,0.163831,342.000000,329.000000,13.000000,23.000000,140.000000,0.000000,0.000000,6.000000,0.000000;
#CREDIT:partik13;
#NOTES:
0000
0000
0000
0000
,
0000
0000
0000
0000
,
0000
0000
0000
0000
,
0000
0000
0000
0000
,
1100
0000
0000
0001
0000
1000
0000
0010
0000
0000
0100
0001
0000
0000
0010
0100
,
1000
0000
0000
0001
0000
0000
0100
0010
0000
0100
0000
0002
0000
2000
0000
3003
,
L00L
0000
0000
1000
0000
0010
0100
0000
0000
0100
0000
0000
0100
0000
0001
0010
,
0100
0000
0000
0010
0000
0000
0001
1000
0000
0100
0000
0001
0000
0100
0000
1000
,
0001
0000
0001
0010
0100
0000
0100
1000
,
0000
0000
0010
0100
0010
0000
0000
1000
,
0001
0000
0100
0010
0100
0000
0100
0001
,
0000
0000
0101
0000
0001
1000
0001
0000
,
0100
0000
0010
0100
1000
0000
0100
0001
,
0000
0000
1000
0001
0100
0000
0010
0100
,
0001
0000
0010
0100
1000
0000
0001
0100
,
0001
0000
1000
0000
1000
0100
0010
0000
,
0001
MMMM
0001
MMMM
0001
0000
0010
0100
,
1000
0000
0010
0100
0001
0000
1000
1000
,
1000
MMMM
1000
MMMM
1000
0000
0010
0100
,
1000
0000
1000
0100
0001
0000
1000
0000
,
0010
0100
0001
1000
0100
0001
1000
0010
,
0100
1000
0001
0100
0010
0100
0001
1000
,
0010
0100
0001
0010
0100
0010
0001
2000
,
0002
0000
0000
0000
0000
3003
L00L
0000
,
1000
MMMM
1000
MMMM
1000
0010
1000
0010
,
MMMM
0000
0001
0010
0001
0010
0110
0000
,
1000
MMMM
1000
MMMM
1000
0100
1000
0100
,
0000
0000
0110
0000
0001
0100
0010
1000
,
0001
MMMM
0001
MMMM
0001
0010
0001
0010
,
MMMM
0000
1000
0010
1000
0010
0110
0000
,
0001
MMMM
0001
MMMM
0001
0100
0001
0100
,
0110
0000
1000
0010
0001
0010
1000
0000
,
0001
0100
0020
0000
0031
0010
0001
0010
,
1000
0000
0001
0100
1000
0100
0001
0000
,
1000
0001
0020
0000
1030
0010
1000
0010
,
0001
0000
1001
0000
0010
1000
0001
0000
,
1000
0100
0020
0000
1030
0010
1000
0010
,
0001
0000
0100
0010
0001
0010
1000
0000
,
MMMM
0001
MMMM
0001
,
MMMM
0000
0000
0002
0000
0000
1003
0001
0100
0010
0000
0000
,
1010
0000
1000
0100
0000
0000
0001
0100
0000
0000
1000
0100
0000
0000
0010
0001
,
0200
0000
0000
0302
0000
0000
0013
0100
0000
1000
0000
0001
0000
0100
0000
0010
,
1000
0000
0001
0100
0000
0000
1000
0100
0000
0000
0001
0100
0000
0000
0010
0100
,
2000
0000
0000
3200
0000
0000
0302
0000
0000
1003
0000
0100
0000
0010
0000
0001
,
1001
0000
0010
1000
0001
0000
0100
0010
,
1000
MMMM
1000
MMMM
1000
0001
0100
0020
,
0000
0000
1030
2000
0000
0000
3001
1000
,
MMMM
1000
MMMM
1000
MMMM
1000
MMMM
1000
,
0001
0000
0100
0010
0001
0000
0001
0010
,
1000
MMMM
1000
MMMM
1000
0100
0010
0002
,
0000
0000
0103
0200
0000
0000
0301
0001
,
MMMM
0001
MMMM
0001
MMMM
0001
MMMM
0001
,
1001
0000
0100
1000
0000
0001
0100
0001
,
MMMM
0000
0001
0000
MMMM
0000
0001
0000
1000
0000
0000
0100
1000
0000
0001
0000
,
1000
0000
0001
0100
0001
0000
1000
0001
,
MMMM
0000
0001
0000
MMMM
0000
0001
0000
0010
0000
0000
0010
0100
0000
1000
0000
,
0001
0000
0100
0001
1000
0000
0010
1000
,
MMMM
0000
1000
0000
MMMM
0000
1000
0000
0010
0000
0000
0010
0100
0000
0001
0000
,
2000
0000
3001
0002
0000
0000
0103
0200
,
0000
0320
0000
0032
0000
0023
0000
1030
,
L0L0
0000
0000
0000
;
