#TITLE:POP TEAM EPIC;
#SUBTITLE:;
#ARTIST:上坂 すみれ;
#TITLETRANSLIT:POP TEAM EPIC;
#SUBTITLETRANSLIT:;
#ARTISTTRANSLIT:Sumire Uesaka;
#GENRE:J-Electro;
#CREDIT:;
#BANNER:PTE-bn.png;
#BACKGROUND:PTE-bg.png;
#LYRICSPATH:;
#CDTITLE:cdtitle.png;
#MUSIC:POP TEAM EPIC.ogg;
#OFFSET:-0.005000;
#SAMPLESTART:46.283001;
#SAMPLELENGTH:13.500000;
#SELECTABLE:YES;
#BPMS:0.000000=142.000000
;
#STOPS:
;
#BGCHANGES:-0.305=POP TEAM EPIC.mp4=1.000=1=0=1===CrossFade==,
99999=-nosongbg-=1.000=0=0=0 // don't automatically add -songbackground-
;
#KEYSOUNDS:;
#ATTACKS:;

//---------------dance-single - Ah... y o u a r e m o t h e r f u c k e r ?----------------
#NOTES:
     dance-single:
     X-Scale 12:
     Hard:
     8:
     0.556619,0.737521,0.089059,0.200383,0.178118,350.000000,342.000000,8.000000,18.000000,0.000000,0.000000,0.556619,0.737521,0.089059,0.200383,0.178118,350.000000,342.000000,8.000000,18.000000,0.000000,0.000000:
// measure 0
0000
0000
0000
0000
,  // measure 1
0000
0000
0000
0000
,  // measure 2
0000
0000
0000
0000
,  // measure 3
0000
0000
0000
0000
,  // measure 4
1001
0000
0001
0000
1000
0100
0010
0100
,  // measure 5
1000
0000
1000
0000
0001
0100
0010
1000
,  // measure 6
0010
0000
0010
0000
0100
0001
1000
0010
,  // measure 7
1000
0000
1000
0000
0002
0100
0000
0003
,  // measure 8
0101
0000
0100
0000
0010
0100
1000
0100
,  // measure 9
0010
0000
0010
0000
1000
0001
0010
0100
,  // measure 10
1000
0000
0000
0000
1000
0000
0000
0000
0001
0000
1000
0000
0100
0000
0010
0001
,  // measure 11
0010
0000
0001
0000
0001
0000
1000
0010
1000
0010
1000
0010
1000
0010
1000
0010
,  // measure 12
1000
0010
0001
0010
1000
0010
0100
0001
,  // measure 13
0010
0000
0001
0010
0000
0001
0100
0001
,  // measure 14
2000
0000
0001
3002
1000
0103
2000
3000
,  // measure 15
1000
0000
1000
0000
0001
0000
0001
0000
0010
0001
0000
0100
0010
0000
0100
0000
,  // measure 16
0001
0100
1000
0100
0010
1000
0001
1000
,  // measure 17
0100
0000
1000
0100
0000
1000
0001
0000
,  // measure 18
0020
0000
0031
0002
0100
0003
0200
0000
,  // measure 19
0310
0000
0100
0000
0001
0000
1000
0000
0100
1000
0000
0100
0010
0000
0010
0000
,  // measure 20
0210
0000
2300
0000
,  // measure 21
3002
0000
0023
0000
,  // measure 22
0032
0000
1000
0100
1000
0003
0001
0002
,  // measure 23
1000
0000
0003
0000
0001
0000
0010
0001
0010
0000
0100
0000
0010
0000
0001
0000
,  // measure 24
1000
0010
0001
0010
1000
0100
0010
0001
,  // measure 25
0100
0000
0010
0000
1000
0000
0001
0000
0010
0000
0001
0100
0001
0000
0100
0001
,  // measure 26
0010
0001
0010
0001
0010
0100
0010
0100
0010
0001
0010
0001
0010
0000
0001
0000
,  // measure 27
0000
2000
0000
3010
0000
0010
1000
0010
,  // measure 28
2010
0001
0010
0100
,  // measure 29
0010
3000
0001
1000
0000
1000
0100
1000
,  // measure 30
0001
0000
0010
1000
0010
0001
0010
1000
,  // measure 31
0010
0001
0010
0100
0000
0100
0010
0001
,  // measure 32
1000
0000
1000
0001
0100
1000
0100
0001
,  // measure 33
0100
0010
1000
0001
0100
0010
0100
0001
,  // measure 34
0100
0000
0010
0000
0010
0000
0000
0100
0010
0000
0100
0000
0100
0010
0100
0010
,  // measure 35
0100
0000
0000
0000
0001
0010
0001
0000
0000
0000
0001
0000
1000
0100
1000
0100
,  // measure 36
1200
0001
1000
0001
,  // measure 37
1000
0300
0100
1000
0000
1000
0001
0100
,  // measure 38
0001
0000
0100
1000
0100
0010
0100
1000
,  // measure 39
0100
0010
0100
0001
0000
1000
0001
0100
,  // measure 40
0001
0000
1000
0010
0100
0010
0001
0010
,  // measure 41
0100
0010
1000
0001
0010
0001
1000
0100
,  // measure 42
1000
0000
0010
0000
0010
0000
0100
0010
0100
0000
0001
0000
0100
0000
0001
0000
,  // measure 43
0010
0000
0000
0000
0001
0010
0001
0000
0000
0000
0001
0000
1000
0000
0000
0000
,  // measure 44
1001
1000
0001
0100
0001
0010
1000
0010
,  // measure 45
0001
0100
0010
1000
0001
0100
0000
0100
,  // measure 46
0001
0010
0100
0010
0001
1000
0010
0100
,  // measure 47
0001
1000
0001
0010
0000
0010
0100
0000
,  // measure 48
0110
0100
0010
0001
1000
0001
0100
1000
,  // measure 49
0100
0001
0010
0100
1000
0100
0001
0100
,  // measure 50
1000
0000
0001
0000
0100
0000
0000
0100
0010
0000
0100
0000
0001
0010
0001
0010
,  // measure 51
0001
0000
1000
0000
1000
0000
0010
1000
0000
0010
0100
0000
0010
0000
0010
0000
,  // measure 52
0220
0000
0000
0000
,  // measure 53
0330
0000
0000
0000
;

//---------------dance-single - Beef or chicken?----------------
#NOTES:
     dance-single:
     X-Scale 9:
     Medium:
     6:
     0.383272,0.442512,0.055662,0.222648,0.005566,241.000000,236.000000,5.000000,20.000000,0.000000,0.000000,0.383272,0.442512,0.055662,0.222648,0.005566,241.000000,236.000000,5.000000,20.000000,0.000000,0.000000:
0000
0000
0000
0000
,
0000
0000
0000
0000
,
0000
0000
0000
0000
,
0000
0000
0000
0000
,
1010
0000
0010
0000
1000
0010
0000
0010
,
0001
0000
0010
0000
1000
0100
0000
0100
,
0010
0000
0001
0000
0100
1000
0000
1000
,
0010
0000
0001
0000
0002
0010
0000
0000
,
0013
0000
0001
0000
1000
0100
0000
0100
,
0010
0000
0100
0000
1000
0001
0000
0001
,
0100
0000
0001
0000
1000
0100
0000
0100
,
0010
0000
0100
0000
0100
0000
0000
1000
0020
0000
1000
0000
0001
0000
1000
0000
,
1030
0000
0001
0000
1000
0010
0000
0010
,
0100
0000
0001
0010
0000
0010
0100
0000
,
0020
0000
0000
0032
0003
1000
0002
0003
,
1000
0000
0001
0000
0010
0000
0001
0100
,
0001
0000
1000
0000
0010
1000
0000
1000
,
0100
0000
0010
0100
0000
0100
1000
0000
,
2000
0000
3000
0020
0000
0030
0200
0000
,
0301
0000
0100
0000
1000
0000
0100
0001
,
0200
0000
0302
0000
,
2003
0000
3200
0000
,
2300
0000
0000
0001
0001
0000
3100
2000
,
0000
0000
3001
0000
1000
0010
1000
0010
,
1000
0100
0001
0100
,
1000
0001
0100
0010
,
1000
0100
0010
0001
1000
0010
0100
0001
,
0000
0002
0000
0103
0000
0001
0100
0001
,
0101
1000
0010
0100
,
0001
0000
0010
0000
0100
0000
1000
0100
,
1000
0000
0000
1000
0000
0001
0000
1000
,
0000
0001
0010
0001
0000
0001
0010
0001
,
1000
0000
1000
0001
0000
1000
0000
0001
,
0000
1000
0000
0100
0000
0010
0000
0001
,
0000
0010
0001
0000
1000
0000
0100
1000
,
0100
0000
1000
0001
0000
0001
0010
0100
,
0010
0001
1000
0010
,
0100
0000
0001
0000
1000
0000
0001
0100
,
0001
0000
1000
0010
0000
0100
0000
0010
,
0000
0100
0000
0001
1000
0000
0001
0100
,
0001
0000
1000
0100
0000
0010
0000
0100
,
0000
0010
0000
0100
0000
0010
0001
0100
,
0001
0010
0000
0001
0100
0000
0000
0001
,
0010
0000
0000
0200
0000
1300
0100
0000
,
1100
0000
0001
0100
0001
0000
1000
0000
,
0010
0001
0010
0000
1000
0100
0000
0100
,
1000
0000
0001
0000
0010
0100
0010
0000
,
0001
0000
1000
0010
0000
0010
0100
0000
,
0110
0000
0010
1000
0001
0000
0100
0001
,
0000
0001
1000
0000
0100
0010
0100
1000
,
0001
0000
0100
0001
0100
0000
0002
0000
,
1003
1000
0010
0010
0000
0100
0002
0003
,
0202
0000
0000
0000
,
0303
0000
0000
0000
;

//---------------dance-single - EISAI HARAMASUKOI----------------
#NOTES:
     dance-single:
     X-Scale 6:
     Easy:
     3:
     0.248093,0.295008,0.044530,0.256045,0.000000,156.000000,152.000000,4.000000,23.000000,0.000000,0.000000,0.248093,0.295008,0.044530,0.256045,0.000000,156.000000,152.000000,4.000000,23.000000,0.000000,0.000000:
0000
0000
0000
0000
,
0000
0000
0000
0000
,
0000
0000
0000
0000
,
0000
0000
0000
0000
,
1001
0000
0000
0000
0010
0100
0000
0100
,
0001
0000
0000
0000
1000
0100
0000
0100
,
0010
0000
0000
0000
0100
1000
0000
1000
,
0001
0000
0020
0000
,
0031
0000
0000
0000
0001
0100
0000
0100
,
1000
0000
0000
0000
1000
0010
0000
0010
,
0001
0000
0000
0000
0001
0010
0000
0010
,
0100
0010
2000
0000
,
3010
0001
0010
0100
,
1000
0010
0100
0001
,
0020
0000
0030
0002
0000
0003
2000
0000
,
3010
1000
0010
0100
,
0001
0010
0100
1000
,
0010
0100
0001
1000
,
0002
0000
0003
0020
0000
0030
0200
0000
,
0301
0100
1000
0001
,
0002
0000
0023
0000
,
0230
0000
2300
0000
,
3002
0000
0100
0000
,
0203
0301
1000
0000
,
1001
0000
0001
0000
,
1000
0000
0100
0000
,
0001
0100
1000
0100
,
0000
0200
0000
0300
0000
0000
0000
0000
,
0012
0000
1000
0000
,
0103
0000
0001
1000
,
0001
0000
0000
1000
0000
0100
0000
0010
,
0000
0001
0000
0000
0010
0000
0100
0000
,
0010
0000
0000
0001
0000
0100
0000
0010
,
0000
1000
0000
0001
0000
0100
0000
0001
,
0000
1000
1000
0000
1000
0000
0100
0000
,
0020
0000
0030
0200
0000
0000
0300
0000
,
0210
0000
0001
0000
,
1300
0000
0100
1000
,
0001
0000
0000
0001
0000
0010
0000
0100
,
0000
1000
0000
0000
0001
0000
1000
0000
,
0100
0000
0000
1000
0000
0010
0000
0100
,
0000
0001
0000
1000
0000
0001
0000
1000
,
0010
0000
0000
1000
0010
0000
0000
1000
,
0020
0000
0030
0200
0000
0000
0000
0000
,
0301
0000
0000
0100
0000
0000
0010
0000
,
0000
1000
0000
0000
0001
0000
0000
0100
,
0000
0000
0010
0000
0000
1000
0000
0000
,
0100
0000
0000
0010
0000
0000
0100
0000
,
0100
0000
0000
1000
0000
0000
0100
0000
,
0000
0001
0000
0000
0100
0000
0000
1000
,
0000
0000
0001
0000
0000
0100
0000
0000
,
0010
0000
0000
0010
0000
0000
0020
0000
,
2030
0000
0000
0000
,
3000
0000
0000
0000
;

//---------------dance-single - Takeshobo hate is present----------------
#NOTES:
     dance-single:
     X-Scale 2:
     Beginner:
     1:
     0.144721,0.173665,0.022265,0.178118,0.000000,91.000000,89.000000,2.000000,16.000000,0.000000,0.000000,0.144721,0.173665,0.022265,0.178118,0.000000,91.000000,89.000000,2.000000,16.000000,0.000000,0.000000:
0000
0000
0000
0000
,
0000
0000
0000
0000
,
0000
0000
0000
0000
,
0000
0000
0000
0000
,
1100
0000
0001
0000
,
1000
0000
0001
0000
,
1000
0000
0100
0000
,
0010
0000
0001
0000
,
1000
0000
0100
0000
,
1000
0000
0100
0000
,
1000
0000
0001
0000
,
0100
0000
0010
0000
,
1000
0000
0100
0000
,
0010
0000
0001
0000
,
0100
0000
0010
0000
,
1000
0000
0100
0000
,
1000
0000
0001
0000
,
0100
0000
0010
0000
,
1000
0000
0001
0000
,
1000
0000
0010
0000
,
0200
0000
0320
0000
,
0230
0000
0320
0000
,
2030
0000
0000
0000
,
3200
0000
0320
0000
,
0031
0000
0010
0000
,
0100
0000
1000
0000
,
0002
0000
0000
0000
,
0003
0000
0000
0000
,
2100
0000
0000
0000
,
3000
0000
0001
0000
,
1000
0000
0100
0000
,
1000
0000
0001
0000
,
0100
0000
0010
0000
,
1000
0000
0100
0000
,
1000
0000
0001
0000
,
0100
0000
0000
0200
0000
0000
0300
0000
,
0002
0000
0000
0000
,
0003
0000
1000
0000
,
0001
0000
0010
0000
,
0001
0000
1000
0000
,
0010
0000
0100
0000
,
0001
0000
0010
0000
,
0100
0000
0010
0000
,
0001
0000
0000
0002
0000
0000
0000
0000
,
0003
0000
1000
0000
,
0100
0000
1000
0000
,
0001
0000
0100
0000
,
0010
0000
0000
2000
0000
3000
1000
0000
,
0001
0000
1000
0000
,
0010
0000
0100
0000
,
0001
0000
0010
0000
,
0200
0000
0300
2000
0000
3000
0200
0000
,
0300
0000
0000
0000
;
