#TITLE:PONPONPON;
#SUBTITLE:;
#ARTIST:きゃりーぱみゅぱみゅ;
#TITLETRANSLIT:;
#SUBTITLETRANSLIT:;
#ARTISTTRANSLIT:Kyary Pamyu Pamyu;
#GENRE:J-Pop;
#CREDIT:;
#BANNER:PONPONPON-bn.png;
#BACKGROUND:PONPONPON-bg.png;
#LYRICSPATH:;
#CDTITLE:cdtitle.png;
#MUSIC:PONPONPON.ogg;
#OFFSET:-0.003000;
#SAMPLESTART:30.941000;
#SAMPLELENGTH:15.000000;
#SELECTABLE:YES;
#BPMS:0.000000=128.000000
;
#STOPS:
;
#BGCHANGES:0.000=PONPONPON.avi=1.000=1=0=0=StretchNoLoop==CrossFade==,
99999=-nosongbg-=1.000=0=0=0 // don't automatically add -songbackground-
;
#KEYSOUNDS:;
#ATTACKS:;

//---------------dance-single - ----------------
#NOTES:
     dance-single:
     X-Scale 10:
     Medium:
     7:
     0.420945,0.477665,0.247485,0.301622,0.058004,381.000000,349.000000,32.000000,39.000000,0.000000,0.000000,0.420945,0.477665,0.247485,0.301622,0.058004,381.000000,349.000000,32.000000,39.000000,0.000000,0.000000:
// measure 0
0000
0000
0000
0000
,  // measure 1
0000
0000
0000
0000
,  // measure 2
0000
0000
0000
0000
,  // measure 3
0000
0000
0000
0000
,  // measure 4
0000
0000
1000
0100
,  // measure 5
0010
0002
0000
2003
0000
3000
1010
0000
,  // measure 6
1000
0010
1000
0001
0010
0000
0100
0000
,  // measure 7
1000
0001
0100
0020
0000
2030
0000
3000
,  // measure 8
0001
0100
1000
0100
0001
0000
0010
0100
,  // measure 9
0000
0010
0000
0001
1000
0001
1000
0200
,  // measure 10
0010
0300
0200
0300
0110
0000
0010
0001
,  // measure 11
0000
1000
0000
0010
0100
0010
0100
0002
,  // measure 12
0000
0103
1000
0010
0002
0003
0002
0003
,  // measure 13
0010
0100
0000
1000
0001
1000
0001
0000
,  // measure 14
0100
0010
0100
0000
1001
0000
1000
0000
,  // measure 15
1010
0010
0000
1000
0000
0010
1000
0010
,  // measure 16
1000
0000
0011
0011
,  // measure 17
0010
0100
1000
0000
0010
1000
0001
0000
,  // measure 18
0100
0010
0100
0000
1001
0000
1001
0000
,  // measure 19
1000
0100
0010
0000
1000
0010
0001
0000
,  // measure 20
0100
0001
0010
0000
0011
0000
1010
0000
,  // measure 21
0001
1000
0001
0000
0100
0010
1000
0000
,  // measure 22
0100
0010
0001
0000
0101
0000
0101
0000
,  // measure 23
1000
0001
1000
0000
0001
0010
0100
0000
,  // measure 24
1000
0010
0100
0001
0101
0000
0101
0000
,  // measure 25
0001
0010
0100
0000
1000
0100
1000
0100
,  // measure 26
0010
0001
1000
0000
1001
0000
1001
0000
,  // measure 27
0100
0001
1000
0000
0001
0010
1000
0001
,  // measure 28
0100
0010
0001
0000
0011
0000
0011
0000
,  // measure 29
1000
0001
0100
0000
0010
0100
1000
0100
,  // measure 30
0001
1000
0010
0000
1010
0000
1010
0000
,  // measure 31
1000
1000
0001
0000
0010
0010
0001
1000
,  // measure 32
0010
0000
0100
0000
0010
0000
0000
0000
1001
0000
0000
1000
0100
0000
1000
0000
,  // measure 33
0001
0000
0000
0010
0100
0000
0010
0000
0001
0000
0000
0100
0001
0000
1000
0000
,  // measure 34
0010
0000
0000
0100
0010
0000
1000
0000
0001
0000
0000
0010
0100
0000
0010
0000
,  // measure 35
0001
0000
0000
1000
0001
0000
0100
0000
0001
0000
0010
0000
1000
0000
0010
0000
,  // measure 36
0200
0000
0000
0000
0001
0000
0000
0000
1300
0000
0000
0100
0000
0000
0010
0000
,  // measure 37
0021
0000
0000
0000
0100
0000
0000
0000
0031
0000
0000
0010
0000
0000
0100
0000
,  // measure 38
1200
0001
2300
0000
,  // measure 39
3020
0001
0130
0100
,  // measure 40
0010
0100
0010
0000
1001
0000
1000
0000
,  // measure 41
0010
1000
0001
0000
0100
0000
0001
0000
,  // measure 42
1000
0100
0010
0000
0001
0000
0001
0000
,  // measure 43
1000
0001
0100
0000
0001
0000
1000
0000
,  // measure 44
0010
0000
1000
0000
0001
0000
0000
0000
0010
0000
0000
0100
0000
0000
0100
0000
,  // measure 45
0000
0000
0000
1000
0100
0000
1000
0000
0001
0000
0000
0010
0000
0000
0010
0000
,  // measure 46
0000
0000
0000
0100
0010
0000
0100
0000
1000
0000
0000
0000
1000
0000
0000
0000
,  // measure 47
0001
0100
0001
0000
1000
0000
0100
0000
,  // measure 48
0010
0100
1000
0000
2200
3300
2200
3300
,  // measure 49
0001
0001
0001
0000
0100
0100
0010
0100
,  // measure 50
0010
0100
0200
0300
2002
3003
2002
3003
,  // measure 51
0010
0010
0010
0000
1000
1000
0100
1000
,  // measure 52
0100
1000
2000
3000
2020
3030
2020
3030
,  // measure 53
0001
0001
0001
0000
0010
0010
0100
0010
,  // measure 54
0100
0010
0020
0030
0202
0303
0202
0303
,  // measure 55
1000
1000
1000
0000
0001
0001
0100
0001
,  // measure 56
0100
0001
0002
0003
1000
0100
0010
0000
,  // measure 57
0100
0010
0001
0000
1000
0010
0001
0010
,  // measure 58
2000
0000
3001
0000
0010
0100
1000
0000
,  // measure 59
0001
0010
0100
0000
1000
0010
0100
0001
,  // measure 60
0020
0000
0000
0000
0130
0000
1000
0000
0001
0000
0000
0010
0000
0000
0100
0000
,  // measure 61
1000
0000
0000
0100
0010
0000
0001
0000
1000
0000
0000
0010
1000
0000
0001
0000
,  // measure 62
0200
0000
1300
0100
0010
0000
1000
0001
,  // measure 63
0100
0000
0010
0100
0001
0000
1000
0100
,  // measure 64
0001
1000
0010
0100
2000
0000
0000
0000
,  // measure 65
0000
0000
0000
0000
,  // measure 66
0000
0000
0002
0000
,  // measure 67
0000
0000
0000
0000
,  // measure 68
0000
0000
0000
0000
0000
3003
0000
0000
;

//---------------dance-single - ----------------
#NOTES:
     dance-single:
     X-Scale 12:
     Hard:
     8:
     0.543582,0.583812,0.201081,0.116008,0.232017,492.000000,466.000000,26.000000,15.000000,0.000000,0.000000,0.543582,0.583812,0.201081,0.116008,0.232017,492.000000,466.000000,26.000000,15.000000,0.000000,0.000000:
// measure 0
0000
0000
0000
0000
,  // measure 1
0000
0000
0000
0000
,  // measure 2
0000
0000
0000
0000
,  // measure 3
0000
0000
0000
0000
,  // measure 4
0000
0000
0200
0001
,  // measure 5
0000
0301
0020
1000
,  // measure 6
0000
1030
0002
0010
,  // measure 7
0000
0000
0013
0020
0000
0000
0100
0000
,  // measure 8
0000
0031
0100
0001
1001
0000
1000
0100
,  // measure 9
0001
0100
0010
0100
1000
1000
1000
0002
,  // measure 10
0100
0000
0100
0000
0100
0000
0000
0000
1003
0000
0000
0001
0010
0000
0001
0000
,  // measure 11
1000
0001
0010
0100
1000
1000
1000
0200
,  // measure 12
0001
0000
1300
0100
1100
0000
0101
0000
,  // measure 13
1000
0000
0010
0000
0001
0000
0010
0000
1001
0000
1000
0000
1000
0000
0100
0010
,  // measure 14
0001
0100
1000
0100
1001
0000
0001
1000
,  // measure 15
0001
0100
0000
1010
0000
1000
0001
1000
,  // measure 16
0001
0000
0010
0100
0010
0000
0100
0000
1001
0000
0000
0100
1000
0000
0001
0000
,  // measure 17
0010
0000
0000
0100
0010
0000
0001
0000
1000
0000
0010
0000
0001
0000
0010
0000
,  // measure 18
1000
0000
0001
0000
0100
0000
0010
0100
0010
0000
0000
1000
0010
0000
1000
0000
,  // measure 19
0100
0000
0000
0010
0001
0000
1000
0000
0001
0000
0010
0000
1000
0000
0010
0000
,  // measure 20
0100
0000
0010
0000
0001
0000
1000
0001
1000
0000
0000
0100
0010
0000
0001
0000
,  // measure 21
1000
0000
0000
0001
0100
0000
0001
0000
0010
0000
1000
0000
0001
0000
1000
0000
,  // measure 22
0010
0000
0001
0000
1000
0000
0100
0010
0100
0000
0000
1000
0100
0000
1000
0000
,  // measure 23
0001
0000
0000
0010
0100
0000
1000
0000
0001
0000
0100
0000
0010
0000
0001
0000
,  // measure 24
0010
0000
0100
0010
0100
0000
0001
0000
1001
0000
0100
0000
1001
0000
0010
0000
,  // measure 25
1000
0000
0001
0010
0100
0000
1000
0000
0001
0000
1000
0000
0010
0000
1000
0000
,  // measure 26
0100
0010
0001
0000
0110
0001
0110
1000
,  // measure 27
0010
0000
0100
0001
1000
0000
0001
0000
0010
0000
1000
0000
0010
0000
0001
0000
,  // measure 28
1000
0100
1000
0000
0011
1000
0101
1000
,  // measure 29
0001
0000
0010
0100
1000
0000
0001
0000
0100
0000
1000
0000
0100
0000
0001
0000
,  // measure 30
0100
0010
1000
0000
1010
0001
1100
0001
,  // measure 31
1000
0000
0010
1000
0001
0000
0010
0000
0100
0000
0100
0000
1000
0000
0002
0000
,  // measure 32
0013
0000
0100
0010
0100
0000
1000
0001
1000
0000
0010
0000
0100
0000
0001
0000
,  // measure 33
0010
0000
0000
0010
0100
0000
1000
0000
0001
0000
0100
0000
0010
0000
0100
0000
,  // measure 34
0001
0000
0000
0001
1000
0000
0100
0000
0010
0000
1000
0000
0010
0000
0001
0000
,  // measure 35
0011
0000
1001
0000
1010
0010
0100
0001
,  // measure 36
0010
0000
0000
0010
0100
0000
1000
0000
0001
0000
0100
0000
1000
0000
0100
0000
,  // measure 37
0001
0000
0000
0001
1000
0000
0100
0000
1000
0000
0010
0000
0100
0000
0001
0000
,  // measure 38
1000
0000
0000
1000
0100
0000
0010
0000
0011
0000
0000
0000
1000
0000
0000
0000
,  // measure 39
1001
0010
0110
1001
,  // measure 40
1000
0000
0010
0000
1000
0000
0000
0000
1010
0000
0000
1000
0010
0000
1000
0000
,  // measure 41
0001
0010
0200
0000
1300
0100
0001
0100
,  // measure 42
0010
0000
0001
0000
0100
0000
0010
0100
0010
0000
0000
0100
0001
0000
1000
0000
,  // measure 43
0010
0100
2000
0000
3100
0001
1000
0010
,  // measure 44
0100
0000
0001
0100
0010
0000
0100
0000
0001
0000
0000
1000
0100
0000
0001
0000
,  // measure 45
0100
0000
0000
0010
0100
0000
1000
0000
0010
0000
0000
0100
0001
0000
0001
0000
,  // measure 46
1000
0000
0010
0100
0010
0000
0001
0000
0010
0000
0000
0010
1000
0000
0001
0000
,  // measure 47
0010
1000
0010
0001
0100
0010
1000
0001
,  // measure 48
0010
0000
0100
0010
0001
0000
1000
0000
1100
0000
0000
1000
0001
0000
0100
0000
,  // measure 49
0001
0000
0001
0000
0001
0000
0010
0100
1000
0000
0000
0010
0100
0000
1000
0000
,  // measure 50
0100
0000
0001
0000
0001
0000
1000
0001
0100
0000
0000
0010
0100
0000
0001
0000
,  // measure 51
1000
0000
1000
0000
1000
0000
0010
1000
0001
0000
0001
0000
0100
0000
0001
0000
,  // measure 52
1000
0000
0100
0010
0100
0000
1000
0000
1001
0000
0000
0100
0001
0000
0010
0000
,  // measure 53
0100
0000
0000
1000
0100
0000
0010
0000
0001
0000
0000
0100
0001
0000
0010
0000
,  // measure 54
0100
0000
0001
0000
0100
0000
1000
0000
0001
0000
0000
1000
0010
0000
1000
0000
,  // measure 55
0001
0000
0001
0000
0001
0000
0010
0100
1000
0000
1000
0000
0010
0000
1000
0000
,  // measure 56
0001
0000
0100
0000
0100
0000
0001
0010
0100
0000
0100
0000
1000
0000
0100
1000
,  // measure 57
0001
0000
0100
0000
0001
0000
0010
0001
1000
0000
0100
0000
0001
0000
0100
0000
,  // measure 58
2000
0000
0000
0000
3001
0000
1000
0001
0100
0000
0001
0000
1000
0000
0010
0100
,  // measure 59
0001
0000
1000
0000
0001
0000
0010
0100
1000
0000
0010
0000
0001
0000
0010
0000
,  // measure 60
2000
0000
0000
0000
3001
0000
0010
0000
0100
0000
0000
0100
1000
0000
0010
0000
,  // measure 61
0100
0000
0000
0001
1000
0000
0001
0010
0001
0000
1000
0000
0010
0000
0100
0000
,  // measure 62
0020
0000
0000
0000
0031
0000
0010
0000
1000
0000
0000
0100
0000
0000
1000
0000
,  // measure 63
0001
0000
0000
0100
0000
0000
0001
0100
0001
0000
1000
0000
0010
0000
0100
0000
,  // measure 64
1000
0100
0001
1000
0200
0000
0000
0000
,  // measure 65
0000
0000
0000
0000
,  // measure 66
0000
0000
0000
0300
2002
0000
0000
0000
,  // measure 67
0000
0000
0000
0000
,  // measure 68
0000
0000
0000
0000
0000
3003
0000
0000
;

//---------------dance-single - special thanks to forced for making finish off the simfile----------------
#NOTES:
     dance-single:
     X-Scale 12 (DRS Special):
     Challenge:
     8:
     0.414316,0.488589,0.162412,0.162412,0.054137,375.000000,354.000000,21.000000,21.000000,158.000000,0.000000,0.414316,0.488589,0.162412,0.162412,0.054137,375.000000,354.000000,21.000000,21.000000,158.000000,0.000000:
// measure 0
0000
0000
0000
0000
,  // measure 1
0000
0000
0000
0000
,  // measure 2
0000
0000
0000
0000
,  // measure 3
0000
0000
0000
0000
,  // measure 4
0000
0000
0000
0001
,  // measure 5
MMMM
0001
MMMM
0001
,  // measure 6
0010
0000
0100
0010
0001
0000
1000
0000
,  // measure 7
MMMM
1000
MMMM
1000
,  // measure 8
0000
0000
1000
0100
0010
0000
0001
0000
0100
0000
0000
0000
00M0
0000
1000
0000
,  // measure 9
MMMM
1000
MMMM
1000
0001
0100
0001
0020
,  // measure 10
1000
0000
0100
0000
0031
0000
0000
1000
,  // measure 11
MMMM
1000
MMMM
1000
0010
0001
0010
1000
,  // measure 12
0001
0000
0100
0001
0100
0000
0010
0000
0220
0000
0330
0000
2002
0000
3003
0000
,  // measure 13
0000
0001
0010
0100
0110
0000
MMMM
0000
,  // measure 14
2020
3030
0220
0330
0011
0000
1000
0000
,  // measure 15
1010
0002
0000
2003
3000
0002
0203
0302
,  // measure 16
0200
0303
0L0L
0000
1000
MMMM
1000
MMMM
,  // measure 17
1000
0001
0010
0M00
1000
0001
0100
0010
,  // measure 18
0001
0010
1000
0000
0001
MMMM
0001
MMMM
,  // measure 19
0001
1000
0100
00M0
0001
0100
0010
0001
,  // measure 20
0010
1000
0001
0000
1000
MMMM
1000
MMMM
,  // measure 21
1000
0100
0010
000M
1000
0001
0100
0010
,  // measure 22
0100
0001
1000
0000
0001
MMMM
0001
MMMM
,  // measure 23
0001
0010
0100
M000
0001
0100
0010
0001
,  // measure 24
0010
0000
1000
0010
1000
0000
0100
0000
1100
0000
0000
0000
0011
0000
0001
0000
,  // measure 25
1000
0000
0000
0010
1000
0000
0100
0000
0010
0000
1000
0000
0010
0000
0001
0000
,  // measure 26
0010
0100
1000
0000
1010
0000
0101
0000
,  // measure 27
0100
0000
0000
0001
1000
0000
0001
0000
0010
0000
1000
0000
0001
0000
0100
0000
,  // measure 28
0010
0001
0010
0000
0110
0000
1001
0000
,  // measure 29
1000
0000
0000
0001
0100
0000
0010
0000
1000
0000
0010
0000
0001
0000
0010
0000
,  // measure 30
1000
0100
0010
0000
0011
0000
1010
0000
,  // measure 31
1000
0000
0000
0001
0010
0000
0001
0000
0100
0000
0010
0000
0001
0000
0010
0000
,  // measure 32
1000
0100
0010
0000
1001
0000
1000
MMMM
,  // measure 33
1000
MMMM
1000
0100
0010
0000
0001
MMMM
,  // measure 34
0001
MMMM
0001
1000
0010
0000
1000
MMMM
,  // measure 35
1000
MMMM
1000
MMMM
1000
MMMM
1000
0001
,  // measure 36
0020
0000
0100
0000
0031
MMMM
0001
MMMM
,  // measure 37
0001
0000
0100
0001
1000
MMMM
1000
MMMM
,  // measure 38
1000
0000
0001
0010
0011
0000
0000
0000
,  // measure 39
1010
0001
1001
1000
,  // measure 40
0010
1000
0001
1000
0100
00M0
0100
0000
,  // measure 41
0001
0010
0100
0000
1000
0000
0001
0000
,  // measure 42
1000
0100
0010
0000
0001
0000
0100
00M0
,  // measure 43
0100
1000
0001
0000
0100
0010
1000
0000
,  // measure 44
0001
0000
0010
0000
1000
0000
0010
0000
0001
0000
0000
0100
0000
0000
100M
0000
,  // measure 45
0010
0000
0000
0100
0010
0000
1000
0000
0001
0000
0000
0100
0000
0000
M010
0000
,  // measure 46
0001
0000
0000
1000
0100
0000
1000
0000
0010
0000
0000
0000
0M10
0000
0000
0000
,  // measure 47
0001
1000
0010
0000
0100
0010
0001
0010
,  // measure 48
1000
0001
0100
0000
0001
MMMM
0001
MMMM
,  // measure 49
0001
0010
0100
0000
1000
1000
0001
0010
,  // measure 50
0001
0100
0100
0000
0001
MMMM
0001
MMMM
,  // measure 51
0001
1000
0100
0000
0010
0010
0001
1000
,  // measure 52
0001
0100
0100
0001
1000
MMMM
1000
MMMM
,  // measure 53
1000
0001
0100
0000
0010
0010
1000
0001
,  // measure 54
1000
0100
0100
0000
1000
MMMM
1000
MMMM
,  // measure 55
1000
0001
0010
0000
0100
0100
1000
0001
,  // measure 56
0100
0010
0010
1000
0001
0010
1000
0010
,  // measure 57
0001
0010
1000
0010
0001
0100
0010
1000
,  // measure 58
0200
0000
0310
0100
1000
0010
0001
0010
,  // measure 59
1000
0010
0001
0010
1000
0001
0100
0010
,  // measure 60
0200
0000
0000
0000
1300
0000
0100
0000
0001
0000
0000
0010
0000
0000
0100
0000
,  // measure 61
1000
0000
0000
1000
0000
0000
1000
0000
0010
0000
0001
0000
0010
0000
1000
0000
,  // measure 62
0002
0000
0000
0000
0103
0000
0000
0000
0010
0000
0000
0010
0000
0000
0010
0000
,  // measure 63
0100
1000
0100
0001
1000
0100
0001
0100
,  // measure 64
0010
0001
1000
0010
0200
0000
0000
0000
,  // measure 65
0000
0000
0002
0000
,  // measure 66
0000
0000
0000
0303
0L0L
0000
0000
0000
;

//---------------dance-single - ----------------
#NOTES:
     dance-single:
     X-Scale 6:
     Easy:
     4:
     0.303832,0.308582,0.030936,0.092807,0.000000,275.000000,271.000000,4.000000,12.000000,0.000000,0.000000,0.303832,0.308582,0.030936,0.092807,0.000000,275.000000,271.000000,4.000000,12.000000,0.000000,0.000000:
// measure 0
0000
0000
0000
0000
,  // measure 1
0000
0000
0000
0000
,  // measure 2
0000
0000
0000
0000
,  // measure 3
0000
0000
0000
0000
,  // measure 4
0000
0000
2000
0100
,  // measure 5
0000
0100
3002
0010
,  // measure 6
0000
0010
0203
0001
,  // measure 7
0000
0000
0301
0002
0000
0000
1000
0000
,  // measure 8
0000
1003
0001
0100
0101
0000
0000
0100
,  // measure 9
0000
0001
0000
1000
0000
0000
0000
0200
,  // measure 10
1000
0000
0010
0000
1300
0000
0000
0001
,  // measure 11
0000
0100
0000
0001
0000
0000
0000
0020
,  // measure 12
0100
0001
0130
0100
,  // measure 13
0000
1000
0000
1000
0000
0000
0001
0100
,  // measure 14
0001
0001
1000
0010
,  // measure 15
1000
0000
0100
0000
0010
0001
0010
0001
,  // measure 16
0010
0000
1001
1000
,  // measure 17
0010
1000
0001
0010
,  // measure 18
0100
0010
0001
0000
1000
0000
0010
0000
,  // measure 19
1000
0001
0010
0100
,  // measure 20
1000
0100
0010
0000
0001
0000
0100
0000
,  // measure 21
0001
0010
0100
1000
,  // measure 22
0001
1000
0010
0000
0100
0000
0010
0000
,  // measure 23
1000
0001
0100
0001
,  // measure 24
1000
0100
0010
0000
0011
0000
0001
0000
,  // measure 25
0100
0001
1000
0010
,  // measure 26
1000
0100
0010
0000
0100
0000
0100
0000
,  // measure 27
1000
0001
0100
0001
,  // measure 28
1000
0001
0100
0000
0001
0000
0001
0000
,  // measure 29
0010
0100
1000
0001
,  // measure 30
1000
0100
0010
0000
0100
0000
0100
0000
,  // measure 31
1000
0001
0100
0001
,  // measure 32
0010
0100
1000
0000
0001
0000
0100
0010
,  // measure 33
0200
0000
0001
0000
0310
0000
1000
0100
,  // measure 34
2000
0100
3001
0100
,  // measure 35
0001
0000
0010
0000
0100
0000
0010
0001
,  // measure 36
0020
0000
0100
0000
0031
0000
1000
0001
,  // measure 37
2000
0000
0010
0000
3001
0000
0100
0010
,  // measure 38
0200
0010
0301
0000
,  // measure 39
1000
0000
0010
1000
,  // measure 40
0010
1000
1010
0010
,  // measure 41
1000
0001
1000
0000
0100
0000
0010
0000
,  // measure 42
0001
0010
0001
0000
1000
0000
0010
0000
,  // measure 43
0100
0010
0100
0000
0001
0000
0010
0000
,  // measure 44
0100
1000
0100
0000
0010
0000
0001
0000
,  // measure 45
1000
0010
1000
0000
0001
0000
0010
0000
,  // measure 46
0100
1000
0100
0000
0010
0000
0001
0000
,  // measure 47
1000
0001
1000
0000
0010
0000
0100
0000
,  // measure 48
0001
1000
0001
0000
0100
0000
0100
0000
,  // measure 49
0001
0100
0001
0000
1000
0000
0100
0000
,  // measure 50
0010
0001
0010
0000
0100
0000
0100
0000
,  // measure 51
1000
0100
1000
0000
0001
0000
0100
0000
,  // measure 52
0001
0100
0001
0000
0010
0000
0010
0000
,  // measure 53
0100
0010
0100
0000
1000
0000
0001
0000
,  // measure 54
1000
0010
1000
0000
0100
0000
0100
0000
,  // measure 55
0010
0100
0010
0000
0001
0000
1000
0000
,  // measure 56
0001
0100
0001
0000
0010
0000
0100
0000
,  // measure 57
1000
0010
0100
0001
,  // measure 58
1000
0000
0100
0010
0001
0000
1000
0000
,  // measure 59
0001
0100
0001
0010
,  // measure 60
0100
0000
1000
0100
0010
0000
0100
0000
,  // measure 61
1000
0000
0001
0000
0100
0000
0010
0100
,  // measure 62
0001
1000
0100
0010
,  // measure 63
0001
0000
1000
0000
0001
0000
0100
0001
,  // measure 64
1000
0000
0010
1000
0002
0000
0000
0000
,  // measure 65
0000
0000
0000
0000
,  // measure 66
0000
0000
0013
0000
;

//---------------dance-single - ----------------
#NOTES:
     dance-single:
     X-Scale 2:
     Beginner:
     2:
     0.119323,0.154291,0.015468,0.000000,0.000000,108.000000,106.000000,2.000000,0.000000,0.000000,0.000000,0.119323,0.154291,0.015468,0.000000,0.000000,108.000000,106.000000,2.000000,0.000000,0.000000,0.000000:
// measure 0
0000
0000
0000
0000
,  // measure 1
0000
0000
0000
0000
,  // measure 2
0000
0000
0000
0000
,  // measure 3
0000
0000
0000
0000
,  // measure 4
0000
0000
0001
0000
,  // measure 5
0000
0000
1000
0000
,  // measure 6
0000
0000
0001
0000
,  // measure 7
0000
0000
1000
0000
,  // measure 8
0000
0000
0000
0001
,  // measure 9
0000
0100
0000
0001
,  // measure 10
0000
1000
0000
0001
,  // measure 11
0000
0100
0000
0001
,  // measure 12
0000
1000
0000
0100
,  // measure 13
0000
0010
0000
0100
,  // measure 14
0000
1000
0000
0100
,  // measure 15
0000
0010
0000
0000
,  // measure 16
0000
0000
1001
0000
,  // measure 17
1000
0000
0001
0000
,  // measure 18
0100
0000
0001
0000
,  // measure 19
1000
0000
0001
0000
,  // measure 20
0010
0000
0100
0000
,  // measure 21
0010
0000
0001
0000
,  // measure 22
1000
0000
0010
0000
,  // measure 23
1000
0000
0100
0000
,  // measure 24
0010
0000
0100
0000
,  // measure 25
1000
0000
0001
0000
,  // measure 26
0100
0000
0001
0000
,  // measure 27
1000
0000
0010
0000
,  // measure 28
1000
0000
0001
0000
,  // measure 29
0010
0000
0100
0000
,  // measure 30
1000
0000
0001
0000
,  // measure 31
1000
0000
0010
0000
,  // measure 32
1000
0000
0100
0000
,  // measure 33
0010
0000
0001
0000
,  // measure 34
1000
0000
0001
0000
,  // measure 35
0100
0000
0001
0000
,  // measure 36
1000
0000
0010
0000
,  // measure 37
1000
0000
0100
0000
,  // measure 38
0010
0000
0001
0000
,  // measure 39
0000
0000
1000
0000
,  // measure 40
0000
0000
0001
0000
,  // measure 41
0100
0000
0001
0000
,  // measure 42
0010
0000
0100
0000
,  // measure 43
0010
0000
0001
0000
,  // measure 44
1000
0000
0001
0000
,  // measure 45
0100
0000
0001
0000
,  // measure 46
1000
0000
0100
0000
,  // measure 47
0010
0000
0001
0000
,  // measure 48
0010
0000
0100
0000
,  // measure 49
1000
0000
0001
0000
,  // measure 50
1000
0000
0010
0000
,  // measure 51
1000
0000
0001
0000
,  // measure 52
0100
0000
0001
0000
,  // measure 53
0010
0000
0100
0000
,  // measure 54
0010
0000
0001
0000
,  // measure 55
1000
0000
0010
0000
,  // measure 56
1000
0000
0001
0000
,  // measure 57
0000
0000
0010
0000
,  // measure 58
0000
0000
0100
0000
,  // measure 59
0000
0000
1000
0000
,  // measure 60
0000
0000
0010
0000
,  // measure 61
0000
0000
0100
0000
,  // measure 62
0000
0000
0001
0000
,  // measure 63
0000
0000
1000
0000
,  // measure 64
0000
0000
0001
0000
,  // measure 65
0000
0000
0000
0000
,  // measure 66
0000
0000
1001
0000
;
