#TITLE:PIENSO EN TU MIRÁ;
#SUBTITLE:(Cap. 3\: Celos);
#ARTIST:ROSALÍA;
#TITLETRANSLIT:;
#SUBTITLETRANSLIT:;
#ARTISTTRANSLIT:;
#GENRE:Flamenco Pop;
#CREDIT:;
#BANNER:PETM-bn.png;
#BACKGROUND:PETM-bg.png;
#LYRICSPATH:;
#CDTITLE:cdtitle.png;
#MUSIC:PETM.ogg;
#OFFSET:-0.200000;
#SAMPLESTART:35.581001;
#SAMPLELENGTH:16.049999;
#SELECTABLE:YES;
#BPMS:0.000000=82.246002
,23.000000=164.490997
,71.000000=82.246002
,77.000000=164.490997
,107.000000=82.246002
,108.000000=164.490997
,204.000000=82.246002
;
#STOPS:23.000000=1.094000 ; #
;
#KEYSOUNDS:;
#ATTACKS:;

//---------------dance-single - ----------------
#NOTES:
     dance-single:
     X-Scale 13:
     Hard:
     9:
     0.502808,0.608742,0.120727,0.492195,0.190377,379.000000,366.000000,13.000000,53.000000,0.000000,0.000000,0.502808,0.608742,0.120727,0.492195,0.190377,379.000000,366.000000,13.000000,53.000000,0.000000,0.000000:
0000
0000
0000
0000
,
0000
0000
0000
0000
,
0000
0000
0000
2000
,
3001
0000
0000
1000
0000
0000
0002
0000
0000
0000
0000
0000
0023
0000
0000
0000
0032
0000
0000
0000
2003
0000
0000
0000
0000
0000
0000
0000
0000
0000
0000
0000
0000
0000
0000
0000
0000
0000
0000
0000
0000
0000
0000
0000
0000
0000
0000
0000
,
0000
0000
0000
0000
3000
0000
0000
0000
0020
0000
0000
0000
0000
0000
0000
0000
1030
0010
0000
1000
0000
0100
0000
1000
0000
0000
0001
0000
0100
0000
0000
0002
,
0000
0000
0000
0000
0000
0000
0000
0000
0000
0200
0000
0000
0000
0000
0000
0000
0000
0000
0000
0000
0303
0000
2020
0000
0000
0000
0000
0000
3030
0000
0000
0000
,
0001
0000
0100
0000
0010
0000
1000
0010
1000
0000
0100
0000
0010
0000
0000
0000
,
0001
0000
0100
0010
0100
1000
0100
0001
,
0010
0001
1000
0000
0010
1000
2020
3030
,
0001
0000
0010
0000
0100
0000
0010
0100
0010
0000
0001
0000
1000
0000
0000
0000
,
0010
0000
0000
0000
0100
0000
0001
0000
0100
0000
1000
0000
0100
0000
0001
0100
,
0000
0001
1000
0000
0100
0010
0220
0330
,
0100
0000
1000
0000
0001
0000
1000
0001
1000
0000
0100
0000
0010
0000
0000
0000
,
0001
0000
0100
0001
0100
1000
0100
0010
,
1000
0001
0010
0000
0100
1000
2200
3300
,
0010
0000
0100
0000
0001
0000
0100
0001
0100
0000
0010
0000
1000
0000
0000
0000
,
0001
0000
0010
0001
0100
0010
1000
0000
,
0001
0000
0010
0000
0100
0000
0000
0000
1000
0000
1000
0000
0010
0100
0001
1000
,
0001
0000
0001
0010
0001
0000
0001
0000
0100
0000
0001
0100
1000
0010
0001
0000
,
1000
0000
0001
0000
1001
0000
1000
0000
0010
0000
0100
0000
0010
0000
1000
0100
,
0010
0001
0010
0000
0100
1000
0001
1000
,
0100
0010
0001
0010
1000
0010
0001
0100
,
0001
0000
1000
0000
0001
0000
0010
0100
1000
0000
0100
0000
1000
0000
0000
0000
,
0001
0000
1000
0010
1000
0100
1000
0010
,
1000
0100
0010
0000
0001
0100
0001
0010
,
0100
0000
1000
0000
0100
0000
1000
0100
1000
0000
0000
0000
0010
0000
0100
0000
,
0001
0000
0000
0000
0100
0000
0000
0000
1000
0000
0000
0000
0100
0000
0000
0000
0001
0000
0000
0000
0010
0000
0000
0000
0001
0010
0001
0010
0001
0000
0010
0000
,
0022
0000
0033
0000
1000
0000
0010
0000
1000
0000
0001
1000
0001
0000
0100
0000
,
0010
0001
0010
1000
0001
0001
0100
0010
,
1000
0000
0010
0100
0001
0000
1000
0010
,
2020
0000
3030
0000
0100
0000
0001
0000
0010
0000
0001
0010
0001
0000
1000
0000
,
0100
1000
0010
0100
0001
0001
0010
0001
,
1000
0000
0010
0100
0001
0000
1000
0100
,
2200
0000
3300
0000
0001
0000
0100
0000
0010
0000
1000
0010
1000
0000
0100
0000
,
0020
1000
0000
1030
0010
0001
0100
0001
,
0010
0000
0100
1000
0010
0000
0100
0001
,
0202
0000
0303
0000
0001
0000
0010
0000
0100
0000
1000
0100
1000
0000
0010
0000
,
0100
0001
1000
1000
0100
1000
0010
1000
,
0100
0000
0010
0001
1000
0000
0001
0100
,
0202
0000
0303
0000
0001
0000
0100
0000
0001
0000
1000
0001
1000
0000
0100
0000
,
0010
0001
0100
0001
0010
0010
1000
0010
,
0001
0000
1000
0100
1000
0000
0001
0100
,
0202
0000
0303
0000
0001
0000
1000
0000
0010
0000
1000
0010
1000
0000
0100
0000
,
0010
0001
0100
0010
0100
0100
1000
0100
,
0001
0000
1000
0100
0010
0000
0001
1000
,
2002
0000
3003
0000
0001
0000
1000
0000
0100
0000
1000
0100
1000
0000
0010
0000
,
0100
0010
1000
0001
0100
0100
1000
0100
,
0001
0000
1000
0010
0100
0000
0001
0010
,
0022
0000
0033
0000
0100
0000
1000
0000
0010
0000
1000
0010
1000
0000
0001
0000
,
0010
0000
0100
0000
1000
0000
0001
0000
0000
2000
0000
0000
0000
0000
0000
0000
,
0000
0000
3000
0002
0000
0000
0000
0000
0000
0000
0000
0000
0000
0000
0003
0000
,
2000
0000
3000
0200
0000
0300
0020
0000
,
0030
0000
0002
0000
0003
0020
0000
0030
0002
0000
0000
0000
0003
0000
0200
0000
,
0000
0000
0300
0000
0020
0000
0000
0000
0030
0000
2000
0000
3000
0020
0000
0030
,
2000
0000
3000
0200
0000
0300
0020
0000
,
0030
0000
0002
0000
0003
2000
0000
3000
0002
0000
0000
0000
0003
0000
0020
0000
,
0000
0030
0200
0000
0000
0000
0000
0000
,
0300
0000
0000
0000
;

//---------------dance-single - ----------------
#NOTES:
     dance-single:
     X-Scale 9:
     Medium:
     6:
     0.420554,0.582275,0.009287,0.222881,0.083580,317.000000,316.000000,1.000000,24.000000,0.000000,0.000000,0.420554,0.582275,0.009287,0.222881,0.083580,317.000000,316.000000,1.000000,24.000000,0.000000,0.000000:
0000
0000
0000
0000
,
0000
0000
0000
0000
,
0000
0000
0000
2000
,
3001
1000
0001
0000
0100
0000
0000
0020
0200
0000
0000
0000
0000
0000
0000
0000
,
0000
0000
0000
0000
0330
0000
0000
0000
0002
0000
0000
0000
0000
0000
0000
0000
1003
0001
0000
1000
0000
0100
0000
0010
0000
0001
0000
0000
0100
0000
0020
0000
,
0000
2000
0000
0000
0000
0000
0000
0000
0000
0000
0000
0000
3030
0000
0000
0000
,
1000
0010
0001
1000
0100
0001
1000
0000
,
0010
0000
1000
0100
1000
0001
0100
0010
,
0100
0001
1000
0000
0010
1000
0020
0030
,
1000
0100
0001
1000
0010
0001
0100
0000
,
0001
0000
0000
0000
0010
0000
0100
0000
1000
0000
0001
0000
1000
0000
0000
1000
,
0010
1000
0001
0000
1000
0100
0020
0030
,
0001
0100
1000
0001
0010
1000
0001
0000
,
0001
0000
1000
0010
1000
0100
0010
0000
,
0001
0100
0010
0000
1000
0100
2000
3000
,
0001
0010
1000
0001
0100
1000
0001
0000
,
0100
0000
0010
1000
0001
1000
0100
0000
,
0010
0000
0001
0000
1000
0000
0000
0000
0010
0000
1000
0000
1000
0100
0010
0001
,
1000
0000
0100
0010
0001
0000
1000
0000
0001
0000
0010
0100
1000
0001
1000
0000
,
0010
0100
0001
0100
0010
1000
0001
0000
,
0100
0010
1000
0000
0001
0000
1000
0010
,
0100
1000
0100
0001
1000
0000
0001
0010
,
0100
1000
0001
0000
0010
0100
1000
0000
,
0001
0000
1000
0000
0100
0010
0001
1000
,
0001
0000
0010
0000
0100
0000
1000
0010
,
0100
0000
0001
0000
1000
0000
0001
1000
0001
0000
0000
0000
0010
0000
0100
0000
,
0010
0000
0000
0000
0001
0000
0010
0000
0100
0000
1000
0000
0001
1000
0001
1000
,
1001
0000
1000
0100
0010
0000
0001
0100
,
0001
0000
1000
0100
0010
0100
1000
0001
,
1000
0000
0001
0100
0001
0000
0100
0010
,
0100
0000
0001
0010
0100
0000
1000
0010
,
1000
0000
0100
0010
0001
1000
0001
0100
,
0010
0000
1000
0010
1000
0000
0001
0010
,
0001
0000
1000
0100
0010
0000
0001
0100
,
0010
0001
0010
1000
0001
1000
0100
0010
,
0001
0000
1000
0100
1000
0000
0001
0100
,
0001
0000
1000
0100
0010
0000
0001
0100
,
0001
0000
0010
0100
1000
0001
1000
0100
,
0010
0000
0001
1000
0001
0000
2000
0100
,
3200
1000
0001
0010
,
1300
0100
0010
0000
0001
0100
0001
0010
,
0100
0000
1000
0010
1000
0000
0001
0010
,
0002
1000
0010
1000
,
0103
0001
1000
0000
0010
0100
0001
0100
,
0010
0000
1000
0001
1000
0000
0100
0010
,
0200
1000
0001
1000
,
0310
0100
1000
0000
0001
0100
1000
0100
,
0001
0000
1000
0010
1000
0000
0001
0010
,
0002
1000
0010
1000
,
0103
0001
1000
0001
0200
0000
0000
0000
,
0300
0020
0000
0030
,
2000
0000
0000
0001
0000
0000
0002
0000
,
3000
0100
0000
0000
0200
0000
0003
0010
,
0000
0000
0020
0000
0300
1000
0000
0000
,
2000
0000
0030
0001
0000
0000
0002
0000
,
3000
0010
0000
0000
0020
0000
0003
0100
,
0000
0200
0030
0000
,
0300
0000
0000
0000
;

//---------------dance-single - ----------------
#NOTES:
     dance-single:
     X-Scale 5:
     Easy:
     4:
     0.266661,0.313426,0.009287,0.046433,0.000000,201.000000,200.000000,1.000000,5.000000,0.000000,0.000000,0.266661,0.313426,0.009287,0.046433,0.000000,201.000000,200.000000,1.000000,5.000000,0.000000,0.000000:
// measure 0
0000
0000
0000
0000
,  // measure 1
0000
0000
0000
0000
,  // measure 2
0000
0000
0000
1000
,  // measure 3
0000
0000
0100
0000
,  // measure 4
0000
0010
0000
0000
,  // measure 5
0001
0000
0000
0000
,  // measure 6
0001
1000
0001
1000
,  // measure 7
0100
0000
0010
0100
0010
0000
0001
0000
,  // measure 8
1000
0000
0001
0000
0010
0100
0010
0000
,  // measure 9
0001
1000
0010
1000
,  // measure 10
0001
0000
1000
0100
1000
0000
0001
0000
,  // measure 11
0100
0000
0010
0000
1000
0010
1000
0000
,  // measure 12
0001
0010
0001
0010
,  // measure 13
0100
0000
1000
0000
0001
1000
0001
0000
,  // measure 14
0100
0000
0010
0000
1000
0010
1000
0000
,  // measure 15
0001
0100
0010
0100
,  // measure 16
0001
0000
1000
0100
1000
0000
0001
0000
,  // measure 17
0010
0000
0001
0000
1000
0001
1000
0000
,  // measure 18
0100
0000
1000
0001
1000
0000
0010
0000
,  // measure 19
0100
0010
0100
0000
0000
0000
0001
0000
,  // measure 20
0000
1000
0100
0010
,  // measure 21
0000
0001
0000
1000
,  // measure 22
0000
0001
0000
0010
,  // measure 23
0100
0010
0000
0001
,  // measure 24
0000
1000
0010
1000
,  // measure 25
0000
0001
0000
0010
,  // measure 26
0000
0100
0000
1000
,  // measure 27
1100
0001
1000
0001
,  // measure 28
0100
0000
0010
0000
0100
0001
0100
0000
,  // measure 29
0010
0000
1000
0000
0001
0000
0100
0001
,  // measure 30
0100
0001
0010
0100
,  // measure 31
1000
0000
0010
0000
1000
0100
1000
0000
,  // measure 32
0001
0000
0100
0000
0001
0000
0010
0100
,  // measure 33
0010
0001
1000
0010
,  // measure 34
1000
0000
0001
0000
0010
0000
0100
0010
,  // measure 35
0100
0000
1000
0000
0001
0000
1000
0010
,  // measure 36
1000
0100
0010
0001
,  // measure 37
0100
0000
0010
0000
1000
0000
0001
1000
,  // measure 38
0001
0100
0010
2000
,  // measure 39
3002
1000
0100
1000
,  // measure 40
0100
0000
1000
0000
0103
0000
0001
0100
,  // measure 41
0001
0000
0010
0000
0100
0000
1000
0010
,  // measure 42
2000
0001
0100
0001
,  // measure 43
0100
0000
0001
0000
3100
0000
1000
0010
,  // measure 44
1000
0000
0001
0000
0100
0000
0010
0100
,  // measure 45
0010
1000
0100
0010
,  // measure 46
0001
0100
0001
0000
1000
0000
0010
1000
,  // measure 47
0010
0000
0100
0000
0001
0000
1000
0100
,  // measure 48
1000
0001
0010
0100
,  // measure 49
0010
0001
2000
0000
,  // measure 50
3000
0002
0000
0003
,  // measure 51
1000
0000
0000
0100
,  // measure 52
0000
0000
0010
0000
,  // measure 53
0000
0001
0000
0000
,  // measure 54
1000
0000
0000
0010
,  // measure 55
0000
0000
0100
0000
,  // measure 56
0000
0001
0000
0000
;

//---------------dance-single - ----------------
#NOTES:
     dance-single:
     X-Scale 2:
     Beginner:
     2:
     0.145934,0.182832,0.000000,0.148587,0.000000,110.000000,110.000000,0.000000,16.000000,0.000000,0.000000,0.145934,0.182832,0.000000,0.148587,0.000000,110.000000,110.000000,0.000000,16.000000,0.000000,0.000000:
// measure 0
0000
0000
0000
0000
,  // measure 1
0000
0000
0000
0000
,  // measure 2
0000
0000
0000
0000
,  // measure 3
0000
0000
0000
0000
,  // measure 4
0000
0000
0000
0000
,  // measure 5
0000
0000
0000
0000
,  // measure 6
1000
0000
0000
0001
,  // measure 7
1000
0001
0000
0010
,  // measure 8
0000
0100
1000
0200
,  // measure 9
0300
1000
0000
0001
,  // measure 10
0010
0001
0000
0100
,  // measure 11
0000
0010
0100
0020
,  // measure 12
0030
1000
0000
0001
,  // measure 13
0100
0001
0000
1000
,  // measure 14
0000
0100
0010
0002
,  // measure 15
0003
1000
0000
0001
,  // measure 16
0010
0001
0000
1000
,  // measure 17
0000
0010
1000
0001
,  // measure 18
0000
1000
0000
0001
,  // measure 19
0000
0020
0030
0010
,  // measure 20
0000
0001
0010
0100
,  // measure 21
0000
1000
0001
2000
,  // measure 22
3000
0010
0000
0100
,  // measure 23
0001
0100
0000
0010
,  // measure 24
0000
1000
0001
2000
,  // measure 25
3000
0001
1000
0000
,  // measure 26
0010
0000
1000
0001
,  // measure 27
0002
0003
1000
0000
,  // measure 28
0001
0000
0010
0000
,  // measure 29
0001
0000
1000
0000
,  // measure 30
0200
0300
0010
0000
,  // measure 31
0001
0000
0010
0000
,  // measure 32
0100
0000
1000
0000
,  // measure 33
0020
0030
1000
0000
,  // measure 34
0100
0000
1000
0000
,  // measure 35
0001
0000
0010
0000
,  // measure 36
0200
0300
1000
0000
,  // measure 37
0001
0000
0100
0000
,  // measure 38
0010
0000
1000
0000
,  // measure 39
0002
0003
0010
0000
,  // measure 40
0100
0000
1000
0000
,  // measure 41
0001
0000
1000
0000
,  // measure 42
0020
0030
1000
0000
,  // measure 43
0100
0000
0010
0000
,  // measure 44
0001
0000
0100
0000
,  // measure 45
0002
0003
0010
0000
,  // measure 46
0001
0000
0010
0000
,  // measure 47
0100
0000
1000
0000
,  // measure 48
0002
0003
1000
0000
,  // measure 49
0001
0000
0000
0000
0000
0200
0000
0000
,  // measure 50
0300
0020
0000
0030
,  // measure 51
1000
0000
0000
0100
,  // measure 52
0000
0000
0010
0000
,  // measure 53
0000
0001
0000
0000
,  // measure 54
1000
0000
0000
0001
,  // measure 55
0000
0000
0010
0000
,  // measure 56
0000
0100
0000
0000
;
