#TITLE:PERFECT HUMAN;
#SUBTITLE:;
#ARTIST:RADIO FISH;
#TITLETRANSLIT:;
#SUBTITLETRANSLIT:;
#ARTISTTRANSLIT:;
#GENRE:Electro J-Pop;
#CREDIT:;
#BANNER:PERFECT HUMAN-bn.png;
#BACKGROUND:PERFECT HUMAN-bg.png;
#LYRICSPATH:;
#CDTITLE:cdtitle.png;
#MUSIC:PERFECT HUMAN.ogg;
#OFFSET:-0.042000;
#SAMPLESTART:63.751999;
#SAMPLELENGTH:15.000000;
#SELECTABLE:YES;
#BPMS:0.000000=128.000000
,96.000000=64.000000
,110.000000=128.000000
,114.000000=64.000000
,116.500000=128.000000
,182.000000=64.000000
,188.500000=128.000000
;
#STOPS:116.500000=0.117000,
116.750000=0.117000,
117.000000=0.117000,
117.250000=0.117000,
117.500000=0.117000,
117.750000=0.117000,
188.500000=0.117000,
188.750000=0.117000,
189.000000=0.117000,
189.250000=0.117000,
189.500000=0.117000,
189.750000=10.000000
;
#BGCHANGES:0.000=PERFECT HUMAN.mp4=1.000=1=0=1===CrossFade==,
99999=-nosongbg-=1.000=0=0=0 // don't automatically add -songbackground-
;
#KEYSOUNDS:;
#ATTACKS:;

//---------------dance-single - ----------------
#NOTES:
     dance-single:
     :
     Hard:
     8:
     0.457848,0.746181,0.108142,0.167129,0.353920,326.000000,315.000000,11.000000,17.000000,0.000000,0.000000,0.457848,0.746181,0.108142,0.167129,0.353920,326.000000,315.000000,11.000000,17.000000,0.000000,0.000000:
// measure 0
0000
0000
0000
0000
,  // measure 1
0000
0000
0000
0000
,  // measure 2
0000
0000
0000
0000
,  // measure 3
0000
0000
0000
0000
,  // measure 4
2000
0000
0000
0000
3001
1000
0000
0001
0000
0010
0000
0100
0020
0000
0000
0000
,  // measure 5
0230
0000
0000
0000
0310
0100
0000
1000
0000
0001
0000
1000
0002
0000
0000
0000
,  // measure 6
0023
0000
0000
0000
0031
0010
0000
0001
0000
1000
0000
0010
2000
0000
0000
0000
,  // measure 7
3020
0230
0302
0023
,  // measure 8
0031
0000
0000
0001
1000
0000
0000
0000
0010
0000
1000
0100
1000
0000
0000
0000
,  // measure 9
0100
0000
0000
1000
0001
0000
0000
0000
1000
0000
1000
0010
0100
0000
0000
0000
,  // measure 10
0100
0000
0000
0010
1000
0000
0000
0000
0001
0000
0100
0001
0100
0000
0000
0000
,  // measure 11
0200
0010
0320
0001
,  // measure 12
1030
0000
0000
0001
0010
0000
0000
0000
0001
0000
0001
0100
0010
0000
0000
0000
,  // measure 13
0100
0000
0000
0100
0010
0000
0000
0000
0100
0000
0010
1000
0001
0000
0000
0000
,  // measure 14
0001
0000
0000
0001
0100
0000
0000
0000
0010
0000
0100
0010
1000
0000
0000
0000
,  // measure 15
0002
0023
0230
2300
,  // measure 16
3100
1000
0001
1000
0100
0001
0010
0000
,  // measure 17
1000
0000
0001
0000
0010
0000
0100
0000
0010
0000
0001
0000
0010
0000
0000
0010
,  // measure 18
0100
0010
0001
0010
0100
0010
0001
0000
,  // measure 19
1000
0000
0001
0100
0010
0000
0010
0100
,  // measure 20
0001
1000
0100
0010
0100
1000
0001
0000
,  // measure 21
0001
0010
1000
0010
0001
0100
0010
0000
,  // measure 22
0010
0001
0010
0100
0010
1000
0100
0000
,  // measure 23
1000
0000
0001
1000
0100
0100
0010
0100
,  // measure 24
0110
0000
0100
0010
0001
0000
1000
0010
1000
0000
0001
0100
0010
0000
1000
0100
,  // measure 25
0010
0000
0100
0010
0100
1000
0001
0100
0010
0000
0100
0001
0100
0001
0010
0001
,  // measure 26
0011
0000
0010
0001
0010
0001
0010
0100
0110
0000
0010
1000
0010
0000
0001
1000
,  // measure 27
1001
0000
0010
1000
1010
0000
1000
0001
1002
0000
0000
0000
0100
0000
0000
0000
,  // measure 28
0010
0100
1003
0000
,  // measure 29
0000
0000
0001
0010
0100
0010
0001
0010
0101
0000
0000
0001
0000
0000
1000
0000
,  // measure 30
0000
0000
0010
0000
0100
0000
0010
0000
0100
0000
0000
0001
0000
0000
1000
0000
,  // measure 31
0000
0000
0001
0000
0010
0000
0100
0000
1000
0000
0000
0010
0000
0000
0100
0000
,  // measure 32
0000
0000
0010
0000
1000
0000
0100
0000
0010
0400
0000
0300
1000
0000
0100
0000
,  // measure 33
1000
0001
0010
0001
0011
0000
0001
0000
,  // measure 34
1000
0000
0010
0000
1000
0000
0001
1000
,  // measure 35
0001
0000
0000
0000
0001
0000
0000
0000
0100
0000
0000
0010
0000
0000
0100
0000
,  // measure 36
0000
0000
0001
0000
1000
0000
0001
0000
1000
0004
0000
0003
1000
0000
0100
0000
,  // measure 37
0001
0100
0010
0001
0011
0000
0001
0000
,  // measure 38
0010
0000
0001
0000
1000
0000
0100
1000
,  // measure 39
0010
0000
0000
0000
1000
0000
0000
0000
0001
0000
0000
0100
0000
0000
0010
0000
,  // measure 40
0000
0000
1000
0000
0100
0000
1000
0000
0100
4000
0000
3000
0001
0000
1000
0000
,  // measure 41
0010
0000
0100
0000
0010
0000
0100
0000
0110
0000
0000
0001
0000
0000
1000
0000
,  // measure 42
0100
0000
0010
0000
0100
0000
0010
0000
0001
0000
0000
0010
0000
0000
0100
0000
,  // measure 43
0010
0000
0001
0000
1000
0000
0010
0000
1000
0000
0000
0001
0000
0000
0100
0000
,  // measure 44
0001
0000
0010
0000
0100
0000
0010
0000
0001
4000
0000
3000
0010
0000
1000
0000
,  // measure 45
0100
0000
0000
0000
0010
0000
0000
0000
0100
0000
0000
0000
1000
0000
0000
0000
1100
0000
0000
1000
0000
0000
1000
0000
0001
0000
0010
0000
1000
0000
0010
0000
,  // measure 46
0001
0000
0000
0001
0000
0000
0001
0000
1000
0000
0010
0000
0001
0000
0100
0000
1000
0000
0000
0001
0000
0000
0100
0000
0001
0000
0010
0000
0100
0000
1000
0000
,  // measure 47
0000
0000
1000
0100
0010
0100
1000
0100
0000
0000
0000
0000
0000
0000
0000
0000
;

//---------------dance-single - ----------------
#NOTES:
     dance-single:
     :
     Medium:
     6:
     0.370773,0.535611,0.068818,0.078649,0.216284,264.000000,257.000000,7.000000,8.000000,0.000000,0.000000,0.370773,0.535611,0.068818,0.078649,0.216284,264.000000,257.000000,7.000000,8.000000,0.000000,0.000000:
0000
0000
0000
0000
,
0000
0000
0000
0000
,
0000
0000
0000
0000
,
0000
0000
0000
0000
,
1000
0000
0000
0000
0000
1000
0000
0001
0000
0100
0000
0010
0200
0000
0000
0000
,
0301
0000
0000
0000
0000
1000
0000
0001
0000
1000
0000
0001
0200
0000
0000
0000
,
0310
0000
0000
0000
0000
0010
0000
0100
0000
0010
0000
0100
0001
0000
0000
0000
,
1000
0001
0100
0001
,
0101
0000
1000
0000
0010
1000
0001
0000
,
0100
0000
0001
0000
1000
0100
0010
0000
,
0100
0000
1000
0000
0001
0010
0100
0000
,
0020
0100
0032
0010
,
0013
0000
0001
0000
1000
0001
0010
0000
,
0100
0000
0010
0000
0100
0010
0001
0000
,
0001
0000
0100
0000
0010
1000
0001
0000
,
0002
1000
2003
0010
,
3010
0000
1000
0010
0001
0010
1000
0000
,
1000
0000
0100
0010
0100
1000
0100
0000
,
1000
0000
0001
1000
0100
0010
0001
0000
,
1000
0000
0010
0000
0100
0000
0010
0100
,
0010
0000
0001
0010
0100
0010
0001
0000
,
1000
0000
0001
0100
1000
0010
0001
0000
,
0100
0000
0001
0100
0010
1000
0001
0000
,
1000
0000
0001
0000
0100
0001
0100
0001
,
0101
0000
0000
0100
0000
0001
1000
0010
1000
0000
0000
0001
0000
0000
0001
0100
,
0001
0000
0000
0100
0000
0001
1000
0100
0020
0000
0030
0100
0010
0001
0010
0100
,
0110
0000
0000
0010
0000
1000
0010
0100
0010
0000
0000
1000
0000
0000
0001
0010
,
0001
0000
1000
0010
1000
0000
0001
0010
0200
0000
0000
0000
0010
0000
0000
0000
,
0010
1000
1300
0000
,
0000
0000
0001
0000
1000
0000
0001
0000
0101
0000
0000
0001
0000
0000
0001
0000
,
0000
0000
1000
0000
0100
0000
1000
0000
0100
0000
0000
0100
0000
0000
0100
0000
,
0000
0000
0010
0000
0001
0000
0010
0000
0001
0000
0000
0001
0000
0000
0001
0000
,
0000
1000
0010
1000
0010
0000
1000
0000
,
0001
0100
0001
0100
0001
0000
1000
0000
,
0010
0000
0100
0000
0001
0000
1000
0100
,
0010
0000
0000
0000
0100
0000
0000
0000
1000
0000
0000
1000
0000
0000
1000
0000
,
0000
0001
1000
0001
1000
0000
1000
0100
,
0010
0100
0010
0001
0011
0000
0001
0000
,
0010
0000
0001
0000
1000
0000
0100
1000
,
0010
0000
0000
0000
0100
0000
0000
0000
0001
0000
0000
0001
0000
0000
0001
0000
,
0000
0010
0100
0010
0100
0000
0010
0000
,
0100
0000
0010
0000
0001
0000
0100
0000
0101
0000
0000
0001
0000
0000
0010
0000
,
0000
0000
0000
0000
0001
0000
0000
0000
1000
0000
0000
0010
0000
0000
1000
0000
,
0000
0000
0000
0000
0010
0000
0000
0000
1000
0000
0000
0001
0000
0000
0100
0000
,
0000
0010
0100
0010
1000
0000
0010
0000
,
1000
0000
0001
0000
0010
0000
0000
0000
0011
0000
1000
0000
0001
1000
0100
1000
,
0001
0000
0100
0000
0010
0100
0010
1000
0001
0000
0100
0000
0001
1000
0100
0010
,
0000
0100
1000
0001
0000
0000
0000
0000
;

//---------------dance-single - ----------------
#NOTES:
     dance-single:
     :
     Easy:
     3:
     0.221902,0.345625,0.078649,0.098311,0.029493,158.000000,150.000000,8.000000,10.000000,0.000000,0.000000,0.221902,0.345625,0.078649,0.098311,0.029493,158.000000,150.000000,8.000000,10.000000,0.000000,0.000000:
0000
0000
0000
0000
,
0000
0000
0000
0000
,
0000
0000
0000
0000
,
0000
0000
0000
0000
,
1000
0000
0000
1000
,
0001
0000
0000
0001
,
0010
0000
0000
0010
,
0100
0000
0010
0000
,
0110
0100
0000
0001
,
0100
0001
0000
0010
,
0100
1000
0000
0100
,
0010
0000
0010
0000
,
0001
1000
0000
0010
,
0100
0001
0000
0001
,
0010
0100
0000
0010
,
0200
0000
0010
0000
,
1300
0100
1000
0001
,
0010
0100
1000
0100
,
0010
0001
0100
0010
,
1000
0010
0100
0001
,
0010
0001
0100
0010
,
1000
0100
0010
0001
,
0100
0001
0010
0100
,
0010
0000
0001
0000
0100
0000
0010
1000
,
1010
0000
0000
1000
0000
0000
0001
0000
1000
0000
0000
0100
0000
0000
1000
0000
,
0010
0000
0000
0010
0000
0000
1000
0000
0100
0000
0000
0100
0000
0000
1000
0000
,
1100
0000
0000
0010
0000
0000
1000
0000
0001
0000
0000
1000
0000
0000
0001
0000
,
0001
1000
1000
0100
0020
0000
0000
0000
,
0000
0000
0031
0000
,
0000
0000
0101
0001
,
1000
0100
1000
0001
,
0100
0010
0001
0010
,
0100
0010
2000
3000
,
0002
0003
1001
1000
,
0010
0100
0001
0010
,
0100
0010
0001
1000
,
0010
1000
0020
0030
,
0200
0300
0110
0001
,
1000
0100
0010
0100
,
1000
0001
0010
0001
,
0100
0010
2000
3000
,
0200
0300
1100
1000
,
0100
0001
0010
1000
,
0001
0010
1000
0100
,
0001
0100
0020
0030
,
2000
0000
3000
0000
1001
0001
0000
1000
,
0000
0010
0000
0100
0000
0001
0000
1000
;

//---------------dance-single - ----------------
#NOTES:
     dance-single:
     :
     Beginner:
     1:
     0.157298,0.253458,0.117973,0.029493,0.009831,112.000000,100.000000,12.000000,3.000000,0.000000,0.000000,0.157298,0.253458,0.117973,0.029493,0.009831,112.000000,100.000000,12.000000,3.000000,0.000000,0.000000:
0000
0000
0000
0000
,
0000
0000
0000
0000
,
0000
0000
0000
0000
,
0000
0000
0000
0000
,
1000
0000
0000
0000
,
0001
0000
0000
0000
,
0010
0000
0000
0000
,
0200
0000
0000
0000
,
0301
0000
0000
0001
,
1000
0000
0000
1000
,
0100
0000
0000
0100
,
0010
0000
0100
0000
,
1000
0000
0000
0001
,
0100
0000
0000
0001
,
0010
0000
0000
0010
,
0100
0000
1000
0000
,
1100
0000
1000
0100
,
0010
0000
0100
0010
,
0001
0000
0100
0001
,
0010
0000
0001
0000
,
0011
0000
0001
0010
,
0100
0000
0010
0100
,
1000
0000
0010
1000
,
0100
0000
1000
0000
,
1100
0000
1000
0000
,
0010
0000
0000
0010
0000
0000
0000
0000
0100
0000
0000
0100
0000
0000
0000
0000
,
0110
0000
1001
0000
,
0101
1010
0200
0000
,
0000
0000
0320
0030
,
0000
0000
0110
0000
,
1000
0100
1000
0000
,
0001
0010
0001
0000
,
0100
0010
1000
0000
,
0001
0000
1001
0000
,
0001
0000
0100
0000
,
0010
0000
1000
0000
,
0001
0000
1000
0000
,
0010
0000
1010
0000
,
1000
0000
0010
0000
,
0100
0001
0000
0001
,
0100
0000
0001
0000
,
0010
0000
0011
0000
,
0100
0001
0010
0000
,
0001
1000
0010
0000
,
0100
0001
0010
0000
,
0100
0000
0000
0000
0110
0010
0000
0010
,
0000
0010
0000
0100
0000
0100
0000
0100
;
