#TITLE:Only Seeing God When I Come;
#SUBTITLE:;
#ARTIST:Sega Bodega;
#TITLETRANSLIT:;
#SUBTITLETRANSLIT:;
#ARTISTTRANSLIT:;
#GENRE:UK Garage;
#CREDIT:;
#BANNER:Only Seeing God When I Come-bn.png;
#BACKGROUND:Only Seeing God When I Come-bg.png;
#LYRICSPATH:;
#CDTITLE:cdtitle.png;
#MUSIC:Only Seeing God When I Come.ogg;
#OFFSET:-0.115000;
#SAMPLESTART:71.575005;
#SAMPLELENGTH:14.118000;
#SELECTABLE:YES;
#BPMS:0.000000=136.000000
;
#STOPS:158.000000=1.765000
;
#BGCHANGES:2.000=Only Seeing God When I Come.avi=1.000=1=0=0=StretchNoLoop==CrossFade==,
253.000=Only Seeing God When I Come-bg.png=1.000=1=0=1===CrossFade==,
99999=-nosongbg-=1.000=0=0=0 // don't automatically add -songbackground-
;
#KEYSOUNDS:;
#ATTACKS:;

//---------------dance-single - ----------------
#NOTES:
     dance-single:
     X-Scale 1:
     Beginner:
     1:
     0.087948,0.162263,0.035179,0.000000,0.000000,70.000000,66.000000,4.000000,0.000000,0.000000,0.000000,0.087948,0.162263,0.035179,0.000000,0.000000,70.000000,66.000000,4.000000,0.000000,0.000000,0.000000:
0000
0000
0000
0000
,
0000
0000
0000
0000
,
0000
0000
0000
0000
,
0000
0000
0000
0000
,
0000
0000
0000
0000
,
0000
0000
0000
0000
,
0000
0000
0000
0000
,
0000
0000
0000
0000
,
0000
0000
1001
0000
,
0000
0000
0000
0000
,
0000
0000
0001
0000
,
0000
0000
0000
0000
,
0000
0000
0010
0000
,
0000
0000
0000
0000
,
0000
0000
0100
0000
,
0000
0000
0000
0000
,
0000
0000
1000
0000
,
0000
0000
0000
0000
,
0000
0000
0001
0000
,
0000
0000
0000
0000
,
0000
0000
1000
0000
,
0000
0000
0100
0000
,
0000
0000
0010
0000
,
0000
0000
0001
0000
,
0000
0000
1001
0000
,
1000
0000
0001
0000
,
0010
0000
0001
0000
,
1000
0000
0100
0000
,
0010
0000
0100
0000
,
1000
0000
0010
0000
,
0100
0000
0001
0000
,
0100
0000
0010
0000
,
1000
0000
0001
0000
,
0010
0000
0001
0000
,
0000
0000
0010
0000
,
0000
0000
0100
0000
,
0000
0000
1000
0000
,
0000
0000
0001
0000
,
0000
0000
1000
0000
,
0000
0000
1001
0110
,
0000
0000
0100
0000
,
0000
0000
0010
0000
,
0000
0000
1000
0000
,
0000
0000
0001
0000
,
0000
0000
0100
0000
,
0000
0000
0001
0000
,
0000
0000
1000
0000
,
0000
0000
0001
0000
,
0100
0000
0001
0000
,
1000
0000
0001
0000
,
0100
0000
0001
0000
,
0010
0000
0100
0000
,
1000
0000
0010
0000
,
1000
0000
0001
0000
,
0100
0000
0001
0000
,
1000
0000
0100
0000
,
0000
0000
1000
0000
,
0000
0000
0001
0000
,
0000
0000
0100
0000
,
0000
0000
0001
0000
,
0000
0000
1000
0000
,
0000
0000
0001
0000
;

//---------------dance-single - ----------------
#NOTES:
     dance-single:
     X-Scale 6:
     Easy:
     4:
     0.270125,0.411430,0.043974,0.219869,0.000000,215.000000,210.000000,5.000000,25.000000,0.000000,0.000000,0.270125,0.411430,0.043974,0.219869,0.000000,215.000000,210.000000,5.000000,25.000000,0.000000,0.000000:
0000
0000
0000
0000
,
0000
0000
0000
0000
,
0000
0000
0000
0000
,
0000
0000
0000
0000
,
0000
0000
0000
0000
,
0000
0000
0000
0000
,
0000
0000
0000
0000
,
0000
0000
0000
0000
,
0000
0000
1001
1000
,
0001
1000
0000
0000
,
0010
0000
1000
0010
,
1000
0001
0000
0000
,
0010
0000
0100
1000
,
0001
1000
0000
0000
,
0100
0000
1000
0001
,
0100
0001
0000
0000
,
0010
0000
0001
1000
,
0001
0100
0000
0000
,
0010
0000
1000
0100
,
0010
0001
0000
0000
,
1000
0000
0001
0100
,
0001
0010
0000
0000
,
0100
0000
1000
0001
,
0100
0010
0000
0000
,
1000
0000
1001
0001
,
0010
0100
0010
0000
0001
0000
0000
0000
,
1000
0010
1000
0001
,
0010
0100
0010
0000
0001
0000
0000
0000
,
1000
0100
1000
0010
,
0100
0010
0100
0000
0001
0000
0000
0000
,
0010
0100
1000
0001
,
0100
0010
0100
0000
0001
0000
0000
0000
,
0010
0001
1000
0100
,
1000
0010
1000
0000
0001
0000
0000
0000
,
0010
0001
1000
0010
,
0100
0010
0100
0000
0001
0000
1000
0000
,
0001
0010
0100
0010
,
0001
2000
0000
3000
,
0010
1000
0001
0010
,
0100
2000
3000
1100
,
0000
0000
1000
0001
1000
0000
0100
0000
,
0010
0000
0001
1000
0002
0000
0023
0000
,
0230
0320
0032
1003
,
0010
0000
1000
0010
1000
0000
0001
0000
,
0100
0001
0100
0000
0101
0000
0001
0100
,
0010
1000
0100
0010
0200
0000
2300
0000
,
3002
0203
0320
1030
,
0001
0000
0010
0000
0001
1000
0001
1000
,
0000
0100
0010
0001
1000
0000
0010
0000
,
1000
0001
0010
0001
2000
0000
3020
0000
,
0230
0302
0023
0130
,
0100
0010
0001
1000
0010
0100
0010
0100
,
0000
0001
0010
0000
1001
0000
1000
0100
,
0010
0000
0001
1000
0002
0000
0023
0000
,
0230
2300
3002
2003
,
3200
0000
0320
0000
0100
0000
0031
0010
,
0000
0001
1000
0000
0100
0000
1000
0010
,
0000
0100
0001
0000
1000
0000
0010
0000
,
1000
0000
0001
0100
0000
0010
1000
0000
,
0100
0000
1000
0000
0001
0000
1000
0100
,
0000
0010
0001
0000
1000
0000
0010
0000
,
1000
0001
1000
0000
0100
0000
0000
0000
,
0000
0000
0000
0100
0000
0000
0000
0000
;

//---------------dance-single - ----------------
#NOTES:
     dance-single:
     X-Scale 10:
     Medium:
     7:
     0.378175,0.528455,0.087948,0.378175,0.039576,301.000000,291.000000,10.000000,43.000000,0.000000,0.000000,0.378175,0.528455,0.087948,0.378175,0.039576,301.000000,291.000000,10.000000,43.000000,0.000000,0.000000:
0000
0000
0000
0000
,
0000
0000
0000
0000
,
0000
0000
0000
0000
,
0000
0000
0000
0000
,
0000
0000
0000
0000
,
0000
0000
0000
0000
,
0000
0000
0000
0000
,
0000
0000
0000
0000
,
0000
0000
0000
0000
0000
0000
0000
0000
1001
0000
0000
0000
1000
0000
0000
0001
,
0000
0001
0000
0000
0010
0000
0010
0000
,
0000
0000
0100
1000
0100
0000
1000
0000
,
0001
0100
0002
0000
1000
0000
1003
0000
,
0000
0000
0001
0100
0001
0000
0010
0000
,
0100
2000
0001
3001
,
0000
0000
0010
1000
1000
0000
0100
0000
,
0010
0002
0100
0103
,
0000
0000
0000
0000
0010
0000
1000
0000
0001
0000
0000
0000
1001
0000
0000
0100
,
0000
0100
0000
0000
0001
0000
0100
0000
,
0010
1000
0100
1000
,
0001
0000
0020
0000
0100
0100
0130
0000
,
0010
0100
1000
0000
1000
0010
0000
1000
,
0000
0001
0000
0100
0000
0001
0000
0010
,
0000
1000
0000
0001
0000
1000
0000
0010
,
0000
0001
0000
0100
0000
0001
0000
0010
,
0100
1000
0001
0100
0020
0000
2030
0000
,
3200
0320
1000
0031
,
0010
0100
1000
0001
0200
0000
0320
0000
,
2030
0000
3002
0000
0100
0100
0103
0000
,
0001
0010
1000
0010
0002
0000
0203
0000
,
0320
2030
0010
3100
,
1000
0010
0100
0001
0020
0000
2030
0000
,
3020
0000
0032
0000
0100
0100
0103
0000
,
0001
0100
0010
1000
0200
0000
2300
0000
,
3002
0203
1000
0310
,
0100
0001
0101
0000
0001
1000
0001
1000
,
0000
0100
0100
0000
0010
0001
0010
0001
,
0000
1000
1000
0000
0020
0000
2030
0000
,
3002
0000
0023
0000
0000
0100
0130
0000
,
0010
0001
1000
0010
0100
0000
0001
1000
,
0001
1000
0100
0100
1100
0000
0011
0001
,
0000
0010
0100
1000
1010
0000
0010
0000
,
1000
0001
0100
0001
2000
0000
3200
0000
,
0302
0023
2030
3001
,
0100
0001
0010
0100
1000
1000
0001
1000
,
0000
0100
0010
0000
0101
0000
0001
0100
,
0001
0010
0100
0010
0001
0000
0001
0000
0012
0000
0000
0000
0023
0000
0000
0000
,
2030
3200
0302
1003
,
0100
1000
0001
0100
0010
0100
0001
1000
,
0000
0000
0100
0000
1000
0000
0001
0000
0100
0000
0000
0000
0001
0000
0010
0001
,
0010
0100
1000
0010
1000
1000
0001
0100
,
0000
0001
0010
0001
0100
0000
0110
0000
,
0010
1000
0100
0010
0001
0001
1000
0010
,
0000
0000
0100
0010
0100
0000
0001
0000
0010
0000
0001
0000
1000
0000
0100
0000
,
0010
0001
1000
0001
0010
0000
0010
0000
0100
0000
0100
0000
1000
0000
0001
0000
,
0000
0100
0001
1000
0010
0000
1020
0000
,
2030
0000
3002
0000
1000
0000
0103
0001
,
0000
0001
0010
0000
0100
1000
0001
0000
,
0100
0001
1000
0000
0100
0000
0010
0100
,
0000
1000
0001
0000
0100
0001
1000
0000
,
0100
1000
0001
0000
0010
0001
0010
0001
,
0000
0000
1000
0001
1000
0000
0000
0000
0010
0000
0100
0000
0010
0000
0000
0000
,
1000
0010
1000
0000
0002
0000
0000
0000
,
0000
0000
0000
2000
0000
0000
0000
0000
,
0000
3003
0000
0000
;

//---------------dance-single - ----------------
#NOTES:
     dance-single:
     X-Scale 11:
     Hard:
     8:
     0.559096,0.638445,0.255048,0.140716,0.259446,445.000000,416.000000,29.000000,16.000000,0.000000,0.000000,0.559096,0.638445,0.255048,0.140716,0.259446,445.000000,416.000000,29.000000,16.000000,0.000000,0.000000:
// measure 0
0000
0000
0000
0000
,  // measure 1
0000
0000
0000
0000
,  // measure 2
0000
0000
0000
0000
,  // measure 3
0000
0000
0000
0000
,  // measure 4
0000
0000
0000
0000
,  // measure 5
0000
0000
0000
0000
,  // measure 6
0000
0000
0000
0000
,  // measure 7
0000
0000
0000
0000
,  // measure 8
0010
0000
0001
0000
1000
0000
0010
0000
1001
0000
0000
0000
1000
0000
0000
1100
,  // measure 9
0000
1100
0100
0000
0010
0000
0101
0000
,  // measure 10
0100
0010
1000
0001
0010
0000
0100
0000
,  // measure 11
1000
1001
0002
0000
0010
0000
0013
0000
,  // measure 12
0001
0010
1000
0010
0002
0000
2003
0000
,  // measure 13
3020
0230
0001
0301
,  // measure 14
0100
0010
1000
1010
2010
0000
3002
0000
,  // measure 15
2003
3200
0010
0310
,  // measure 16
0100
0000
1000
0000
0001
0000
0100
0000
0101
0000
0000
0000
0001
0000
0000
1001
,  // measure 17
0000
1001
1000
0000
0010
0000
1000
0000
,  // measure 18
0001
0010
1000
0010
0002
0000
0023
0000
,  // measure 19
0230
0000
2300
0000
0000
0001
3001
0000
,  // measure 20
0010
0100
1000
0001
0100
0010
0100
0001
,  // measure 21
0000
0010
0100
1000
0000
0001
1000
0100
,  // measure 22
0000
0010
0100
1000
0000
1000
0100
0001
,  // measure 23
0000
1000
0010
0001
0000
1000
0010
1000
,  // measure 24
0001
0000
0001
0000
0010
0100
0010
0001
0010
0000
0100
0000
1000
0000
0000
1000
,  // measure 25
0100
0000
1000
0000
1001
0000
0000
0000
0001
0000
0100
0000
0010
0100
0001
0000
,  // measure 26
1000
0001
0011
0010
0001
1000
0001
0000
,  // measure 27
0010
0000
0100
0000
1100
0000
0000
0000
1000
0000
0001
0010
0100
0000
0010
0100
,  // measure 28
1000
0000
0001
0000
0100
0000
0001
0000
1001
0000
0001
0000
1000
0000
0000
0001
,  // measure 29
0100
0000
0001
0000
0101
0000
0000
0000
0100
0000
0010
1000
0100
0000
0000
0100
,  // measure 30
1000
0010
0001
0010
1000
0000
1001
0000
,  // measure 31
0010
0000
1000
0000
0001
0000
0000
0000
0010
0000
0100
0000
1000
0100
0010
0100
,  // measure 32
1000
0000
0000
1000
0001
0000
0100
0000
0001
0000
0010
0000
0100
0000
1000
0000
,  // measure 33
0000
0000
1000
0000
0001
0000
0100
0000
0001
0000
0010
0100
0010
0001
0010
0000
,  // measure 34
0100
0000
1000
0000
1100
0000
0100
0000
0010
0000
0001
0010
0001
0000
1000
0010
,  // measure 35
1000
0000
0001
0000
0011
0000
0000
0000
1000
0000
1000
0010
1000
0000
0001
0100
,  // measure 36
0000
0100
0001
0000
1001
0000
0000
0000
0001
0000
0010
0000
1000
0000
0010
0000
,  // measure 37
0100
0000
1000
0000
1100
0000
0000
0000
0100
0000
1000
0100
1000
0000
0000
0000
,  // measure 38
0001
0000
0100
0010
0100
0000
0000
0000
0002
0000
0000
0000
1003
0000
1000
0001
,  // measure 39
1000
0100
0010
0001
1001
0000
0110
0100
,  // measure 40
0000
0000
0001
0100
0001
0000
1000
0000
1001
0000
0000
0000
1000
0000
0100
0000
,  // measure 41
0001
0000
0100
0000
1000
0010
0100
0001
1000
0000
1000
0000
0001
0000
0100
0000
,  // measure 42
0000
0000
0100
0000
1000
0000
0010
1000
0001
0000
0000
0000
1001
0000
0001
0100
,  // measure 43
0001
0000
0010
0000
0100
1000
0000
0100
1000
0000
0001
0000
1000
0000
0001
0000
,  // measure 44
0000
0000
0100
0010
0100
0000
0001
0000
0101
0000
1000
0000
1000
0000
0001
0000
,  // measure 45
0100
0010
1000
0001
0010
0000
0010
0000
0101
0000
1000
0000
0001
0000
1000
0000
,  // measure 46
0000
0000
0001
0000
0101
0000
0001
0100
0001
0000
0000
0000
0011
0000
0001
0010
,  // measure 47
0001
0000
1000
0000
0010
0100
0000
0010
1000
0000
0100
0000
1000
0000
0010
0000
,  // measure 48
0000
0000
0010
0000
0001
0000
1000
0000
0010
0000
0000
0000
1000
0000
0001
1000
,  // measure 49
0010
0000
1000
0000
0001
0100
0001
0100
0001
0000
0010
0000
0100
0000
1000
0000
,  // measure 50
0000
0000
0001
0000
0100
0000
1000
0000
0100
0000
0001
0000
1000
0000
0010
0100
,  // measure 51
0010
1000
0001
1000
0001
0010
0001
0100
,  // measure 52
0000
0100
1000
0001
1000
0000
0100
1000
,  // measure 53
0001
0010
0100
1000
0001
0000
0001
0000
1000
0000
0010
0000
1000
0000
0001
0000
,  // measure 54
0000
0000
0100
0000
0010
0000
0100
0001
0100
0000
0010
0000
1000
0001
0100
0001
,  // measure 55
1000
0001
0010
0000
0100
1000
0100
0010
0100
0000
0100
0000
1000
0000
0001
0000
,  // measure 56
0000
0000
0100
0001
0100
0000
0001
0000
1000
0000
0010
0000
0010
0000
1000
0010
,  // measure 57
1000
0000
0001
0000
0001
0000
0010
0000
0100
0000
0100
1000
0100
0000
1000
0001
,  // measure 58
1000
0000
0001
0000
0100
0000
0001
0000
1000
0000
0100
0000
0010
0000
0100
1000
,  // measure 59
0100
0000
1000
0000
0001
0100
0010
0100
0001
0000
0001
0000
0101
0000
0100
0000
,  // measure 60
0000
0000
0010
0100
0001
0000
1000
0000
0100
0000
0010
0000
0010
0000
0001
0010
,  // measure 61
0001
1000
1000
0000
0002
0000
0010
0000
,  // measure 62
0100
0000
1003
2000
0000
0010
0000
0100
,  // measure 63
0000
3001
0000
0000
0000
0000
0000
0000
;
