#TITLE:One Last Time;
#SUBTITLE:;
#ARTIST:Ariana Grande;
#TITLETRANSLIT:;
#SUBTITLETRANSLIT:;
#ARTISTTRANSLIT:;
#GENRE:Pop;
#CREDIT:;
#BANNER:One Last Time-bn.png;
#BACKGROUND:One Last Time-bg.png;
#LYRICSPATH:;
#CDTITLE:cdtitle.png;
#MUSIC:One Last Time.ogg;
#OFFSET:-0.366000;
#SAMPLESTART:38.765999;
#SAMPLELENGTH:15.360000;
#SELECTABLE:YES;
#BPMS:0.000000=124.999992
;
#STOPS:
;
#BGCHANGES:17.000=One Last Time.avi=1.000=1=0=0=StretchNoLoop==CrossFade==,
99999=-nosongbg-=1.000=0=0=0 // don't automatically add -songbackground-
;
#KEYSOUNDS:;
#ATTACKS:;

//---------------dance-single - ----------------
#NOTES:
     dance-single:
     X-Scale 2:
     Beginner:
     2:
     0.115447,0.151802,0.007414,0.029656,0.000000,109.000000,108.000000,1.000000,4.000000,0.000000,0.000000,0.115447,0.151802,0.007414,0.029656,0.000000,109.000000,108.000000,1.000000,4.000000,0.000000,0.000000:
0000
0000
0000
0000
,
0000
0000
0000
0000
,
0000
0000
0000
0000
,
0000
0000
0000
0000
,
0000
1000
0000
0000
,
0000
0100
0000
0000
,
0000
0010
0000
0000
,
0000
0001
0000
0000
,
0000
0100
0000
0000
,
0000
0010
0000
0000
,
0000
1000
0000
0000
,
0000
0001
0000
0000
,
0000
1000
0000
0001
,
0000
0100
0000
0001
,
0000
1000
0000
0001
,
0000
0100
0000
0001
,
0000
0010
0000
0100
,
0000
0010
0000
0001
,
0000
0010
0000
0100
,
0000
0010
0000
0001
,
0000
1000
0000
0001
,
0000
0100
0000
0001
,
0000
1000
0000
0010
,
0000
1000
0000
0001
,
0000
0010
0000
0100
,
0000
1000
0000
0100
,
0000
0010
0000
0001
,
0000
0100
0000
0001
,
0000
1000
0000
0001
,
0000
0100
0000
0001
,
0000
0010
0000
0100
,
0000
1000
0000
0100
,
0000
0010
0000
0001
,
0000
1000
0000
0010
,
0000
1000
0000
0001
,
0000
0100
0000
0001
,
0000
1000
0000
0000
,
0000
0100
0000
0000
,
0000
0010
0000
0000
,
0000
0001
0000
0000
,
0000
0100
0000
0000
,
0000
0010
0000
0000
,
0000
1000
0000
0000
,
0000
0001
0000
0000
,
0000
0010
0000
0000
,
0000
0100
0000
0000
0000
0000
0000
0000
,
0000
1000
0000
0000
0000
0000
0001
0000
,
0000
0000
0200
0000
0000
0020
0000
0000
,
0330
1001
0000
1000
,
0000
0010
0000
1000
,
0000
0001
0000
0100
,
0000
0001
0000
0010
,
0000
0100
0000
1000
,
0000
0001
0000
1000
,
0000
0100
0000
0010
,
0000
0001
0000
1000
,
0000
0010
0000
1000
,
0000
0001
0000
0100
,
0000
0001
0000
0010
,
0000
0100
0000
0010
,
0000
0001
0000
1000
,
0000
0010
0000
1000
,
0000
0001
0000
0100
,
0000
0001
0000
1000
,
0000
0001
0000
0000
,
0000
1000
0000
0000
0000
0000
0000
0000
,
0000
0001
0000
0000
0000
0000
0100
0000
,
0000
0000
0002
0000
0000
2000
0000
0000
,
0000
3003
0000
0000
;

//---------------dance-single - ----------------
#NOTES:
     dance-single:
     X-Scale 5:
     Easy:
     3:
     0.240425,0.278303,0.007414,0.333630,0.000000,227.000000,226.000000,1.000000,45.000000,0.000000,0.000000,0.240425,0.278303,0.007414,0.333630,0.000000,227.000000,226.000000,1.000000,45.000000,0.000000,0.000000:
0000
0000
0000
0000
,
0000
0000
0000
0000
,
0000
0000
0000
0000
,
0000
0000
0000
0000
,
0000
1000
0000
0010
,
0000
1000
0000
0010
,
0000
0100
0000
0001
,
0000
0100
0000
0001
,
0000
0010
0000
0100
,
0000
0010
0000
0100
,
0000
1000
0000
0001
,
0000
1000
0000
0001
,
0000
0010
0100
1000
,
0001
1000
0010
0100
,
0001
1000
0001
0100
,
0001
1000
0001
0010
,
0100
1000
0100
0010
,
0001
1000
0001
0100
,
0010
1000
0001
1000
,
0100
0010
0001
1000
,
0200
0320
0100
0032
,
0000
0203
0000
0000
0310
0000
0100
0000
,
0001
1000
0100
1000
,
0001
0000
0100
0000
0001
0020
0100
0000
,
0031
2000
0100
3002
,
0000
0023
0000
0000
0130
0010
0001
0000
,
1000
0001
0010
0100
,
1000
0000
0010
0000
0100
0002
1000
0000
,
0203
0310
0100
0001
,
0100
0001
1000
0000
0010
0000
1000
0000
,
0100
0020
0001
0000
0130
0000
2000
0000
,
0010
0000
3001
0000
0010
0200
1000
0000
,
0310
0200
0010
2300
,
0000
3002
0000
0000
0103
0001
1000
0000
,
0010
1000
0100
0010
,
0001
0000
0100
0000
0001
0020
0100
0000
,
0032
0103
0000
0001
,
0000
1000
0000
0001
,
0000
0000
0100
0000
0001
0100
0001
0000
,
1000
0000
0100
0000
0010
0100
0010
0000
,
0001
1000
0000
0100
,
0000
0010
0000
0001
,
0000
0000
0100
0000
0001
0100
0001
0000
,
0010
0000
0100
0000
1000
0100
1000
0000
,
0001
0200
0000
0302
,
0000
2003
0000
0000
0000
0000
3200
0000
,
0000
0320
0000
0000
0000
0000
0032
0000
,
0000
2000
0000
0000
,
3003
2001
0010
3002
,
0000
0203
0000
0000
0310
0100
0001
0000
,
1000
0001
0100
0010
,
1000
0000
0100
0000
0010
0200
1000
0000
,
0320
0032
0100
2003
,
0000
3020
0000
0000
0130
0010
1000
0000
,
0001
0100
0001
0010
,
0100
0000
1000
0000
0100
0020
0001
0000
,
0130
1000
0001
0100
,
0001
0010
0200
0000
0320
0000
0032
0000
,
2000
3003
1000
0001
,
0100
0010
2000
3002
,
0100
1000
0103
0002
,
0000
0023
0000
0000
0130
1000
0001
0000
,
0100
0001
1000
0100
,
0010
0000
0001
0000
0100
0002
0000
0000
,
1003
0001
0000
1000
,
0000
0001
0000
0000
0000
0000
0010
0000
,
0000
0100
0000
0000
0000
0000
1000
0000
,
0000
0000
0002
0000
0000
0020
0000
0000
,
0000
0033
0000
0000
;

//---------------dance-single - ----------------
#NOTES:
     dance-single:
     X-Scale 8:
     Medium:
     6:
     0.371759,0.478944,0.215006,0.504152,0.170522,351.000000,322.000000,29.000000,68.000000,0.000000,0.000000,0.371759,0.478944,0.215006,0.504152,0.170522,351.000000,322.000000,29.000000,68.000000,0.000000,0.000000:
0000
0000
0000
0000
,
0000
0000
0000
0000
,
0000
0000
0000
0000
,
0000
0000
0000
0000
,
0000
0000
0000
0000
0001
0000
0000
0000
0010
0000
0000
0000
0100
0000
0000
0100
,
0000
0000
0000
0000
1000
0000
0000
0000
0001
0000
0000
0000
0100
0000
0000
0100
,
0000
0002
0000
0000
0000
0013
0200
0000
,
0000
0000
1300
0000
0010
0000
0000
1000
0000
0000
0002
0000
1000
0000
0000
0000
,
0010
0000
0000
0000
1003
0000
0000
0000
0100
0000
0000
0000
0010
0000
0000
0010
,
0000
0000
0000
0000
0001
0000
0000
0000
1000
0000
0000
0000
0010
0000
0000
0010
,
0000
0200
0000
0000
0000
0301
0020
0000
,
0000
0000
1030
0000
0010
0000
0000
0001
0000
0000
0200
0000
0000
0000
0000
0010
,
0000
0001
0301
0000
1000
0001
0100
0000
,
0100
0000
1000
0000
0001
0000
0000
0000
1000
0000
0100
0000
0001
0000
0000
0010
,
0000
2000
0100
0000
3001
1000
0020
0000
,
0031
0000
0010
0000
1000
0000
0000
0001
0000
0000
0200
0000
0010
0000
0000
0001
,
0000
0310
0100
0000
0001
1000
0100
0000
,
0100
0000
0001
0000
1000
0000
0000
0000
0001
0000
0010
0000
1000
0000
0000
0100
,
0000
0002
0100
0000
1003
0001
0020
0000
,
0130
0000
0010
0000
0001
0000
0000
1000
0000
0000
0020
0000
0000
0000
0000
0000
,
1030
2001
0010
3002
,
0100
0000
0203
0000
0001
0000
0000
0000
1300
0000
0100
0000
0010
0000
0000
1000
,
0000
0002
1000
0000
0013
0100
2000
0000
,
3100
0000
0010
0000
0110
0000
0000
0011
0000
0000
2001
0000
0000
0000
0000
0000
,
3020
0100
0230
0000
1000
0000
0302
0000
,
0103
0000
0020
0000
0001
0000
0000
0000
1030
0000
0010
0000
0100
0000
0000
0001
,
0000
0020
0001
0000
0130
1000
0002
0000
,
0103
0000
0001
0000
0101
0000
0000
0110
0000
0000
2001
0000
0000
0000
0000
0000
,
3020
0100
0130
0000
0010
1000
0001
0000
,
0100
0000
0001
0000
1000
0000
0000
0000
0100
0000
0010
0000
0001
0000
0000
0010
,
0000
0200
0001
0000
1300
0100
0020
0000
,
0031
0000
0010
0000
1000
0000
0000
0100
0000
0000
0002
0000
0100
0000
0000
0000
,
1000
0203
1000
0320
,
1000
0000
2030
0000
0000
0000
0000
0000
3100
0000
0010
0000
0001
0000
0000
0100
,
0000
0002
0100
0000
1003
0100
0020
0000
,
0031
0000
0010
0000
0011
0000
0000
1010
0000
0000
2001
0000
0000
0000
0000
0000
,
3020
0000
0130
0000
0100
0010
1000
0000
,
0001
0000
1000
0000
0010
0100
1000
0000
,
0100
0000
0000
0000
0001
0000
0000
0000
1000
0000
0100
0000
0010
0000
0000
0010
,
0000
0000
0000
0000
0001
0000
0000
0000
0100
0000
0010
0000
1000
0000
0000
1000
,
0000
0000
0000
0000
0100
0000
0000
1100
0000
0000
0000
0000
0001
0000
0000
0101
,
0000
0000
0000
0000
1000
0000
0000
1001
0000
0000
0000
0000
0100
0000
0000
0110
,
0000
0000
0000
0000
0100
0000
0000
0000
0001
0000
0010
0000
0100
0000
0000
1001
,
0000
0000
0000
0000
1000
0000
0000
0000
0001
0000
1000
0000
0010
0000
0000
1001
,
0000
2010
0000
3200
,
0000
0000
0302
0000
0000
0000
0000
0000
0000
0000
0103
0000
0010
0000
0000
0001
,
0000
0200
0000
0000
0000
0310
2000
0000
,
0000
0000
3001
0000
0010
0000
0000
0100
0000
0000
2000
0000
0000
0000
0000
0000
,
3010
1020
0001
0230
,
0000
0000
0302
0000
0100
0000
0000
0000
1003
0000
0100
0000
1000
0000
0000
1001
,
0000
0000
0001
0000
0100
0000
0000
0010
0100
0000
0001
0000
1000
0000
0000
0100
,
0010
0000
0001
0000
0011
0000
0000
1001
0000
0000
1020
0000
0000
0000
0000
0000
,
2030
0100
3200
0000
0001
0000
2300
0000
,
0000
0000
3020
0000
1000
0000
0000
0000
0130
0000
0001
0000
1000
0000
0000
1001
,
0000
0000
0001
0000
0010
0000
0000
0100
1000
0000
0001
0000
0100
0000
0000
0010
,
1000
0000
0001
0000
1001
0000
0000
0110
0000
0000
0102
0000
0000
0000
0000
0000
,
2003
0000
0010
0000
3010
0000
1000
0010
1000
0000
0100
0000
0010
0000
0000
0000
,
0001
0000
1000
0000
0020
0000
0000
0000
0230
0000
0000
0000
1300
0000
0000
0100
,
0000
0000
0001
0000
0100
0000
0001
0100
0001
0000
1000
0000
0010
0000
0000
0000
,
0100
0000
0001
0000
0010
0000
0000
0100
0000
0000
2000
0000
0000
0000
0000
0000
,
3200
0010
1300
0002
,
0000
0000
0023
0000
0100
0000
0000
0000
0001
0000
0000
0000
0130
0000
0000
0010
,
0000
0002
0010
0000
1003
0001
0200
0000
,
0310
0000
0100
0000
0110
0000
0000
1001
0000
0000
1200
0000
0000
0000
2300
0000
,
0000
3002
0000
0203
,
0000
0000
0320
0000
0000
0000
0000
0000
0030
0000
1000
0000
0100
0000
0000
0010
,
0000
0002
0000
0000
0003
0010
0200
0000
,
0300
0000
1000
0000
0001
0000
0000
0100
0000
0000
0020
0000
0000
0000
0000
0000
,
0030
0000
0000
0000
;

//---------------dance-single - ----------------
#NOTES:
     dance-single:
     X-Scale 12:
     Hard:
     8:
     0.505211,0.529359,0.326216,0.504152,0.270611,477.000000,433.000000,44.000000,68.000000,0.000000,0.000000,0.505211,0.529359,0.326216,0.504152,0.270611,477.000000,433.000000,44.000000,68.000000,0.000000,0.000000:
// measure 0
0000
0000
0000
0000
,  // measure 1
0000
0000
0000
0000
,  // measure 2
0000
0000
0000
0000
,  // measure 3
0000
0000
0000
0000
,  // measure 4
0000
0000
0000
0000
1100
0000
0001
0000
1000
0000
0100
0000
2000
0000
0000
3002
,  // measure 5
0000
0003
0100
0000
0001
0000
1000
0000
0010
0000
0100
0000
0002
0000
0000
2003
,  // measure 6
0000
3000
0100
0000
0001
0000
1000
0000
0010
0000
0100
0000
2000
0000
0000
3002
,  // measure 7
0000
0003
0100
0000
1000
0000
0100
0000
0001
0000
0010
0000
0200
0000
0000
2300
,  // measure 8
0000
3000
0000
0000
1001
0000
0100
0000
0001
0000
1000
0000
0020
0000
0000
0230
,  // measure 9
0000
0300
0001
0000
1000
0000
0100
0000
0001
0000
0100
0000
2000
0000
0000
3200
,  // measure 10
0000
0300
0001
0000
1000
0000
0010
0000
0001
0000
1000
0000
0002
0000
0000
0203
,  // measure 11
0000
0300
0001
0000
1000
0000
0001
0000
0100
0000
0001
0000
1000
0000
0000
0100
,  // measure 12
2000
0000
0001
0000
3001
0000
1000
0100
0001
0000
1000
0010
0001
0000
1000
0000
,  // measure 13
0001
0100
1000
0100
0001
0010
1000
0001
,  // measure 14
0100
1000
0010
1000
0200
0010
0010
0320
,  // measure 15
0030
0000
0001
0000
0100
0000
0000
0100
1000
0000
0100
0000
0001
0000
0000
0001
,  // measure 16
2000
0000
0001
0000
3001
0000
0001
0100
1000
0000
0001
0010
1000
0000
0010
0000
,  // measure 17
0001
1000
0001
0010
1000
0001
1000
0100
,  // measure 18
0001
0100
1000
0001
0200
0010
0310
0020
,  // measure 19
0030
0000
0010
0000
1000
0000
0000
0001
0100
0000
0001
0000
1000
0000
0000
1000
,  // measure 20
0100
0010
2001
0000
0010
0000
3002
0000
,  // measure 21
1003
0000
0020
0000
0001
0000
0000
0000
0130
0000
0001
0000
1001
0000
0000
1100
,  // measure 22
0000
0000
0101
0000
0001
0000
0000
0010
0100
0000
1000
0000
0001
0000
0000
0100
,  // measure 23
0001
0000
1000
0000
1001
0000
0000
0110
0000
0000
1100
0000
1000
0000
0000
0001
,  // measure 24
0010
0001
0200
0000
1000
0000
0302
0000
,  // measure 25
1003
0000
0200
0000
0010
0000
0000
0000
1300
0000
0100
0000
1100
0000
0000
0101
,  // measure 26
0000
0000
1001
0000
1000
0000
0000
0010
1000
0000
0001
0000
0100
0000
0000
0010
,  // measure 27
0100
0000
0001
0000
0011
0000
0000
0110
0000
0000
1001
0000
0100
0000
0000
1000
,  // measure 28
0001
0000
0010
0000
0011
0000
1000
0001
0100
0000
1000
0000
0100
0000
0010
0000
,  // measure 29
0100
0000
0001
0000
0020
0000
0000
0000
2030
0000
0000
0000
3200
0000
0000
0001
,  // measure 30
0000
0000
0310
0000
0100
0000
0001
1000
0010
0000
1000
0000
0100
0000
0001
0000
,  // measure 31
1000
0010
0001
1000
0020
0030
0200
0000
,  // measure 32
0001
0000
0301
0000
0101
0000
0000
0001
1000
0000
0001
0000
0100
0000
0000
0010
,  // measure 33
0100
0000
0001
0000
1000
0000
0000
0100
0010
0000
0001
0000
0011
0000
0000
1001
,  // measure 34
0000
0000
1010
0000
0010
0000
0000
1000
0100
0000
1000
0000
0001
0000
0000
0100
,  // measure 35
0001
0000
1000
0000
1010
0000
0000
0011
0000
0000
0101
0000
0001
0000
0000
0010
,  // measure 36
0100
0000
1000
0000
0001
0000
0100
0000
0010
0000
0100
0000
0010
0000
0000
0100
,  // measure 37
0001
0000
1000
0000
0000
0000
0001
0000
0100
0000
0001
0000
0100
0000
0000
0001
,  // measure 38
0010
0000
0100
0000
0001
0000
0100
0000
1000
0000
0001
0000
2000
0000
0000
3200
,  // measure 39
0000
0300
0001
0000
0100
0000
1000
0000
0010
0000
0100
0000
0002
0000
0000
0203
,  // measure 40
0000
0300
0001
0000
1000
0000
0010
0000
0100
0000
0010
0000
0100
0000
0000
0001
,  // measure 41
1000
0000
0001
0000
0000
0000
1000
0000
0010
0000
1000
0000
0010
0000
0000
0100
,  // measure 42
0001
0000
1000
0000
0001
0000
0100
0000
1000
0000
0100
0000
0002
0000
0000
2003
,  // measure 43
0000
3000
0010
0000
1000
0000
0100
0000
0001
0000
0100
0000
2000
0000
0000
3020
,  // measure 44
0000
0030
1000
0000
0002
0000
0000
0000
0000
0000
0000
0000
0023
0000
0000
0000
,  // measure 45
0000
2030
0000
0000
0000
3001
0100
1000
,  // measure 46
0001
1000
0010
0100
0002
0000
0000
2003
,  // measure 47
3000
0000
0001
0000
0200
0000
0000
0320
0000
0000
2030
0000
0000
0000
3000
0000
,  // measure 48
1100
0000
0000
0000
1001
0000
0000
0100
0001
0000
1000
0000
0010
0000
0000
0001
,  // measure 49
0010
0000
1000
0000
0001
0000
0000
0100
0001
0000
0010
0000
0011
0000
0000
1010
,  // measure 50
0000
0000
1100
0000
0100
0000
0000
1000
0001
0000
0100
0000
0001
0000
0000
0010
,  // measure 51
0100
0000
1000
0000
1001
0000
0000
0110
0000
0000
0011
0000
0001
0000
0000
1000
,  // measure 52
0010
0000
1000
0000
0100
0000
0000
0010
0100
0000
1000
0000
0001
0000
0000
0100
,  // measure 53
0001
0000
0010
0000
0100
0000
0000
1000
0100
0000
1000
0000
1100
0000
0000
0110
,  // measure 54
0000
0000
0101
0000
0002
0000
0000
0100
0000
0000
1000
0000
2003
0000
0000
0100
,  // measure 55
0000
0000
3001
0000
1001
0000
0000
0110
0000
0000
0101
0000
0001
0000
0000
0100
,  // measure 56
0001
0000
1000
0000
1001
0000
0001
0010
0100
0000
0001
0000
0100
0000
1000
0000
,  // measure 57
0010
1000
0200
0000
0302
0000
0023
0000
,  // measure 58
2030
0000
0000
0000
3001
0000
1000
0001
0100
0000
0010
0000
0001
0000
0010
0000
,  // measure 59
1000
0001
0100
0010
2000
0000
3002
0000
,  // measure 60
0203
0000
0000
0000
0310
0000
0000
0100
0001
0000
0010
0000
0100
0000
0000
1000
,  // measure 61
0100
0000
1000
0000
0001
0000
0000
0100
0001
0000
1000
0000
1001
0000
0000
0101
,  // measure 62
0000
0000
1100
0000
0100
0000
0000
1000
0001
0000
0100
0000
0001
0000
0000
0010
,  // measure 63
0100
0000
1000
0000
1100
0000
0000
1001
0000
0000
0210
0000
0000
0000
0302
0000
,  // measure 64
0000
2003
0000
3200
,  // measure 65
0000
0000
0302
0000
0000
0000
0000
0000
0003
0000
0010
0000
2000
0000
0000
3002
,  // measure 66
0000
0203
0000
0000
0300
0001
2000
0000
,  // measure 67
3000
0000
0100
0000
0002
0000
0000
0203
0000
0000
2300
0000
0000
0000
0000
0000
,  // measure 68
3000
0000
0000
0000
;
