#VERSION:0.83;
#TITLE:One Last Time;
#SUBTITLE:-1985 version-;
#ARTIST:Ariana Grande remixed by TRONICBOX;
#TITLETRANSLIT:;
#SUBTITLETRANSLIT:;
#ARTISTTRANSLIT:;
#GENRE:80s Pop;
#ORIGIN:;
#CREDIT:;
#BANNER:olt_1985-bn.png;
#BACKGROUND:olt_1985-bg.png;
#PREVIEWVID:;
#JACKET:olt_1985-jacket.png;
#CDIMAGE:;
#DISCIMAGE:;
#LYRICSPATH:;
#CDTITLE:80scdtitle_smol.png;
#MUSIC:olt - 1985.ogg;
#OFFSET:0.000000;
#SAMPLESTART:34.540001;
#SAMPLELENGTH:12.000000;
#SELECTABLE:YES;
#BPMS:0.000=125.000;
#STOPS:;
#DELAYS:;
#WARPS:;
#TIMESIGNATURES:0.000=4=4;
#TICKCOUNTS:0.000=4;
#COMBOS:0.000=1;
#SPEEDS:0.000=1.000=0.000=0;
#SCROLLS:0.000=1.000;
#FAKES:;
#LABELS:0.000=Song Start;
#BGCHANGES:;
#KEYSOUNDS:;
#ATTACKS:
;

//---------------dance-single - ----------------
#NOTEDATA:;
#CHARTNAME:;
#STEPSTYPE:dance-single;
#DESCRIPTION:;
#CHARTSTYLE:;
#DIFFICULTY:Hard;
#METER:8;
#RADARVALUES:0.502970,0.513734,0.150695,0.123296,0.130146,257.000000,246.000000,11.000000,9.000000,0.000000,0.000000,0.000000,0.000000,0.000000,0.502970,0.513734,0.150695,0.123296,0.130146,257.000000,246.000000,11.000000,9.000000,0.000000,0.000000,0.000000,0.000000,0.000000;
#CREDIT:;
#NOTES:
0000
0000
0000
0000
,
0000
0000
0000
0000
,
1001
0000
1000
0000
0001
0000
0010
0000
0100
0000
0000
0010
0000
0000
0001
0000
,
1000
0000
0010
0000
0100
0000
0010
0000
1000
0000
0000
0001
0000
0000
0100
0000
,
0010
0000
0100
0000
0001
0000
0100
0000
0010
0000
0000
0100
0000
0000
0001
0000
,
1000
0000
0001
0000
0010
0000
0001
0000
0100
0000
0000
0001
0000
0000
1000
0000
,
1010
0000
0100
0000
0010
0000
0100
0000
0001
0000
0000
0001
0000
0000
0001
0000
,
1000
0000
0010
0000
0100
0000
0010
0000
1000
0000
0000
1000
0000
0000
1000
0000
,
0100
0000
0010
0000
0001
0000
0010
0000
0100
0000
0000
0010
0000
0000
0100
0000
,
1000
0000
0100
0000
0010
0000
0001
0000
0010
0000
0000
0100
0000
0000
0010
0100
,
0010
0000
0001
0100
0001
0000
1000
0001
1000
0000
0001
0000
0001
0000
0010
0000
,
0100
1000
0100
0010
0001
1000
0010
0100
,
0010
1000
0001
0100
0010
0100
0001
0010
,
0100
0000
0010
0000
0010
0000
0001
0000
1000
0000
0100
0000
0100
0000
1000
0010
,
1000
0000
0010
0100
0010
0000
1000
0001
1000
0000
1000
0000
0100
0000
0010
0000
,
0100
1000
0100
0010
0001
0010
0100
0010
,
0100
1000
0001
1000
0010
0100
0001
0011
,
0000
0000
1100
0000
0010
0000
0000
1000
0000
0000
0001
0000
0100
0000
0010
0000
,
0110
0000
0001
0010
1000
0010
0001
0000
,
0100
0010
1000
0001
0100
0010
0100
0001
,
0000
1000
0020
0000
0230
0000
0302
0000
,
1003
0000
0000
0001
0000
0000
0100
0000
0000
0000
0010
0000
0010
0000
0000
0000
,
0101
0000
0010
1000
0100
0010
0001
0000
,
1000
0001
0100
0010
0100
0001
1000
0100
,
0000
0100
2000
0000
3002
0000
0023
0000
,
0130
0000
0000
0010
0000
0000
0001
0000
0000
0000
1000
0000
0001
0000
0000
0000
,
1001
0000
1000
0010
1000
0000
0010
0000
0100
0000
0001
0000
1000
0000
0010
0000
,
0100
0010
1000
0001
0010
0001
0100
0010
,
1000
0100
0010
0001
0010
0100
0010
0001
,
1000
0001
0100
0001
1000
0010
0010
0000
,
0110
0000
1000
0010
0100
0001
0010
0000
,
0100
0010
0001
0010
0100
0010
0001
1000
,
0000
0001
0200
0000
0320
0000
2030
0000
,
3010
0000
0000
0110
0000
0000
0101
0000
0000
0000
0000
0000
0010
0000
0000
0000
,
0010
0001
0100
0000
0010
0000
1000
0001
,
0100
0010
0100
0000
0001
0000
0010
0001
,
0010
0100
1000
0000
0001
0000
0100
0010
,
0100
0001
0001
0000
1001
0000
0000
0000
;

//---------------dance-single - ----------------
#NOTEDATA:;
#CHARTNAME:;
#STEPSTYPE:dance-single;
#DESCRIPTION:;
#CHARTSTYLE:;
#DIFFICULTY:Medium;
#METER:6;
#RADARVALUES:0.414901,0.410987,0.150695,0.123296,0.047948,212.000000,201.000000,11.000000,9.000000,0.000000,0.000000,0.000000,0.000000,0.000000,0.414901,0.410987,0.150695,0.123296,0.047948,212.000000,201.000000,11.000000,9.000000,0.000000,0.000000,0.000000,0.000000,0.000000;
#CREDIT:;
#NOTES:
// measure 0
0000
0000
0000
0000
,  // measure 1
0000
0000
0000
0000
,  // measure 2
0011
0010
0001
0000
0100
0010
0100
0000
,  // measure 3
0001
0010
0100
0000
0010
0100
1000
0000
,  // measure 4
0001
0100
0010
0000
1000
0010
0100
0000
,  // measure 5
0001
1000
1000
0010
0100
0001
0001
0000
,  // measure 6
0101
0100
0001
0000
1000
0010
0100
0000
,  // measure 7
0001
0010
0100
0000
0010
0100
1000
0000
,  // measure 8
0100
0010
0100
0000
1000
0001
0100
0000
,  // measure 9
1000
0100
0010
0001
0010
0100
0010
1000
,  // measure 10
1010
0000
0100
0100
0000
0001
1000
0010
,  // measure 11
0100
0000
0001
0001
0000
1000
0100
0010
,  // measure 12
0001
0000
0001
1000
0010
0100
0001
0010
,  // measure 13
0000
0010
0010
0100
0000
0100
0100
0000
,  // measure 14
0101
0000
0000
1010
0000
0000
0100
0110
,  // measure 15
0000
0000
1000
0010
0100
0001
0010
0100
,  // measure 16
1000
0010
0100
0001
0010
0100
1000
0010
,  // measure 17
0000
0000
0100
0000
0010
0000
0000
0100
0000
0000
0001
0000
0100
0000
0000
0000
,  // measure 18
0110
0000
0010
0000
1000
0000
0100
0010
,  // measure 19
0100
0000
0000
0000
1000
0000
0001
0000
0100
0000
0000
0010
0000
0000
0100
0000
,  // measure 20
0000
1000
0020
0000
0230
0000
0302
0000
,  // measure 21
1003
0000
0000
0001
0000
0000
0100
0000
0000
0000
0010
0000
0010
0000
0000
0000
,  // measure 22
0101
0000
0010
0000
0100
0010
0100
0000
,  // measure 23
0001
0000
1000
0000
0001
0000
0000
0000
0100
0000
0000
0001
0000
0000
0010
0000
,  // measure 24
0000
0100
2000
0000
3002
0000
0023
0000
,  // measure 25
0130
0000
0000
0010
0000
0000
0001
0000
0000
0000
0100
0000
0100
0000
0000
0000
,  // measure 26
1001
0000
0100
0010
0100
0000
0001
0010
,  // measure 27
0001
0000
1000
0001
1000
0000
0100
0010
,  // measure 28
0100
0000
0010
0001
0010
0000
0001
1000
,  // measure 29
0001
0100
0100
0001
1000
0010
0010
0000
,  // measure 30
0110
0000
1000
0000
0001
1000
0001
0000
,  // measure 31
0100
0000
0010
0000
0001
0000
0000
0000
0010
0000
0000
1000
0000
0000
0010
0000
,  // measure 32
0000
0010
0200
0000
0320
0000
2030
0000
,  // measure 33
3010
0000
0000
0010
0000
0000
0100
0000
0000
0000
0000
0000
0010
0000
0000
0000
,  // measure 34
0100
0000
0100
0000
0010
0000
1000
0001
,  // measure 35
1000
0000
0010
0000
0100
0000
0010
0001
,  // measure 36
0010
0000
1000
0000
0001
0000
0100
0010
,  // measure 37
0100
0001
0001
0000
0011
0000
0000
0000
;

//---------------dance-single - ----------------
#NOTEDATA:;
#CHARTNAME:;
#STEPSTYPE:dance-single;
#DESCRIPTION:;
#CHARTSTYLE:;
#DIFFICULTY:Easy;
#METER:4;
#RADARVALUES:0.232893,0.256867,0.191794,0.123296,0.000000,119.000000,105.000000,14.000000,9.000000,0.000000,0.000000,0.000000,0.000000,0.000000,0.232893,0.256867,0.191794,0.123296,0.000000,119.000000,105.000000,14.000000,9.000000,0.000000,0.000000,0.000000,0.000000,0.000000;
#CREDIT:;
#NOTES:
// measure 0
0000
0000
0000
0000
,  // measure 1
0000
0000
0000
0000
,  // measure 2
1100
0000
0100
0000
,  // measure 3
0001
0000
0010
0000
,  // measure 4
0001
0000
1000
0000
,  // measure 5
0010
0010
0010
0000
0100
0100
0100
0000
,  // measure 6
0110
0000
1000
0000
,  // measure 7
0001
0000
0010
0000
,  // measure 8
0100
0000
1000
0000
,  // measure 9
0001
0001
0001
0000
1000
1000
1000
0000
,  // measure 10
1001
0001
0000
1000
,  // measure 11
0000
0010
0000
0100
,  // measure 12
0000
0001
0000
1000
,  // measure 13
0000
0010
0010
0000
0000
0100
0100
0000
,  // measure 14
0110
0000
0000
1001
0000
0000
0000
0110
,  // measure 15
0000
1000
0100
0010
,  // measure 16
0001
0000
0100
0000
0010
0000
0000
0110
,  // measure 17
0000
1001
0000
0000
0000
0000
0100
0000
,  // measure 18
0120
0000
0000
0000
2030
0000
0000
3002
,  // measure 19
0010
0000
0013
0000
0010
0000
0000
0001
,  // measure 20
0000
0100
0100
0100
,  // measure 21
0001
0000
1000
0000
,  // measure 22
1002
0000
0000
0000
0203
0000
0000
0320
,  // measure 23
0100
0000
0130
0000
0100
0000
0000
0001
,  // measure 24
0000
0010
0010
0010
,  // measure 25
0100
0000
0010
0000
,  // measure 26
0110
0000
0100
0001
,  // measure 27
0100
0000
0010
0000
1000
0000
0001
0010
,  // measure 28
0001
0000
0100
0000
,  // measure 29
1000
0100
1000
0000
0010
0000
0000
0000
,  // measure 30
2010
0000
0000
0000
3002
0000
0000
0203
,  // measure 31
0001
0000
0301
0000
0001
0000
0000
1000
,  // measure 32
0000
1000
1000
1000
,  // measure 33
0001
0000
0000
0001
0000
0000
0000
0000
,  // measure 34
1001
0000
0010
0000
,  // measure 35
1000
0000
0100
0000
,  // measure 36
0001
0000
0100
0000
,  // measure 37
0010
0000
0110
0000
;

//---------------dance-single - ----------------
#NOTEDATA:;
#CHARTNAME:;
#STEPSTYPE:dance-single;
#DESCRIPTION:;
#CHARTSTYLE:;
#DIFFICULTY:Beginner;
#METER:1;
#RADARVALUES:0.133082,0.154120,0.123296,0.164395,0.000000,68.000000,59.000000,9.000000,12.000000,0.000000,0.000000,0.000000,0.000000,0.000000,0.133082,0.154120,0.123296,0.164395,0.000000,68.000000,59.000000,9.000000,12.000000,0.000000,0.000000,0.000000,0.000000,0.000000;
#CREDIT:;
#NOTES:
// measure 0
0000
0000
0000
0000
,  // measure 1
0000
0000
0000
0000
,  // measure 2
0110
0000
0000
0000
,  // measure 3
0001
0000
0000
0000
,  // measure 4
0100
0000
0000
0000
,  // measure 5
0001
0000
1000
0000
,  // measure 6
1001
0000
0000
0000
,  // measure 7
0001
0000
0000
0000
,  // measure 8
0100
0000
0000
0000
,  // measure 9
0010
0000
0100
0000
,  // measure 10
0110
0000
0000
0000
,  // measure 11
0010
0000
0000
0000
,  // measure 12
0100
0000
0000
0000
,  // measure 13
0001
0000
0100
0000
,  // measure 14
0101
0000
0000
0001
0000
0000
0000
1000
,  // measure 15
0000
0000
0000
0000
,  // measure 16
0001
0000
0000
0000
0000
0000
0000
0100
,  // measure 17
0000
0100
0000
0000
0000
0000
0000
0000
,  // measure 18
0200
0000
0000
0000
0320
0000
0000
0032
,  // measure 19
0000
0003
0100
0000
,  // measure 20
0000
0002
0000
0000
,  // measure 21
1003
0000
1000
0000
,  // measure 22
1002
0000
0000
0000
0023
0000
0000
0230
,  // measure 23
0000
0300
1000
0000
,  // measure 24
0000
2000
0000
0000
,  // measure 25
3100
0000
1000
0000
,  // measure 26
1100
1000
0000
0001
,  // measure 27
0000
0100
0000
0001
,  // measure 28
0000
0010
0000
0100
,  // measure 29
0000
1000
0000
0010
,  // measure 30
2010
0000
0000
0000
3020
0000
0000
2030
,  // measure 31
0000
3000
0001
0000
,  // measure 32
0000
2000
0000
0000
,  // measure 33
3001
0000
0000
0001
0000
0000
0000
0000
,  // measure 34
1001
0000
0001
0000
,  // measure 35
1000
0000
1000
0000
,  // measure 36
0001
0000
0010
0000
,  // measure 37
0100
0000
0110
0000
;
