#TITLE:Ocean Dream;
#SUBTITLE:(Radio Edit);
#ARTIST:Mhammed El Alami & Ben Samy;
#TITLETRANSLIT:;
#SUBTITLETRANSLIT:;
#ARTISTTRANSLIT:;
#GENRE:Trance;
#CREDIT:;
#BANNER:Ocean Dream (Radio Edit)-bn.png;
#BACKGROUND:Ocean Dream (Radio Edit)-bg.png;
#LYRICSPATH:;
#CDTITLE:cdtitle.png;
#MUSIC:Ocean Dream (Radio Edit).ogg;
#OFFSET:-0.003000;
#SAMPLESTART:69.568001;
#SAMPLELENGTH:13.913000;
#SELECTABLE:YES;
#BPMS:0.000000=138.000000
,60.000000=69.000000
,94.000000=138.000000
,122.000000=69.000000
,124.000000=138.000000
,252.000000=69.000000
;
#STOPS:
;
#BGCHANGES:;
#KEYSOUNDS:;
#ATTACKS:;

//---------------dance-single - ocean vibe----------------
#NOTES:
     dance-single:
     X-Scale 10:
     Medium:
     7:
     0.411757,0.631020,0.037628,0.015051,0.188140,383.000000,378.000000,5.000000,2.000000,0.000000,0.000000,0.411757,0.631020,0.037628,0.015051,0.188140,383.000000,378.000000,5.000000,2.000000,0.000000,0.000000:
0000
0000
0000
0000
,
0000
0000
0000
0000
,
0000
0000
0000
0000
,
0000
0000
0000
0000
,
0001
0000
1000
0000
0100
0010
0100
0000
,
1000
0000
0001
0000
0100
0001
0100
0000
,
0010
0000
0100
0000
0001
0010
0001
0000
,
1000
0000
0100
0000
0010
0100
1000
0001
,
1000
0000
0100
0000
1000
0001
0100
0000
,
0010
0000
0100
0000
0001
0010
0100
0000
,
1000
0000
0010
0000
1000
0001
0100
0000
,
0010
0000
0100
0000
0001
0010
1000
0010
,
0001
0000
0100
0000
0010
0100
0001
0000
,
1000
0000
0100
0000
0010
0100
1000
0000
,
0001
0000
1000
0000
0010
1000
0001
0000
,
2002
0000
0000
3003
0110
0000
0100
0000
,
0001
1000
0001
0010
,
0100
0000
0000
0000
0000
0000
0000
0000
1000
0000
0000
0000
0100
0000
0000
0000
0010
0000
0000
0001
0000
0000
1000
0000
0001
0000
0000
0010
0000
0000
0100
0000
,
1000
0000
0000
0100
0000
0000
0010
0000
0001
0000
0000
0100
0000
0000
0010
0000
1000
0000
0000
0010
0000
0000
0100
0000
0001
0000
0000
0010
0000
0000
0100
0000
,
1000
0000
0000
0001
0000
0000
1000
0000
0100
0000
0001
0000
0100
0000
0010
0000
0001
0000
0000
0000
0100
0000
0000
0000
0010
0000
0000
0000
0100
0000
0000
0000
,
0001
0010
0100
1000
0100
0010
0001
1000
,
0010
0000
1000
0000
0001
0010
0001
0010
0001
0000
0100
0000
0010
0000
0100
0000
,
0001
0010
1000
0010
0001
1000
0010
1000
,
0001
0000
1000
0000
0100
0010
0100
0010
0100
0000
0000
1000
0000
0000
0001
0000
,
0001
0000
0000
0010
0000
0000
0100
0000
0100
0000
0000
1000
0000
0000
0001
0000
,
0001
0000
0000
1000
0000
0000
0100
0000
0100
0000
0000
0010
0000
0000
0001
0000
,
0001
0000
0000
1000
0000
0000
0010
0000
0010
0000
0000
0100
0000
0000
0001
0000
,
0010
0000
1000
0000
0010
0000
0100
0000
1000
0000
0000
0001
0000
0000
0010
0000
,
0010
0000
0000
0001
0000
0000
1000
0000
1000
0000
0000
0010
0000
0000
0100
0000
,
0100
0000
0000
0001
0000
0000
0010
0000
0010
0000
0000
0100
0000
0000
1000
0000
,
1000
0000
0000
0000
0000
0000
0010
0000
0000
0000
0000
0000
1000
0000
0000
0000
1000
0000
0000
0100
0000
0000
0010
0000
0100
0000
1000
0000
0001
0000
0000
0000
,
1001
0000
1000
0100
0010
0000
0100
1000
,
0001
0000
0100
0010
0100
0000
0001
0010
,
0100
0000
0010
0001
1000
0000
0010
1000
,
0001
0000
0100
0010
1000
0001
0010
0100
,
1000
0000
0010
0100
0001
0000
0010
0100
,
1000
0000
0001
1000
0010
0000
0100
0010
,
1000
0000
0100
0010
0001
0000
0100
0001
,
0100
0000
0001
0010
1000
0001
0100
1000
,
0001
0000
1000
0100
0010
0000
0100
1000
,
0001
0000
0100
0001
1000
0000
0010
0100
,
0001
0000
0010
0100
0010
0000
0001
1000
,
0010
0000
0100
0001
0010
0001
1000
0100
,
0010
0000
0100
1000
0001
0000
0100
0001
,
0010
0000
0100
0010
0001
0000
1000
0010
,
1000
0000
0001
0010
0100
0000
1000
0100
,
0010
0000
0001
0100
0010
1000
0100
0010
,
0001
0000
0000
0100
0000
0000
0010
0000
0100
0000
0000
0001
0000
0000
1000
0000
,
0010
0000
0000
1000
0000
0000
0001
0000
1000
0000
0000
0100
0000
0000
0010
0000
,
0001
0000
0000
0100
0000
0000
0010
0000
0100
0000
0000
0001
0000
0000
0010
0000
,
0001
0000
0000
1000
0000
0000
0010
0000
1000
0000
0001
0000
0100
0000
0001
0000
,
1000
0000
0000
0100
0000
0000
0010
0000
0001
0000
0000
1000
0000
0000
0001
0000
,
0100
0000
0000
0001
0000
0000
1000
0000
0010
0000
0000
0100
0000
0000
0010
0000
,
1000
0000
0000
0001
0000
0000
0010
0000
0100
0000
0000
0010
0000
0000
0001
0000
,
1000
0000
0000
0100
0000
0000
0010
0000
0100
0000
1000
0000
0001
0000
0100
0000
,
0101
0000
0001
1000
0001
0000
0010
0000
,
0100
0000
1000
0100
1000
0000
0010
0000
,
0100
0000
0001
0100
0001
0000
0010
0000
,
0100
0000
1000
0100
0010
0001
0100
0010
,
1000
0000
0001
0100
0001
0000
0010
0000
,
0100
0000
1000
0100
1000
0000
0010
0000
,
0100
0000
0001
0100
0001
0000
1000
0000
,
0100
0000
0010
0100
1000
0001
0100
0001
,
1001
1000
0100
0001
,
0010
1000
0001
0000
;

//---------------dance-single - solo hard----------------
#NOTES:
     dance-single:
     X-Scale 14:
     Hard:
     9:
     0.551518,0.728101,0.097833,0.052679,0.568182,513.000000,500.000000,13.000000,7.000000,0.000000,0.000000,0.551518,0.728101,0.097833,0.052679,0.568182,513.000000,500.000000,13.000000,7.000000,0.000000,0.000000:
0000
0000
0000
0000
,
0000
0000
0000
0000
,
0000
0000
0000
0000
,
0000
0000
0000
0000
,
1000
1010
0001
0011
,
0010
0110
1000
1001
,
0001
0101
0100
0110
,
0010
0000
1010
0000
2000
0000
0010
0010
,
3010
0000
0000
1000
0000
0000
0100
0000
1000
0000
0000
0001
0000
0000
0100
0000
,
0001
0000
0000
0010
0000
0000
0100
0000
0010
0000
0000
0001
0000
0000
1000
0000
,
0010
0000
0000
1000
0000
0000
0001
0000
0100
0000
0000
0001
0000
0000
0010
0000
,
0100
0000
0000
1000
0000
0000
0001
0000
0010
0000
1000
0000
0001
0000
0100
0000
,
1000
0000
0000
0010
0000
0000
1000
0000
0001
0000
0000
0100
0000
0000
0001
0000
,
0010
0000
0000
0001
0000
0000
1000
0000
0010
0000
0000
1000
0000
0000
0001
0000
,
0010
0000
0000
0100
0000
0000
1000
0000
0010
0000
0000
1000
0000
0000
0001
0000
,
1001
0000
0000
1000
0000
0000
0001
0000
0010
0000
1000
0000
0001
0000
0100
0000
2000
0000
0000
0000
0000
0000
0100
0000
0100
0000
0000
0000
0000
0000
0001
0000
,
0001
0000
0000
0010
0010
0000
0000
0001
3002
0000
0000
0010
0010
0000
0000
0100
,
0100
0000
0000
1000
1003
0001
0100
0001
0020
0000
0000
1000
1000
0000
0000
0100
,
0100
0000
0000
0001
0001
0000
0000
0100
0230
0000
0000
1000
1000
0000
0000
0010
,
0010
0000
0000
0001
0301
0100
0010
0100
1000
0000
0010
0000
1000
0000
0001
0000
,
1000
0010
1000
0001
0010
0100
0010
0001
,
0010
0000
0000
0000
0100
0000
0000
0000
0010
0000
0000
0000
0001
0000
0000
0000
1000
0000
0000
1000
0000
0000
0100
0010
0100
0000
0000
0100
0000
0000
1000
0000
,
0001
0000
0000
0001
0000
0000
0100
0001
0100
0000
0000
0100
0000
0000
0010
0000
1000
0000
0000
1000
0000
0000
0001
1000
0001
0000
0000
0010
0000
0000
0100
0000
,
1000
0000
0000
1000
0000
0000
0100
0010
0100
0000
0000
0010
0000
0000
0001
0000
0011
0000
0000
0000
0001
0000
0000
0000
0010
0000
0000
0000
0001
0000
0000
0000
,
0010
0100
1000
0100
1000
0100
0010
0100
,
0010
0001
0100
0001
0100
0010
1000
0010
,
1000
0001
1000
0001
0100
0010
0100
0010
,
1000
0000
0100
0000
0001
0000
0100
0000
1000
0100
0000
0100
0000
0000
0010
0001
,
0010
0001
0000
0100
0000
0000
0100
0000
0001
0000
0000
0001
0000
0000
0010
0100
,
0010
0100
0000
0100
0000
0000
1000
0000
0001
0010
0001
0010
0001
0010
0001
0010
,
0100
0000
1000
0000
0100
0000
1000
0000
0100
0000
1000
0000
0100
0000
1000
0000
0200
0000
0000
1000
0000
0000
0010
0000
0010
0000
1000
0000
1300
0100
1000
0000
,
1100
0000
0000
1000
0001
0000
0010
0000
0010
0000
0000
0100
1000
0000
0001
0000
,
0001
0000
0000
0100
0001
0000
1000
0000
1000
0000
0000
0100
0010
0000
0001
0000
,
0001
0000
0000
0100
0010
0000
0100
0000
0001
0000
0000
0010
0100
0000
1000
0000
,
1000
0000
0000
0010
1000
0000
0100
0000
0001
0000
0100
0000
0010
0000
0100
0000
,
1000
0000
0000
0001
0010
0000
0001
0000
0100
0000
0000
0010
0100
0000
0001
0000
,
0010
0000
0000
0100
1000
0000
0001
0000
0001
0000
0000
0100
0001
0000
1000
0000
,
1000
0000
0000
0010
1000
0000
0100
0000
0100
0000
0000
0010
0001
0000
0100
0000
,
0100
0000
0000
0010
1000
0000
0001
0000
0010
0000
1000
0000
0010
0000
0100
0000
,
1000
0000
0000
0100
0000
0000
0010
0000
0001
0100
0000
0100
0000
0000
1000
0000
,
0010
0000
0000
0100
0000
0000
0001
0000
1000
0100
0000
0100
0000
0000
0001
0000
,
1000
0000
0000
0010
0000
0000
0100
0000
0001
0010
0000
0010
0000
0000
0100
0000
,
0010
0000
0000
0001
0000
0000
1000
0000
0010
0000
0001
0000
1000
0000
0100
0000
,
0001
0000
0000
0010
0000
0000
0100
0000
1000
0100
0000
0100
0000
0000
0001
0000
,
0010
0000
0000
0100
0000
0000
1000
0000
0001
0010
0000
0010
0000
0000
1000
0000
,
0001
0000
0000
1000
0000
0000
0100
0000
0010
0100
0010
0100
0010
0100
0010
0100
,
1000
0001
1000
0001
1000
0001
1000
0001
0100
0010
0100
0010
0400
0040
0330
0000
,
1001
0000
1000
0000
0001
0100
0001
0000
0010
0000
0100
0000
1000
0100
1000
0000
,
0100
0000
0010
0000
0001
0010
0001
0000
0100
0000
0010
0000
1000
0010
1000
0000
,
0100
0000
0010
0000
0001
0010
0001
0000
0100
0000
0010
0000
1000
0010
1000
0000
,
0001
0000
0010
0000
0100
0010
0100
0000
1000
0000
0010
0000
0100
0010
0100
0000
,
0001
0000
0010
0000
0100
0010
0100
0000
1000
0000
0001
0000
0100
0001
0100
0000
,
0010
0000
1000
0000
0001
0100
0001
0000
0010
0000
0100
0000
1000
0100
1000
0000
,
0001
0000
0010
0000
0100
0010
0100
0000
1000
0000
0001
0000
0010
0100
0010
0000
,
0001
0000
1000
0001
1000
0000
0100
0000
0001
0000
0100
0000
0010
0000
0001
0000
,
0011
0000
0000
0001
0000
0000
1000
0000
0001
0010
0000
0100
1000
0000
0001
0000
,
0010
0000
0000
0001
0000
0000
1000
0000
0100
1000
0000
0001
0100
0000
0010
0100
,
0010
0000
0000
1000
0000
0000
0100
0000
0010
0001
0000
1000
0010
0000
1000
0000
,
0001
0000
0000
0010
0000
0000
0001
0000
0100
0010
0000
1000
0001
0000
0010
0100
,
0010
0001
0010
0001
1000
0010
1000
0010
,
0100
0001
0100
0001
0010
0100
0010
0100
,
1000
0000
0000
0100
0000
0000
1000
0000
1000
0000
0000
0001
0000
0000
0010
0000
,
0010
0000
0000
0100
0000
0000
1000
0000
0010
0000
0001
0000
1000
0000
0100
0000
,
0102
1000
0010
1000
,
0100
1000
0013
0000
;

//---------------dance-single - condensed Summer Contest chart----------------
#NOTES:
     dance-single:
     X-Scale 13:
     Challenge:
     9:
     0.444010,0.509670,0.195665,0.270921,0.342414,413.000000,387.000000,26.000000,36.000000,0.000000,0.000000,0.444010,0.509670,0.195665,0.270921,0.342414,413.000000,387.000000,26.000000,36.000000,0.000000,0.000000:
0000
0000
0000
0000
,
0000
0000
0000
0000
,
0000
0000
0000
0000
,
0000
0000
0000
0000
,
0001
0000
0000
0010
0000
0000
0001
0000
0001
0000
0000
1000
0000
0000
0100
0000
,
0100
0000
0000
0010
0000
0000
0001
0000
0001
0000
0000
1000
0000
0000
0010
0000
,
0010
0000
0000
1000
0000
0000
0100
0000
0100
0000
0000
0010
0000
0000
0001
0000
,
0001
0000
0000
1000
0000
0000
0100
0000
0200
0000
0000
0000
0000
0000
0000
0000
,
0310
0000
1001
0000
1000
0001
0101
0000
,
0100
0000
0110
0000
0010
1000
1100
0000
,
1000
0000
1001
0000
0010
0001
0101
0000
,
0100
0000
0110
0000
0010
1000
1001
0000
,
1000
0000
0000
0100
0000
0000
1000
0000
1000
0000
0000
0001
0000
0000
0010
0000
,
0010
0000
0000
0100
0000
0000
1000
0000
1000
0000
0000
0001
0000
0000
0100
0000
,
0100
0000
0000
0010
0000
0000
0100
0000
0100
0000
0000
0001
0000
0000
1000
0000
,
2000
0000
0000
0001
0001
0001
3010
0010
2010
0000
3000
0000
0002
0000
0003
0000
,
2000
3000
0002
0003
0200
0300
0020
0030
,
0200
0000
0300
0010
0100
0001
0010
0100
2000
0000
3000
0000
0200
0000
0300
0000
,
2000
3000
0020
0030
0200
0300
0002
0003
,
2000
0000
3000
0001
1000
0010
1000
0100
0020
0000
0130
0000
2000
0000
3001
0000
,
0200
0301
2000
3010
2000
3100
0020
0031
,
0200
0000
0310
0100
0001
0001
1000
0001
0020
0000
0031
0000
0200
0000
0310
0000
,
2000
3001
0020
0031
0200
0310
2000
3100
,
0020
0000
0031
0010
0100
0100
1000
0001
1001
0000
1000
0000
0001
0000
0000
0000
,
1000
0100
0010
0000
0100
1000
0001
0000
,
0100
0001
0010
0000
0100
0010
0001
0000
,
0010
0100
1000
0000
0001
1000
0010
0000
,
1000
0100
0010
0100
1000
0001
0100
0000
,
0010
1000
0100
0000
0010
0100
1000
0000
,
0001
0010
0100
0000
0010
0001
0100
0000
,
0010
0000
0000
0000
1000
0000
0000
0000
0001
0000
0000
0000
1000
0000
0000
0000
0001
0000
0000
0100
0000
0000
0001
0000
0010
0000
0001
1000
0001
1000
0001
0000
,
1000
0000
0000
0100
0000
0000
0010
0000
0001
0000
0000
0010
0000
0000
0100
0000
,
1000
0000
0000
0100
0000
0000
0010
0000
0100
0000
0000
1000
0000
0000
0001
0000
,
0100
0000
0000
0010
0000
0000
1000
0000
0001
0000
0000
0100
0000
0000
0001
0000
,
1000
0000
0000
0001
0000
0000
0100
0000
0010
0000
1000
0000
0100
0000
1000
0000
,
0001
0000
0000
1000
0000
0000
0010
0000
0100
0000
0000
0001
0000
0000
0010
0000
,
0100
0000
0000
0010
0000
0000
0001
0000
0010
0000
0000
0100
0000
0000
1000
0000
,
0100
0000
0000
1000
0000
0000
0010
0000
0100
0000
0000
0001
0000
0000
1000
0000
,
0010
0000
0000
1000
0000
0000
0001
0000
1000
0000
0100
0000
0010
0000
0001
0000
,
0010
0000
0000
0011
0000
0000
0001
0000
0100
0000
0000
0110
0000
0000
0010
0000
,
0100
0000
0000
0110
0000
0000
0010
0000
1000
0000
0000
1010
0000
0000
1000
0000
,
0100
0000
0000
0110
0000
0000
0100
0000
0010
0000
0000
0110
0000
0000
0010
0000
,
0001
0000
0000
0011
0000
0000
0001
0000
0010
0000
0100
0000
1000
0000
0100
0000
,
0010
0000
0000
0110
0000
0000
0001
0000
1000
0000
0000
1010
0000
0000
0010
0000
,
0100
0000
0000
0110
0000
0000
0100
0000
0001
0000
0000
0101
0000
0000
0001
0000
,
0010
0000
0000
0110
0000
0000
0100
0000
1000
0000
0000
1100
0000
0000
1000
0000
,
0100
0000
0000
0110
0000
0000
0100
0000
0010
0000
0001
0000
1000
0000
0100
0000
,
1001
0000
0000
1000
0000
0000
0001
1000
0001
0000
0000
1000
0000
0000
0001
1000
,
0001
0000
0000
1000
0000
0000
0001
1000
0001
0000
0000
1000
0000
0000
0001
1000
,
0001
0000
0000
1000
0000
0000
0001
1000
0001
0000
0000
1000
0000
0000
0001
1000
,
0001
0000
0000
1000
0000
0000
0001
0000
0010
0000
0100
0000
1000
0000
0100
0000
,
0010
0000
0000
0010
0000
0000
0001
0010
0001
0000
0000
0010
0000
0000
0001
0010
,
0001
0000
0000
0010
0000
0000
0001
0010
0001
0000
0000
0010
0000
0000
0001
0010
,
0001
0000
0000
0010
0000
0000
0001
0010
0001
0000
0000
0010
0000
0000
0001
0010
,
0001
0000
0000
0010
0000
0000
0001
0000
0010
0000
0100
0000
1000
0000
0001
0000
,
0200
0010
0010
0310
,
0020
0100
0100
0130
,
0002
1000
1000
1003
,
2000
0001
0001
3001
,
1000
0010
1000
0010
1000
0010
0100
0000
,
0001
0010
0001
0010
0001
0010
0100
0000
,
1000
0000
0000
0010
0000
0000
0001
0000
0010
0000
0000
1000
0000
0000
0100
0000
,
0001
0000
0000
0100
0000
0000
1000
0000
0100
0000
0010
0000
0001
0000
1000
0000
,
0220
0000
0000
0000
,
0000
0000
0330
0000
;

//---------------dance-single - ----------------
#NOTES:
     dance-single:
     X-Scale 6:
     Easy:
     4:
     0.280597,0.308173,0.045154,0.060205,0.000000,261.000000,255.000000,6.000000,8.000000,0.000000,0.000000,0.280597,0.308173,0.045154,0.060205,0.000000,261.000000,255.000000,6.000000,8.000000,0.000000,0.000000:
// measure 0
0000
0000
0000
0000
,  // measure 1
0000
0000
0000
0000
,  // measure 2
0000
0000
0000
0000
,  // measure 3
0000
0000
0000
0000
,  // measure 4
1000
0100
1000
0100
,  // measure 5
0010
0001
0010
0001
,  // measure 6
0100
0010
0100
0010
,  // measure 7
1000
0000
0001
0000
1000
0000
0001
0100
,  // measure 8
0001
0010
0100
0010
,  // measure 9
0001
0010
0100
0010
,  // measure 10
0001
1000
0010
1000
,  // measure 11
0001
1000
0010
1000
,  // measure 12
0001
0100
0010
0100
,  // measure 13
0001
0010
0100
1000
,  // measure 14
0010
0100
0010
1000
,  // measure 15
1010
0000
1000
0001
2001
0000
0000
0000
,  // measure 16
0100
0000
3020
0000
,  // measure 17
0001
0100
2030
0000
,  // measure 18
0100
0000
3002
0000
,  // measure 19
0100
0010
1003
0001
,  // measure 20
1000
0001
0010
0100
,  // measure 21
0010
0100
1000
0010
,  // measure 22
1000
0010
0100
0001
,  // measure 23
0100
0001
1000
0010
,  // measure 24
0100
0001
1000
0010
,  // measure 25
0100
0001
0010
0100
,  // measure 26
1000
0001
0010
0100
,  // measure 27
1000
0001
0100
0010
,  // measure 28
0100
0001
1000
0010
,  // measure 29
1000
0001
0010
0100
,  // measure 30
0010
0000
0001
0000
0022
0000
0000
0033
,  // measure 31
1001
1000
0010
1000
,  // measure 32
0001
0100
0001
0010
,  // measure 33
0100
0010
0001
1000
,  // measure 34
0010
1000
0001
0010
,  // measure 35
0100
0010
0001
1000
,  // measure 36
0010
1000
0001
0010
,  // measure 37
0100
1000
0010
1000
,  // measure 38
0100
1000
0001
0100
,  // measure 39
0001
0000
0010
0100
1000
0000
0010
0000
,  // measure 40
1000
0000
0001
1000
0010
0000
1000
0000
,  // measure 41
0001
0000
0010
0100
0010
0000
0001
0000
,  // measure 42
1000
0000
0010
1000
0001
0000
0010
0100
,  // measure 43
1000
0000
0100
0010
0001
0000
1000
0000
,  // measure 44
0001
0000
0100
0001
1000
0000
0010
0000
,  // measure 45
0100
0000
0001
0010
0100
0000
1000
0000
,  // measure 46
0001
0000
1000
0100
0010
0000
0100
0010
,  // measure 47
0001
0000
1000
0001
0100
0000
0010
0100
,  // measure 48
0001
0000
0010
0100
0010
0000
0001
1000
,  // measure 49
0001
0000
0100
0010
1000
0000
0100
0010
,  // measure 50
0001
0000
1000
0010
0100
0000
0001
1000
,  // measure 51
0100
0000
0010
0100
1000
0000
0001
0100
,  // measure 52
0010
0000
0100
0010
1000
0000
0001
0010
,  // measure 53
0100
0000
0010
0001
1000
0000
0100
0010
,  // measure 54
0001
0000
1000
0001
0100
0000
0001
0010
,  // measure 55
0100
1000
0100
1000
,  // measure 56
0001
0100
0001
0100
,  // measure 57
0010
1000
0010
1000
,  // measure 58
0100
0010
0100
0010
,  // measure 59
0001
0100
0010
1000
,  // measure 60
0100
0010
0001
1000
,  // measure 61
0001
0100
0001
1000
,  // measure 62
2002
0000
0000
3003
,  // measure 63
1001
0000
0000
0000
;

//---------------dance-single - ----------------
#NOTES:
     dance-single:
     X-Scale 2:
     Beginner:
     1:
     0.121484,0.142234,0.022577,0.000000,0.000000,113.000000,110.000000,3.000000,0.000000,0.000000,0.000000,0.121484,0.142234,0.022577,0.000000,0.000000,113.000000,110.000000,3.000000,0.000000,0.000000,0.000000:
// measure 0
0000
0000
0000
0000
,  // measure 1
0000
0000
0000
0000
,  // measure 2
0000
0000
0000
0000
,  // measure 3
0000
0000
0000
0000
,  // measure 4
0000
0001
0000
0010
,  // measure 5
0000
0001
0000
0010
,  // measure 6
0000
0100
0000
1000
,  // measure 7
0000
0100
0000
1000
,  // measure 8
0000
0100
0000
0010
,  // measure 9
0000
0001
0000
0100
,  // measure 10
0000
0010
0000
0100
,  // measure 11
0000
0001
0000
1000
,  // measure 12
0000
0010
0000
1000
,  // measure 13
0000
0001
0000
0010
,  // measure 14
0000
0100
0000
1000
,  // measure 15
0000
0000
1001
0000
,  // measure 16
0000
0000
1000
0000
,  // measure 17
0000
0000
0100
0000
,  // measure 18
0000
0000
0010
0000
,  // measure 19
0000
0000
0001
0000
,  // measure 20
0100
0000
0010
0000
,  // measure 21
1000
0000
0001
0000
,  // measure 22
1000
0000
0100
0000
,  // measure 23
0010
0000
0001
0000
,  // measure 24
0010
0000
0100
0000
,  // measure 25
1000
0000
0001
0000
,  // measure 26
1000
0000
0100
0000
,  // measure 27
0010
0000
0001
0000
,  // measure 28
0100
0000
0010
0000
,  // measure 29
0100
0000
0001
0000
,  // measure 30
1000
0000
0001
0000
,  // measure 31
1001
0000
1000
0000
,  // measure 32
0010
0000
1000
0000
,  // measure 33
0001
0000
0010
0000
,  // measure 34
0100
0000
1000
0000
,  // measure 35
0001
0000
1000
0000
,  // measure 36
0010
0000
0100
0000
,  // measure 37
0001
0000
0010
0000
,  // measure 38
0001
0000
1000
0000
,  // measure 39
0100
0000
0010
0000
,  // measure 40
0100
0000
1000
0000
,  // measure 41
0001
0000
0100
0000
,  // measure 42
0001
0000
1000
0000
,  // measure 43
0010
0000
0100
0000
,  // measure 44
0001
0000
1000
0000
,  // measure 45
0001
0000
0010
0000
,  // measure 46
0100
0000
1000
0000
,  // measure 47
0001
0000
0100
0000
,  // measure 48
0010
0000
0100
0000
,  // measure 49
0001
0000
0010
0000
,  // measure 50
0100
0000
1000
0000
,  // measure 51
0100
0000
0010
0000
,  // measure 52
0001
0000
1000
0000
,  // measure 53
0001
0000
0100
0000
,  // measure 54
0001
0000
0010
0000
,  // measure 55
0100
0000
1000
0000
,  // measure 56
0010
0000
1000
0000
,  // measure 57
0100
0000
0010
0000
,  // measure 58
0100
0000
0010
0000
,  // measure 59
0001
0000
0000
0000
,  // measure 60
0010
0000
0000
0000
,  // measure 61
0100
0000
0000
0000
,  // measure 62
1000
0000
0000
0000
,  // measure 63
1001
0000
0000
0000
;
