#TITLE:オトナブルー;
#SUBTITLE:;
#ARTIST:新しい学校のリーダーズ;
#TITLETRANSLIT:OTONABLUE;
#SUBTITLETRANSLIT:;
#ARTISTTRANSLIT:ATARASHII GAKKOU no LEADERS;
#GENRE:J-Pop;
#CREDIT:;
#BANNER:OTONABLUE-bn.png;
#BACKGROUND:OTONABLUE-bg.png;
#LYRICSPATH:;
#CDTITLE:cdtitle.png;
#MUSIC:OTONABLUE.ogg;
#OFFSET:-0.003000;
#SAMPLESTART:27.695000;
#SAMPLELENGTH:18.462000;
#SELECTABLE:YES;
#BPMS:0.000000=130.000000
;
#STOPS:
;
#BGCHANGES:3.000=OTONABLUE.avi=1.000=0=0=1=====,
99999=-nosongbg-=1.000=0=0=0 // don't automatically add -songbackground-
;
#KEYSOUNDS:;
#ATTACKS:;

//---------------dance-single - ----------------
#NOTES:
     dance-single:
     X-Scale 2:
     Beginner:
     2:
     0.130371,0.134765,0.000000,0.000000,0.000000,102.000000,102.000000,0.000000,0.000000,0.000000,0.000000,0.130371,0.134765,0.000000,0.000000,0.000000,102.000000,102.000000,0.000000,0.000000,0.000000,0.000000:
// measure 0
0000
0000
0000
0000
,  // measure 1
1000
0000
0100
0000
,  // measure 2
1000
0000
0001
0000
,  // measure 3
1000
0000
0100
0000
,  // measure 4
1000
0000
0001
0000
,  // measure 5
0100
0000
0000
0000
,  // measure 6
0010
0000
0000
0000
,  // measure 7
1000
0000
0000
0000
,  // measure 8
0001
0000
0000
0000
,  // measure 9
0010
0000
0001
0000
,  // measure 10
1000
0000
0001
0000
,  // measure 11
0100
0000
0001
0000
,  // measure 12
1000
0000
0000
0000
,  // measure 13
0010
0000
1000
0000
,  // measure 14
0001
0000
1000
0000
,  // measure 15
0100
0000
0010
0000
,  // measure 16
0100
0000
1000
0000
,  // measure 17
0001
0000
0100
0000
,  // measure 18
0001
0000
0010
0000
,  // measure 19
0100
0000
0010
0000
,  // measure 20
0001
0000
1000
0000
,  // measure 21
0001
0000
0100
0000
,  // measure 22
0001
0000
0010
0000
,  // measure 23
0100
0000
1000
0000
,  // measure 24
0001
0000
0000
0000
,  // measure 25
1000
0000
0100
0000
,  // measure 26
1000
0000
0001
0000
,  // measure 27
1000
0000
0100
0000
,  // measure 28
1000
0000
0001
0000
,  // measure 29
0100
0000
0001
0000
,  // measure 30
1000
0000
0001
0000
,  // measure 31
0100
0000
0001
0000
,  // measure 32
1000
0000
0000
0000
,  // measure 33
0001
0000
0000
0000
,  // measure 34
0010
0000
0000
0000
,  // measure 35
0100
0000
0000
0000
,  // measure 36
1000
0000
0000
0000
,  // measure 37
0001
0000
1000
0000
,  // measure 38
0010
0000
1000
0000
,  // measure 39
0001
0000
1000
0000
,  // measure 40
0100
0000
0010
0000
,  // measure 41
0100
0000
1000
0000
,  // measure 42
0001
0000
0100
0000
,  // measure 43
0001
0000
1000
0000
,  // measure 44
0010
0000
1000
0000
,  // measure 45
0100
0000
0010
0000
,  // measure 46
0100
0000
1000
0000
,  // measure 47
0001
0000
0100
0000
,  // measure 48
0010
0000
0100
0000
,  // measure 49
0001
0000
0010
0000
,  // measure 50
0100
0000
0010
0000
,  // measure 51
0001
0000
0000
0000
,  // measure 52
1000
0000
0000
0000
,  // measure 53
0010
0000
1000
0000
,  // measure 54
0001
0000
0000
0000
,  // measure 55
0000
0000
0000
0000
,  // measure 56
0000
0000
1000
0000
,  // measure 57
0100
0000
0010
0000
,  // measure 58
0001
0000
0100
0000
,  // measure 59
0010
0000
0000
1000
,  // measure 60
0000
0001
0000
0000
;

//---------------dance-single - ----------------
#NOTES:
     dance-single:
     X-Scale 7:
     Easy:
     5:
     0.351490,0.377341,0.161046,0.161046,0.000000,275.000000,257.000000,18.000000,18.000000,0.000000,0.000000,0.351490,0.377341,0.161046,0.161046,0.000000,275.000000,257.000000,18.000000,18.000000,0.000000,0.000000:
// measure 0
0000
0000
0000
0000
,  // measure 1
1000
0001
0100
0010
,  // measure 2
1000
0001
0010
0100
,  // measure 3
1000
0010
0100
0001
,  // measure 4
0000
0000
2000
3000
0001
0001
1000
1000
,  // measure 5
1001
0000
0000
0000
,  // measure 6
0110
0000
0000
0000
,  // measure 7
1100
0000
0000
0000
,  // measure 8
0102
0023
0230
2300
,  // measure 9
3010
0000
1000
0100
0010
0000
0001
0000
,  // measure 10
1000
0001
0100
0000
0000
0001
0010
0100
,  // measure 11
1000
0001
1000
0001
,  // measure 12
1000
0100
0010
0000
0001
0000
0110
0000
,  // measure 13
1001
0000
0001
1000
0010
0000
0100
0000
,  // measure 14
0002
0100
2003
0010
,  // measure 15
3001
0000
1000
0000
0100
0010
0001
0000
,  // measure 16
1000
0000
0001
0000
0100
0001
1000
0000
,  // measure 17
0010
0000
0100
0000
0001
0010
0100
0000
,  // measure 18
1000
0000
0010
0000
1000
0001
0100
0000
,  // measure 19
0001
0000
1000
0000
0010
1000
0001
0000
,  // measure 20
0100
0000
0001
0000
1000
0100
0010
0000
,  // measure 21
0002
0100
0103
0000
0001
0000
1000
0000
,  // measure 22
0020
0100
0130
0000
0010
0000
1000
0000
,  // measure 23
0100
0000
0010
0000
0001
0010
0100
2000
,  // measure 24
0000
0000
0000
0000
3010
1000
0001
0020
,  // measure 25
0100
0000
0031
0000
0010
0010
0100
0000
,  // measure 26
1000
0001
0100
0001
,  // measure 27
1000
0001
0100
0000
0002
0000
0013
0100
,  // measure 28
1000
0000
0001
0100
0001
0000
1000
0000
,  // measure 29
0010
0000
1000
0100
0010
0000
0100
0000
,  // measure 30
1000
0000
0001
0100
0010
0000
1000
0000
,  // measure 31
0001
0000
0010
0100
1000
0000
0001
0000
,  // measure 32
1000
0000
0000
2200
0000
0000
0000
3300
,  // measure 33
1001
0000
0000
0011
,  // measure 34
1001
0000
0000
1010
,  // measure 35
1001
0000
0110
0000
,  // measure 36
1001
1100
0101
0000
,  // measure 37
0001
0000
0010
0000
0100
0010
0001
0000
,  // measure 38
1000
0000
0001
0000
0100
0001
1000
0000
,  // measure 39
0002
0010
0013
0000
0100
0000
1000
0000
,  // measure 40
0020
1000
1030
0000
0001
0000
1000
0000
,  // measure 41
0001
0100
0010
1000
0100
0010
0001
0000
,  // measure 42
1001
0000
1000
0000
0010
1000
0001
0000
,  // measure 43
0100
0000
0010
0000
1000
0010
1000
0000
,  // measure 44
0001
0000
0100
0000
0001
0010
0100
0000
,  // measure 45
1000
0000
0100
0000
0010
0100
1000
0000
,  // measure 46
0001
0000
0100
0000
0010
0100
0001
0000
,  // measure 47
1000
0000
0010
0000
0100
0010
0100
0000
,  // measure 48
0002
0010
0013
0000
0100
0000
1000
0000
,  // measure 49
0200
0010
0310
0000
0100
0000
1000
0000
,  // measure 50
0001
1000
0010
1000
0001
1000
0100
0010
,  // measure 51
0001
0000
0010
0000
,  // measure 52
0100
0000
1000
0000
,  // measure 53
0001
0100
0010
1000
0010
0100
0001
1000
,  // measure 54
0001
0000
0000
0000
,  // measure 55
0000
0000
0000
0000
,  // measure 56
0000
0000
0000
0000
0011
0000
0001
1000
,  // measure 57
0001
0000
0100
0000
0010
0000
1000
0010
,  // measure 58
1000
0000
0100
0000
0010
0000
0001
0010
,  // measure 59
0001
1000
0001
0100
,  // measure 60
0001
1000
0001
0000
0000
0000
0000
0000
;

//---------------dance-single - ----------------
#NOTES:
     dance-single:
     X-Scale 11:
     Medium:
     8:
     0.564941,0.567185,0.447351,0.456298,0.353407,442.000000,392.000000,50.000000,51.000000,0.000000,0.000000,0.564941,0.567185,0.447351,0.456298,0.353407,442.000000,392.000000,50.000000,51.000000,0.000000,0.000000:
// measure 0
0000
0000
0000
0000
,  // measure 1
1000
0000
0001
0000
0100
0000
0000
0010
0000
0000
0010
0000
1000
0000
0001
0000
,  // measure 2
0000
0000
0001
0000
0100
0001
0000
0010
0000
0000
0010
0000
0100
0000
1000
0000
,  // measure 3
0001
0000
0100
0000
0001
0000
0000
0100
0000
0000
0100
0000
0010
0000
1000
0001
,  // measure 4
0000
0000
0000
0000
0020
0000
0030
0000
0100
0000
0100
0000
1000
0001
0100
0000
,  // measure 5
0101
0000
0000
0100
0000
0001
0000
0100
0000
0000
0000
0000
0000
0000
0000
0000
,  // measure 6
0011
0000
0001
0000
0000
1000
0000
0000
0010
0000
0000
0000
0000
0000
0000
0000
,  // measure 7
1001
0000
1000
0000
0100
0010
0000
0001
0000
0000
0000
0000
0000
0000
0000
0000
,  // measure 8
1001
0110
1100
0101
,  // measure 9
0011
0000
0010
0100
1000
0000
0010
0100
,  // measure 10
0001
0000
1000
0000
0001
0010
0000
0001
0000
0000
1000
0000
0100
0000
1000
0000
,  // measure 11
1100
0101
0011
1010
,  // measure 12
1001
0000
1000
0000
0100
0010
0000
0000
0001
0000
0000
0000
0022
0000
0033
0000
,  // measure 13
0001
0100
1000
0100
0001
1000
0000
0010
,  // measure 14
0000
0000
0010
0000
0010
1000
0000
0000
0001
0000
0001
0000
1000
0001
0100
0000
,  // measure 15
0101
1000
0001
0000
0010
0100
2000
0000
,  // measure 16
3010
1000
0001
0000
0100
0001
0020
0000
,  // measure 17
0130
0000
0100
2000
0000
0000
3100
0000
0010
0000
0001
0000
1000
0000
0001
0000
,  // measure 18
0200
0000
0000
0000
0302
0000
0000
0000
0023
0000
0100
0000
0130
0010
0001
0000
,  // measure 19
1000
0001
0100
0000
1000
0100
0001
1000
,  // measure 20
0002
0000
0100
0000
2003
0000
0000
0000
3100
0010
0000
0100
0000
0000
1000
0000
,  // measure 21
2200
0000
3300
0000
0100
0000
0010
0000
0001
0000
0000
0100
0000
0000
0001
0000
,  // measure 22
0202
0000
0303
0000
0001
0000
1000
0000
0001
0000
0000
0010
0000
0000
0100
0000
,  // measure 23
1000
0000
0100
0000
0001
0000
1000
0000
0010
0000
0100
0000
1000
0001
0100
0000
,  // measure 24
0202
0000
0000
0303
1001
1000
0010
0200
,  // measure 25
1000
0000
0301
0100
0001
0001
0011
0000
,  // measure 26
1000
0000
0100
0010
0001
0000
1000
0000
0001
0000
0011
0000
0000
0110
0000
0000
,  // measure 27
1001
0000
0010
0000
1000
0000
0000
0001
0100
0000
0001
0000
1000
0000
0000
0000
,  // measure 28
0100
0000
0100
0000
0010
0000
0000
0001
0010
0000
0011
0000
0000
1010
0000
0000
,  // measure 29
1001
0000
0000
0000
0001
0010
0200
0000
0300
0000
0010
0100
2000
0000
3001
0000
,  // measure 30
0100
0010
0000
0010
0001
0000
0010
0000
1000
0000
1010
0000
0000
0110
0000
0000
,  // measure 31
0011
0000
0000
0000
1000
0001
0200
0000
0300
0000
0110
0000
0000
1001
0000
0000
,  // measure 32
1100
0000
0000
1000
0001
0000
0101
0000
0000
0000
0000
0000
0001
1000
0000
0000
,  // measure 33
2002
3003
0010
0011
,  // measure 34
2002
0000
3003
0001
0000
0100
0000
0110
0000
0000
0000
0000
1010
0000
0000
0000
,  // measure 35
2002
0000
3003
1000
0000
0000
0010
0000
0110
0000
0000
0000
0010
0100
0010
0000
,  // measure 36
2002
0000
3003
0000
2200
0000
3300
0000
0202
0000
0303
0000
0001
0000
1000
0001
,  // measure 37
1000
0000
0000
0100
0000
0010
0000
0001
0100
0000
0100
0000
0010
0000
1000
0000
,  // measure 38
2000
0000
0010
0000
3002
0000
0000
0000
1003
0001
0000
0100
0000
0001
0000
0000
,  // measure 39
0202
0000
0303
0000
1000
0000
0001
0000
0010
0100
0000
1000
0000
0000
0100
0000
,  // measure 40
2200
0000
3300
0000
1000
0000
0100
0000
0001
0100
0000
1000
0001
0100
0001
0000
,  // measure 41
0100
0000
0010
0000
0001
0000
1000
0000
0100
0000
0010
0000
1000
0010
1000
0000
,  // measure 42
1010
0000
0010
0000
1000
0000
0000
0000
0001
0000
0100
0000
0001
1000
0000
0000
,  // measure 43
0100
0000
0010
0000
0001
0000
0000
0000
1000
0000
0001
0000
0100
0001
0000
0000
,  // measure 44
0010
0000
0010
0200
0000
0000
0301
0000
0100
0000
1000
0000
0001
0000
1000
0000
,  // measure 45
0020
0000
0100
0000
2030
0000
0000
0000
3002
0000
0000
0000
0103
0000
0001
1000
,  // measure 46
0010
0000
1000
0000
0100
1000
0000
0000
0001
0000
0010
0000
0100
0010
0000
0000
,  // measure 47
0001
0000
1000
0000
0010
1000
0000
0000
0100
0000
1000
0000
1000
0001
0100
0000
,  // measure 48
0202
0000
0303
0000
0001
0000
1000
0000
0100
0010
0000
0001
0000
0000
0010
0000
,  // measure 49
0022
0000
0033
0000
0001
0000
0010
0000
0100
1000
0000
0001
0000
0000
1000
0001
,  // measure 50
1000
0000
0100
0000
0001
0000
1000
0000
0010
0000
0001
0000
1000
0001
0100
0000
,  // measure 51
0101
0000
0000
0000
0001
0010
1000
0010
,  // measure 52
0001
0000
0000
0000
1000
0010
0001
0010
,  // measure 53
1000
0000
0100
0000
0010
0000
0001
0000
0100
0000
0010
0000
1000
0001
0100
0001
,  // measure 54
1000
0000
0000
0000
0000
0200
0000
0000
,  // measure 55
0000
0000
0000
0000
0000
0000
0000
0000
0310
0100
2000
0000
0000
0000
0000
0000
,  // measure 56
0000
0000
0000
3000
1001
0001
0100
0001
,  // measure 57
0010
0000
0000
0100
0000
0000
1000
0000
0000
0000
1000
0000
0001
1000
0000
0000
,  // measure 58
0100
0010
0100
0010
0000
0000
0001
0000
1000
0000
0001
0000
0010
0000
0100
0000
,  // measure 59
1000
0000
0000
0001
0000
0000
0100
0001
2000
0000
0000
0000
3100
0000
0001
0000
,  // measure 60
0100
0010
0002
0003
0000
0000
0000
0000
;

//---------------dance-single - ----------------
#NOTES:
     dance-single:
     X-Scale 15:
     Hard:
     10:
     0.646742,0.702230,0.411563,0.384722,0.590504,506.000000,460.000000,46.000000,43.000000,0.000000,0.000000,0.646742,0.702230,0.411563,0.384722,0.590504,506.000000,460.000000,46.000000,43.000000,0.000000,0.000000:
// measure 0
0000
0000
0000
0000
,  // measure 1
1000
0000
0100
0000
0001
0000
0100
0000
1000
0000
0000
0001
0000
0000
0100
0000
,  // measure 2
0000
0000
0100
0000
0010
0100
0000
0100
0001
1000
0001
0010
0000
0000
0100
0000
,  // measure 3
1000
0000
0001
0000
0100
0000
0010
0000
1000
0000
0000
0100
0000
0000
1000
0001
,  // measure 4
0000
0000
0000
0000
0200
0300
0000
0000
0001
0100
0001
0100
0001
0010
0100
0000
,  // measure 5
2200
3300
0000
0000
0000
0000
0000
0000
0000
0000
0000
0000
0000
0000
0001
1000
,  // measure 6
2002
3003
0000
0000
0000
0000
0000
0000
1000
0100
0010
0001
0100
0010
1000
0001
,  // measure 7
2002
3003
1000
0000
0000
1000
0000
0000
0001
0000
0000
0001
0200
0300
0200
0300
,  // measure 8
1001
0000
1000
0100
0010
0001
0000
0000
0011
0000
0000
0001
1000
0010
1000
0001
,  // measure 9
1000
0000
0100
0000
1100
0000
0000
0001
0100
0000
0100
0000
0101
0000
0000
0000
,  // measure 10
0001
0000
0100
0000
0010
1000
0000
0100
0000
0100
0001
0000
0100
0000
1000
0000
,  // measure 11
0001
0100
0000
0000
1000
0100
0000
0000
0001
0100
0000
0000
0101
0000
0000
0000
,  // measure 12
1000
0000
0001
0000
0100
0020
0000
0000
2030
0000
3000
0000
0220
0000
0330
0000
,  // measure 13
1001
0000
1000
0000
0100
0000
1000
0000
0001
0000
0000
0010
0000
0000
0001
0000
,  // measure 14
0200
0000
0000
0000
1000
0000
0000
0000
0301
0000
0001
0000
0001
0010
0100
0000
,  // measure 15
1100
0000
1000
0001
0000
0100
0000
0002
0000
0000
0100
0000
0203
0000
0000
0000
,  // measure 16
0310
0000
1000
0100
0000
1000
0000
0020
0000
0000
0100
0000
0230
0000
0000
0000
,  // measure 17
0301
0000
0010
0200
0000
0000
0301
0000
0100
0000
1000
0000
0001
0000
1000
0000
,  // measure 18
0100
0000
0010
0000
0100
0010
0000
0000
0100
0000
0100
0000
0100
1000
0000
0001
,  // measure 19
0100
0000
0001
1000
0000
0100
0000
0020
0000
0000
1000
0000
1030
0000
0010
0000
,  // measure 20
0001
0000
1000
0000
1001
0000
0000
0000
1000
0000
1000
0010
0100
0001
0010
0100
,  // measure 21
2000
0000
3000
0000
1001
0000
0001
0000
0100
0001
0000
1000
0000
0000
0001
0100
,  // measure 22
0002
0000
0003
0000
0110
0000
1000
0000
0001
0000
0100
0000
0100
0010
1000
0000
,  // measure 23
0001
0000
0001
0000
0010
0000
0010
0000
0100
0000
0100
0000
1000
0100
1000
0000
,  // measure 24
2100
0000
0000
3000
1001
0100
0001
0020
,  // measure 25
0200
0000
0000
0000
0330
0000
0010
0000
0001
0000
0001
0000
1001
0000
1000
0100
,  // measure 26
1000
0000
0001
0010
0100
0010
0100
1000
0010
1000
1010
0000
0000
0110
0000
0000
,  // measure 27
0011
0000
0000
0000
0001
0000
0000
0000
0001
0000
0000
0000
0200
0000
0000
0000
0000
0000
0300
0000
0000
0000
0000
0000
0010
0000
0000
0100
0000
0000
0001
0000
0000
0000
0000
0000
1000
0000
0000
0100
0000
0000
0010
0000
0000
0000
0000
0000
,  // measure 28
0001
0000
0001
0000
0101
0000
0001
0000
1000
0000
1100
0000
0000
0101
0000
0000
,  // measure 29
1001
0000
0000
1000
0001
0100
0001
1000
0000
0010
0100
0001
1000
0000
1000
0000
,  // measure 30
0001
0100
0000
0100
1000
0000
0100
0000
0001
0000
0101
0000
0000
0110
0000
0000
,  // measure 31
1001
0000
1000
0100
0010
0001
0100
0010
1000
0000
0001
0000
0000
0010
0000
0000
,  // measure 32
0100
0000
0000
0100
1000
0000
2200
0000
0000
0000
3300
0000
0100
0010
0000
0000
,  // measure 33
1001
0000
0000
0010
0000
1000
0000
0001
0000
0000
0000
0000
0011
0000
0000
0000
,  // measure 34
1001
0000
0000
1000
0000
0100
0000
1100
0000
0000
0000
0000
0110
0000
0000
0000
,  // measure 35
0101
0000
0000
0001
0000
0000
0100
0000
0110
0000
0000
0000
0001
1000
0001
0000
,  // measure 36
1001
0000
0000
0000
0110
0000
0000
0000
1010
0000
0010
1000
0000
1000
0010
0100
,  // measure 37
0001
0000
0010
0100
0000
0010
0000
0002
0000
0000
0010
0000
0013
0000
0001
0000
,  // measure 38
1000
0000
0010
0000
0100
0001
0000
0000
1000
0000
0001
0010
0100
1000
0010
0100
,  // measure 39
0002
0000
0003
0000
0101
0000
0001
0000
0010
0100
0000
1000
0000
0000
0001
1000
,  // measure 40
0002
0000
0003
0000
0110
0000
1000
0000
0001
0000
0100
0000
0100
0010
0100
0000
,  // measure 41
0001
0000
0001
0000
1000
0000
1000
0100
0010
0000
0010
0000
0001
0010
0100
0000
,  // measure 42
2001
0010
0001
0000
0100
0001
0100
0000
,  // measure 43
3010
0000
1000
0000
0001
0000
0001
0000
0100
0001
1000
0000
0001
0100
0000
0000
,  // measure 44
1001
0000
0100
0000
0001
0100
0000
0000
0001
0000
1000
0000
0100
0010
0001
0000
,  // measure 45
1000
0000
0001
0000
0100
0001
0000
0000
0010
0000
0001
0100
0010
1000
0100
0010
,  // measure 46
0001
0000
0100
0001
0000
1000
0000
0002
0000
0000
0100
0000
0103
0000
0001
0000
,  // measure 47
1000
0000
0001
0000
0010
0100
0000
0000
1000
0000
0100
0010
0001
0010
0100
0010
,  // measure 48
0002
0000
0003
0000
1001
0000
1000
0000
0010
1000
0000
0001
0000
0000
0010
0100
,  // measure 49
2000
0000
3000
0000
1100
0000
0100
0000
1000
0000
0001
0000
0001
0100
0010
0000
,  // measure 50
1000
0000
1000
0000
0001
0000
0001
0000
0100
0000
0100
0000
0010
1000
0020
0000
,  // measure 51
0100
0000
0000
0000
0031
0010
0100
0010
,  // measure 52
2000
0000
0000
0000
3100
0010
0001
1000
,  // measure 53
0001
0000
0001
0000
0010
0000
0010
0000
0100
0000
0100
0010
0001
1000
0001
0000
,  // measure 54
0101
0000
0000
0000
0000
0002
0000
0000
,  // measure 55
0000
0000
0000
0000
0000
0000
0000
0000
0013
0100
2000
0000
0000
0000
0000
0000
,  // measure 56
0000
0000
0000
0000
0000
0000
3000
0000
1001
0000
0100
0000
0001
0000
1000
0100
,  // measure 57
0000
0000
0100
0000
0010
0000
0001
0000
1000
0000
0001
0000
0100
0001
0000
0000
,  // measure 58
0010
0100
1000
0001
0000
0000
0100
0000
0001
0000
1000
0000
0010
0000
0000
0100
,  // measure 59
0000
0000
0010
0000
1000
0001
0100
0001
2000
0000
0000
0000
3001
0000
0100
0000
,  // measure 60
0020
0030
0020
0030
0020
0000
0030
0000
0000
0000
0000
0000
0000
0000
0000
0000
;
