#TITLE:OOO;
#SUBTITLE:;
#ARTIST:Ryu☆ feat. moimoi;
#TITLETRANSLIT:;
#SUBTITLETRANSLIT:;
#ARTISTTRANSLIT:;
#GENRE:Bubblegum Dance;
#CREDIT:;
#BANNER:OOO-bn.png;
#BACKGROUND:OOO-bg.png;
#LYRICSPATH:;
#CDTITLE:cdtitle.png;
#MUSIC:OOO.ogg;
#OFFSET:-0.654000;
#SAMPLESTART:41.797001;
#SAMPLELENGTH:13.666667;
#SELECTABLE:YES;
#BPMS:0.000000=70.000000
,16.000000=140.000000
,76.000000=70.000000
,78.000000=140.000000
,110.000000=70.000000
,126.000000=140.000000
,154.000000=70.000000
,156.000000=140.000000
,220.000000=70.000000
;
#STOPS:
;
#BGCHANGES:-0.704=OOO.avi=1.000=1=0=0=StretchNoLoop==CrossFade==,
99999=-nosongbg-=1.000=0=0=0 // don't automatically add -songbackground-
;
#KEYSOUNDS:;
#ATTACKS:;

//---------------dance-single - ----------------
#NOTES:
     dance-single:
     X-Scale 13:
     Hard:
     9:
     0.559607,0.897776,0.122414,0.113670,0.389102,448.000000,434.000000,14.000000,13.000000,0.000000,0.000000,0.559607,0.897776,0.122414,0.113670,0.389102,448.000000,434.000000,14.000000,13.000000,0.000000,0.000000:
// measure 0
0000
0000
0000
0000
,  // measure 1
0000
0000
0000
0000
,  // measure 2
1000
0000
0001
0000
1000
0000
1000
0100
0000
1000
0010
0001
0010
1000
0010
0010
,  // measure 3
0100
0000
0010
0000
0100
0000
0100
0002
0000
0013
0100
0020
0000
0000
0031
0000
,  // measure 4
0011
0000
0010
0000
0100
0000
1000
0001
,  // measure 5
0000
0001
0010
1000
0010
0001
0100
0100
,  // measure 6
0010
0000
1000
0000
0001
0000
0010
0100
,  // measure 7
0000
0100
1000
0001
1000
0100
0010
0010
,  // measure 8
0101
0000
1000
0000
0001
0000
0100
0010
,  // measure 9
0000
0010
1000
0100
0001
0100
1000
1000
,  // measure 10
0001
0000
0100
0000
0010
0000
1000
0001
,  // measure 11
0000
0000
0001
0100
0000
0000
0100
0000
0010
0000
1000
0000
0100
0000
1000
0000
,  // measure 12
1100
1000
0001
1000
0100
0010
0001
0000
,  // measure 13
1000
0001
0100
0001
1000
0001
0010
0010
,  // measure 14
1000
0100
0001
0100
1000
0010
0100
0010
,  // measure 15
2000
0000
3020
0000
2030
0000
3020
0100
,  // measure 16
0130
0010
1000
0001
0010
0100
1000
0000
,  // measure 17
1000
0001
0010
0001
1000
0001
0010
0010
,  // measure 18
1000
0000
0001
0000
0010
0001
0010
0000
0001
0100
0000
0000
0001
1000
0001
1000
,  // measure 19
0001
0000
0000
0010
0001
0000
0100
0000
0010
0000
1000
0000
1000
0000
1000
0000
0110
0000
0000
0000
0000
0000
0000
0000
0010
0000
0000
0000
0100
0000
0000
0000
,  // measure 20
0001
1000
0001
0000
1000
0100
1000
0001
,  // measure 21
0100
0000
0010
0000
1000
0000
1000
0000
0100
0000
0000
1000
0010
0000
1000
0000
,  // measure 22
0100
0010
0001
1000
0000
0001
1000
0100
,  // measure 23
1000
0001
0100
0100
1001
0000
0100
0001
,  // measure 24
1000
0001
0010
1000
0000
1000
0010
0001
,  // measure 25
0100
0010
1000
1000
0001
0000
0010
0100
,  // measure 26
1000
0001
1000
0200
0000
0310
0100
2000
,  // measure 27
0000
0000
3000
0000
1001
0000
0000
0000
0001
1000
0010
0100
0001
1000
0100
0010
,  // measure 28
0001
1000
0010
0100
0001
1000
0100
0010
0001
1000
0010
0100
0001
1000
0100
0010
,  // measure 29
0001
0000
1000
0000
0010
0000
0100
0000
0001
0000
1000
0000
0100
0000
0010
0000
0001
0000
0100
0000
0010
0000
1000
0010
1000
0000
0100
0000
0010
0000
0001
0010
,  // measure 30
0001
0000
0100
0000
0010
0000
0100
0010
0100
0000
1000
0000
0100
0000
0001
0100
0002
0000
0100
0000
0000
0000
0010
0000
0023
0000
1000
0000
0000
0000
0100
0000
,  // measure 31
0230
0000
0000
0000
0000
1000
1300
1000
1100
0000
0000
0000
0001
0000
0000
0000
,  // measure 32
0001
0000
0000
1000
0001
0000
1000
0000
0010
0000
1000
0000
0100
0000
0010
0000
,  // measure 33
0001
0000
0000
0001
0100
0000
0100
0010
0100
0000
0000
0000
0100
0000
0000
0000
,  // measure 34
0100
0000
0000
0001
0100
0000
0001
0000
1000
0000
0100
0000
1000
0000
0001
0000
,  // measure 35
0010
0000
0100
0010
0000
0001
1000
0001
1000
0000
0010
0000
1000
0000
0010
0000
,  // measure 36
0100
0000
0001
0000
0100
0000
0001
0100
0010
0000
0100
0000
0010
0000
0100
0000
,  // measure 37
0001
0000
1000
0100
0000
1000
0001
1000
0001
0000
0000
0010
0000
0000
0100
0000
,  // measure 38
0000
1000
0000
0000
0001
0000
0100
0000
0000
0010
1000
0010
0000
1000
1001
0001
,  // measure 39
0101
0000
0000
1000
0001
0000
1000
0000
0001
0000
0010
0000
0001
0000
0100
0000
,  // measure 40
0000
0000
0010
0100
0010
0000
1000
0000
0001
0000
0010
0000
0100
0000
0100
0000
,  // measure 41
1000
0000
0000
0001
1000
0000
0001
0000
0100
0000
0010
0000
1000
0000
0100
0000
,  // measure 42
0000
0000
1000
0001
1000
0000
0100
0000
0001
0000
0100
0000
1000
0000
1000
0000
,  // measure 43
1010
0000
0000
0010
1000
0000
0010
0000
1000
0000
0100
0000
1000
0000
0001
0000
,  // measure 44
0000
1000
0010
0001
1000
0100
0001
0001
,  // measure 45
1000
0000
0000
0000
1000
0001
1000
0010
0000
0010
0001
0000
1000
0000
0100
0000
,  // measure 46
0010
0000
0000
0100
0010
0000
0200
0000
0000
0000
0000
0000
1300
0000
0000
0000
,  // measure 47
1001
0000
0001
0000
1000
0100
1000
0010
,  // measure 48
0000
0010
0100
0001
0010
0000
0001
0010
,  // measure 49
0001
0000
0000
1000
0001
0000
1000
0000
0100
0000
0000
0000
1000
0000
0100
0000
,  // measure 50
0010
0100
1000
0001
0100
0000
0010
0010
,  // measure 51
0101
0000
0100
0000
0001
1000
0001
1000
,  // measure 52
0000
0100
0010
0100
1000
0010
0100
0100
,  // measure 53
0001
0100
0001
0100
0001
0100
0001
0100
0001
1000
0001
1000
0001
1000
0001
1000
,  // measure 54
1001
0000
0000
0000
0000
0000
0110
0000
0000
0000
0000
0000
0001
0000
1000
0000
0001
0000
1000
0000
0000
1000
0000
0000
,  // measure 55
2000
0000
3010
0000
;

//---------------dance-single - ----------------
#NOTES:
     dance-single:
     X-Scale 9:
     Medium:
     6:
     0.402217,0.509548,0.096182,0.183621,0.091811,322.000000,311.000000,11.000000,21.000000,0.000000,0.000000,0.402217,0.509548,0.096182,0.183621,0.091811,322.000000,311.000000,11.000000,21.000000,0.000000,0.000000:
// measure 0
0000
0000
0000
0000
,  // measure 1
0000
0000
0000
0000
,  // measure 2
0001
0000
1000
0000
0001
0000
0010
0000
0100
0000
0010
0001
0010
0000
0001
0100
,  // measure 3
0001
0000
1000
0000
0001
0000
1000
0010
0000
1000
0100
0010
0000
0000
0001
0000
,  // measure 4
0011
0000
0001
0000
0100
0000
0001
1000
,  // measure 5
0000
0100
0000
1000
0001
0100
0010
0010
,  // measure 6
1000
0000
0010
0000
0100
0000
0001
1000
,  // measure 7
0000
0001
0000
1000
0200
0000
0310
0010
,  // measure 8
0101
0000
0001
0000
1000
0000
0100
0010
,  // measure 9
0000
0100
0000
0010
0001
0010
0100
0100
,  // measure 10
1000
0000
0001
0000
0010
0000
0001
1000
,  // measure 11
0000
0010
0000
1000
0002
0000
0013
0010
,  // measure 12
0011
0000
0001
0000
1000
0010
1000
0000
,  // measure 13
0100
0000
0010
0000
0001
0010
0001
0001
,  // measure 14
1000
0000
0010
0000
1000
0000
0001
0010
,  // measure 15
0002
0000
2003
0000
3002
0000
2003
0100
,  // measure 16
3100
0000
1000
0000
0001
0010
0100
0000
,  // measure 17
0010
0000
0001
0000
1000
0100
0010
0010
,  // measure 18
0100
0000
1000
0000
0001
0000
0100
0010
,  // measure 19
1000
0001
0100
0101
0101
0000
0010
0000
,  // measure 20
0001
0000
1000
0000
0010
0000
1000
0001
,  // measure 21
0100
0010
1000
1000
0100
0000
0010
0000
,  // measure 22
0100
0000
1000
0000
0001
0000
1000
0100
,  // measure 23
0001
0100
1000
1000
0010
0000
0100
0000
,  // measure 24
0001
0000
1000
0000
0100
0000
0010
0100
,  // measure 25
0010
0001
0100
0100
0001
0000
1000
0000
,  // measure 26
0100
0000
1000
0100
0000
0100
1000
0002
,  // measure 27
0000
0003
1001
0000
1000
0010
0100
0010
,  // measure 28
0001
0000
0010
0000
0100
0000
0001
0000
1000
0000
0100
0000
1000
0100
0010
0000
,  // measure 29
0100
0000
1000
0000
0001
0000
0010
0100
1001
0001
0000
1000
0000
0010
0000
0001
,  // measure 30
0000
0010
0000
0100
0000
0010
0000
1000
0000
0100
0000
0010
0000
0100
0000
1000
,  // measure 31
0200
0000
0000
0310
0110
0000
0001
0000
,  // measure 32
1000
0000
0001
1000
0000
1000
0100
0010
,  // measure 33
0001
0100
0010
0010
0100
0000
0001
0000
,  // measure 34
1000
0000
0100
1000
0000
0001
0000
1000
,  // measure 35
0020
0000
0130
0010
0100
0000
0001
0000
,  // measure 36
1000
0000
0100
1000
0000
0010
0001
0010
,  // measure 37
0100
0010
1000
1000
0001
0000
0100
0000
,  // measure 38
0010
0000
0000
0000
1000
0000
0200
0000
0300
2000
3002
2003
0000
0000
3001
0000
,  // measure 39
1001
0000
0100
0000
0010
0000
1000
0001
,  // measure 40
0000
0010
0001
0010
1000
0010
0100
0100
,  // measure 41
1000
0000
0001
0000
1000
0000
0001
0100
,  // measure 42
0000
0001
0100
1000
0100
0010
0100
0100
,  // measure 43
0001
0000
0001
0000
0100
0000
0001
0010
,  // measure 44
0000
0001
1000
0010
0100
0001
0010
0010
,  // measure 45
0100
0000
1000
0000
0100
0000
1000
0100
,  // measure 46
0000
0100
0001
0020
0000
0000
0031
0000
,  // measure 47
0011
0000
0001
0000
1000
0100
1000
0010
,  // measure 48
0000
0100
0010
0100
0002
0000
1003
0010
,  // measure 49
2000
0000
0001
0000
0100
0000
3010
1000
,  // measure 50
0000
0001
0000
1000
0200
0000
0301
0100
,  // measure 51
2010
0000
0100
0000
0001
0000
3100
1000
,  // measure 52
0000
0001
0010
0001
0200
0000
0310
0100
,  // measure 53
0002
0000
0010
0000
1000
0000
0103
0001
,  // measure 54
0000
0001
0000
1000
0100
1000
0001
0010
,  // measure 55
0200
0000
0310
0000
;

//---------------dance-single - ----------------
#NOTES:
     dance-single:
     X-Scale 5:
     Easy:
     3:
     0.309782,0.339699,0.052463,0.227340,0.008744,248.000000,242.000000,6.000000,26.000000,0.000000,0.000000,0.309782,0.339699,0.052463,0.227340,0.008744,248.000000,242.000000,6.000000,26.000000,0.000000,0.000000:
// measure 0
0000
0000
0000
0000
,  // measure 1
0000
0000
0000
0000
,  // measure 2
1000
0010
1000
1000
0001
0000
0100
0000
,  // measure 3
0001
1000
0001
0001
0200
0000
0000
0010
,  // measure 4
0310
0000
0100
0000
0001
0000
0001
2000
,  // measure 5
0000
0000
3000
0002
0000
0000
1000
0000
,  // measure 6
0203
0000
0001
0000
0010
0000
0310
0200
,  // measure 7
0000
0000
0001
0000
0302
0000
1003
0001
,  // measure 8
2000
0000
0001
0000
0100
0000
3100
2000
,  // measure 9
0000
0000
3000
0002
0000
0000
0013
0000
,  // measure 10
0002
0000
1000
0000
0100
0000
0103
0001
,  // measure 11
0000
1000
0000
0001
0100
0000
0001
0000
,  // measure 12
0101
0000
0000
0000
1000
0010
1000
0000
,  // measure 13
0001
0000
0000
0000
0001
0010
0001
0000
,  // measure 14
1000
0000
0010
0000
,  // measure 15
0200
0320
0230
0320
,  // measure 16
0130
0000
0000
0000
0001
0010
0001
0000
,  // measure 17
1000
0000
0000
0000
1000
0100
1000
0000
,  // measure 18
0001
0000
0100
0000
,  // measure 19
0002
0203
0302
0003
1001
0000
0010
0000
,  // measure 20
1000
0000
1000
0001
0000
0000
1000
0000
,  // measure 21
0001
0100
0010
1000
,  // measure 22
0001
0000
0001
0100
0000
0000
0010
0000
,  // measure 23
1000
0000
0001
1000
0001
0000
0100
0000
,  // measure 24
0001
1000
0100
1000
,  // measure 25
0001
0000
0100
0001
0100
0000
0001
0000
,  // measure 26
1000
0000
0010
0100
0000
0001
0000
1000
,  // measure 27
0100
1000
1100
1000
,  // measure 28
0001
0100
0001
0010
0100
0000
1000
0000
,  // measure 29
0100
1000
0001
0010
0001
0000
0001
0000
,  // measure 30
1000
0001
1000
0100
0020
0000
0230
0000
,  // measure 31
2300
0000
3000
1000
1100
0000
0100
0000
,  // measure 32
1000
1000
0001
1000
,  // measure 33
0001
0000
1000
0100
1000
0000
0001
0000
,  // measure 34
0010
0010
0001
1000
,  // measure 35
0010
0000
1000
0010
1000
0000
0010
0000
,  // measure 36
0100
0100
0001
1000
,  // measure 37
0100
0000
1000
0001
1000
0000
0001
0000
,  // measure 38
0010
0000
0000
0000
0001
0000
0002
0000
0003
2000
3002
2003
0000
3000
1000
0000
,  // measure 39
1001
0001
1000
0001
,  // measure 40
0100
0000
0001
0000
1000
0000
0100
0010
,  // measure 41
0100
1000
0001
0100
,  // measure 42
0001
0000
0010
0000
0100
0000
1000
0100
,  // measure 43
1000
0001
0100
0001
,  // measure 44
0010
0000
0001
0000
0100
0000
0010
0100
,  // measure 45
0010
0000
1000
0000
0100
0000
1000
0100
,  // measure 46
0000
1000
0100
2000
0000
0000
3100
0000
,  // measure 47
1100
0000
0100
0000
1000
0000
0001
0010
,  // measure 48
0000
0001
1000
0001
1000
0000
1000
0100
,  // measure 49
1000
0000
0001
0000
0100
0000
0100
0010
,  // measure 50
0000
0010
0000
0010
1000
0000
0001
0100
,  // measure 51
0001
0000
0100
0000
0010
0000
1000
0100
,  // measure 52
0000
1000
0001
1000
0001
0000
0001
0100
,  // measure 53
0001
0010
0100
1000
,  // measure 54
0001
0000
0001
0000
0001
0000
1000
0100
,  // measure 55
2000
0000
3000
0000
;

//---------------dance-single - ----------------
#NOTES:
     dance-single:
     X-Scale 2:
     Beginner:
     2:
     0.173628,0.216410,0.052463,0.000000,0.000000,139.000000,133.000000,6.000000,0.000000,0.000000,0.000000,0.173628,0.216410,0.052463,0.000000,0.000000,139.000000,133.000000,6.000000,0.000000,0.000000,0.000000:
// measure 0
0000
0000
0000
0000
,  // measure 1
0000
0000
0000
0000
,  // measure 2
1000
0100
1000
0001
,  // measure 3
0010
0001
0000
0000
,  // measure 4
1001
0000
1000
0000
,  // measure 5
0100
0000
1000
0000
,  // measure 6
0010
0000
0100
0000
,  // measure 7
0001
0000
0100
0000
,  // measure 8
0010
0000
1000
0000
,  // measure 9
0001
0000
0010
0000
,  // measure 10
0100
0000
0010
0000
,  // measure 11
0001
0000
0000
0000
,  // measure 12
1001
0000
1000
0001
,  // measure 13
1000
0000
0010
0100
,  // measure 14
0010
0000
1000
0100
,  // measure 15
1000
0000
0001
0100
,  // measure 16
0001
0000
0010
0100
,  // measure 17
0010
0000
0001
1000
,  // measure 18
0001
0000
1000
0010
,  // measure 19
1000
0000
1001
0001
,  // measure 20
0001
0000
1000
0000
,  // measure 21
0001
0000
0010
0010
,  // measure 22
0010
0000
0100
0000
,  // measure 23
1000
0000
0010
0010
,  // measure 24
0010
0000
1000
0000
,  // measure 25
0001
0000
0100
0100
,  // measure 26
0100
0000
0001
0000
,  // measure 27
0000
0000
0100
0010
,  // measure 28
0001
1000
0010
0100
,  // measure 29
0001
0010
0100
1000
,  // measure 30
0010
0100
0001
0010
,  // measure 31
0001
0000
1001
1000
,  // measure 32
1000
0000
0010
0000
,  // measure 33
0100
0000
0001
0001
,  // measure 34
0001
0000
1000
0000
,  // measure 35
0001
0000
0100
0100
,  // measure 36
0100
0000
0010
0000
,  // measure 37
1000
0000
0100
0100
,  // measure 38
0100
0000
0000
0000
,  // measure 39
1001
1000
1000
0000
,  // measure 40
0001
0000
0010
0000
,  // measure 41
0001
0001
0001
0000
,  // measure 42
1000
0000
0010
0000
,  // measure 43
1000
1000
1000
0000
,  // measure 44
0100
0000
0010
0000
,  // measure 45
0001
0001
0001
0000
,  // measure 46
0100
0000
0000
0000
,  // measure 47
1001
0000
1000
0000
,  // measure 48
0100
0000
0010
0000
,  // measure 49
0100
0000
1000
0000
,  // measure 50
0001
0000
0100
0000
,  // measure 51
0010
0000
0100
0000
,  // measure 52
0001
0000
1000
0000
,  // measure 53
0001
0000
0010
0000
,  // measure 54
0100
1000
0100
1000
,  // measure 55
0001
0000
0000
0000
;
