#VERSION:0.83;
#TITLE:OI F#KN OI;
#SUBTITLE:;
#ARTIST:Code Black & Toneshifterz;
#TITLETRANSLIT:;
#SUBTITLETRANSLIT:;
#ARTISTTRANSLIT:;
#GENRE:Hardstyle;
#ORIGIN:;
#CREDIT:;
#BANNER:OI FKN OI-bn.png;
#BACKGROUND:OI FKN OI-bg.png;
#PREVIEWVID:;
#JACKET:OI FKN OI-jacket.png;
#CDIMAGE:;
#DISCIMAGE:;
#LYRICSPATH:;
#CDTITLE:cdtitle.png;
#MUSIC:OI FKN OI.ogg;
#OFFSET:-0.009000;
#SAMPLESTART:64.000000;
#SAMPLELENGTH:12.800000;
#SELECTABLE:YES;
#DISPLAYBPM:75.000000:150.000000;
#BPMS:0.000=150.000,
156.000=300.000,
157.000=150.000,
188.000=300.000,
189.000=150.000,
221.000=75.000,
254.000=150.000,
282.000=75.000,
283.000=150.000,
314.000=300.000,
315.000=150.000;
#STOPS:156.000=1.400,
188.000=0.100,
188.500=0.100,
221.000=2.400,
282.000=0.800,
314.000=0.100,
314.500=0.100;
#DELAYS:;
#WARPS:;
#TIMESIGNATURES:0.000=4=4;
#TICKCOUNTS:0.000=4;
#COMBOS:0.000=1;
#SPEEDS:0.000=1.000=0.000=0,
155.000=0.250=1.000=0,
156.063=2.000=0.000=0,
156.125=1.000=1.000=0,
188.000=2.000=0.000=0,
188.500=1.500=0.000=0,
189.000=1.000=0.000=0,
281.000=0.250=1.000=0,
282.063=1.000=1.000=0,
314.000=2.000=0.000=0,
314.500=1.500=0.000=0,
315.000=1.000=0.000=0;
#SCROLLS:0.000=1.000;
#FAKES:;
#LABELS:0.000=Song Start;
#BGCHANGES:
;
#KEYSOUNDS:;
#ATTACKS:
;

//---------------dance-single - ----------------
#NOTEDATA:;
#CHARTNAME:X-Scale 12;
#STEPSTYPE:dance-single;
#DESCRIPTION:;
#CHARTSTYLE:;
#DIFFICULTY:Hard;
#METER:9;
#RADARVALUES:0.489285,0.814508,0.171556,0.330858,0.395192,559.000000,531.000000,28.000000,54.000000,44.000000,0.000000,3.000000,0.000000,0.000000,0.489285,0.814508,0.171556,0.330858,0.395192,559.000000,531.000000,28.000000,54.000000,44.000000,0.000000,3.000000,0.000000,0.000000;
#CREDIT:;
#ATTACKS:TIME=89.209999:LEN=3.000000:MODS=Stealth;
#DISPLAYBPM:75.000000:150.000000;
#NOTES:
// measure 0
0000
0000
0000
0000
,  // measure 1
0000
0000
0000
0000
,  // measure 2
0000
0000
0000
0000
,  // measure 3
0000
0000
0000
0000
,  // measure 4
0000
0000
0000
0000
,  // measure 5
0000
0000
0000
0000
1000
0000
0100
0000
0000
1000
0010
0000
0000
0000
1000
0001
,  // measure 6
1000
0010
0100
0000
0000
0000
0000
0000
0000
0000
0000
0000
0001
0010
0100
1000
,  // measure 7
0001
0200
0000
0300
0002
0003
0000
1000
0001
0100
0010
1000
0010
0000
0000
1000
,  // measure 8
0001
0100
0001
1000
0001
0020
0000
0030
0100
2000
3000
0000
0000
0000
0000
0000
,  // measure 9
0000
0000
0000
0000
0000
0000
0000
0000
0000
0000
0000
0000
M000
M000
M000
M000
M000
M000
M000
M000
0M00
0000
0000
0000
M000
0000
0000
0000
00M0
0000
M000
0000
,  // measure 10
000M
000M
000M
000M
000M
0000
0000
0000
0000
0000
0000
0000
0000
0000
0000
0000
0000
0000
0000
0000
1000
0000
0000
0000
0001
0000
1000
0000
0100
0000
0010
0000
,  // measure 11
0000
0000
0001
0100
0001
0000
0000
0020
0000
0030
0000
0000
0000
0000
0000
0000
,  // measure 12
000M
0000
0000
0000
M000
0000
0000
0000
0000
0000
0000
0000
0000
0000
0000
0000
M000
M000
M000
M000
M000
M000
M000
M000
M000
0000
0000
0000
0000
0000
0000
0000
,  // measure 13
0000
0000
0000
000M
0M00
0000
0000
0000
000M
0000
0000
0000
0000
0000
2000
0000
,  // measure 14
0000
3000
0001
0100
0002
0000
0003
1000
,  // measure 15
0100
0000
0000
2000
0000
0000
3000
0000
0000
0000
0000
0000
0000
0000
0000
0000
0000
0000
0000
0000
0000
0000
0000
0000
0000
0000
0000
0000
0000
0000
0000
0000
,  // measure 16
1100
0010
1100
0010
1000
0000
0000
0000
,  // measure 17
0001
0000
1000
0100
0010
0000
0000
0000
,  // measure 18
0101
1000
0101
1000
0001
0000
0000
0000
,  // measure 19
1000
0000
0001
0010
0100
0000
0000
0000
,  // measure 20
1100
0010
1100
0010
1000
0000
0000
0000
,  // measure 21
0001
0000
1000
0100
0010
0000
0000
0000
,  // measure 22
0101
1000
0101
1000
0001
0000
0000
0000
,  // measure 23
1000
0000
0001
0010
0100
0000
0000
0000
,  // measure 24
1010
0000
0001
0000
0100
0000
0001
0010
,  // measure 25
0100
0000
0100
0000
1000
0100
0001
0100
,  // measure 26
1000
0000
0000
0000
0010
0000
0000
0000
0100
0000
00M0
0100
1000
0000
0100
0000
,  // measure 27
1000
0000
1000
0000
0001
0100
0010
0100
,  // measure 28
0001
0000
1000
0000
0001
0000
1000
0100
,  // measure 29
0010
0000
0010
0000
0001
0100
1000
0100
,  // measure 30
0001
0000
0000
0000
1000
0000
0000
0000
0100
0000
M000
0100
0001
0000
0100
0000
,  // measure 31
0001
0000
0001
0000
1000
0010
0100
0010
,  // measure 32
2010
3000
0001
0100
0002
0003
1000
0100
,  // measure 33
0020
0030
0001
0010
0200
0300
1000
0010
,  // measure 34
0200
0300
0001
0100
0020
0030
1000
0100
,  // measure 35
0020
0030
0001
0100
0020
0030
1000
0001
,  // measure 36
1000
0100
1000
0100
0001
0100
0001
0100
,  // measure 37
0010
0100
0010
0001
1000
0001
1000
0001
,  // measure 38
0010
0100
0010
0100
0010
0100
0010
0100
0010
0001
0010
0001
0040
0000
0000
0000
,  // measure 39
0030
0000
1001
0000
1100
0000
0101
0100
,  // measure 40
0002
0000
0000
0000
1003
0000
0000
0001
1000
0000
0010
0000
0001
0000
0010
0000
,  // measure 41
2000
0000
3100
0000
0010
0010
0010
0001
,  // measure 42
0200
0000
0000
0000
0301
0000
0000
0100
0001
0000
1000
0000
0001
0000
0200
0000
,  // measure 43
1300
0020
0031
0000
1000
0000
0001
0100
,  // measure 44
0020
0000
0000
0000
1030
0000
0000
1000
0001
0000
0010
0000
0100
0000
0100
0000
,  // measure 45
2000
0010
3010
0000
1000
0000
0001
0100
,  // measure 46
0002
0000
0000
0000
1003
0000
0001
1000
0001
0000
1000
0010
1000
0000
0100
0000
,  // measure 47
0010
0010
0101
0000
1000
0000
0001
1000
,  // measure 48
0200
0000
0000
0000
0301
0000
0100
0000
0010
0000
0100
0000
1000
0000
0000
0100
,  // measure 49
1000
0000
0010
0000
1000
0000
0000
0010
1000
0000
0000
0000
1000
0000
0100
0000
,  // measure 50
0020
0000
0031
0000
1000
0000
0001
0200
,  // measure 51
1300
0020
0031
0000
1000
0000
0010
0100
,  // measure 52
0002
0000
0000
0000
1003
0000
0000
0001
1000
0000
0010
0000
1010
0000
1010
0000
,  // measure 53
0011
0011
0100
0000
0001
0000
1000
0100
,  // measure 54
0020
0000
0000
0000
0031
0000
0010
0100
0010
0000
0001
0100
0001
0000
1000
0000
,  // measure 55
1000
0000
0000
0000
0001
0000
0000
0000
2001
0000
0000
0000
0000
0000
0000
0000
3100
0000
1000
0000
0000
0010
0000
0000
0100
0000
0000
0000
0010
0100
0000
0000
,  // measure 56
0001
0000
0100
0001
0000
0001
1000
0000
0000
0010
0000
0000
0000
0000
0100
0000
0010
0000
0001
0000
0000
0010
0000
0000
0000
0010
1000
0000
0000
0000
2000
0000
,  // measure 57
0000
0000
3000
0100
1000
0000
0000
0001
0000
0000
1000
0001
0000
1000
0000
0000
0020
0000
0000
0000
0000
0000
0000
0000
0030
1000
0010
0000
0000
0000
1000
0000
,  // measure 58
0200
0000
0000
0000
0020
0000
0030
0000
0320
0000
0030
0000
0000
0000
1000
0100
0000
1000
0000
0000
0010
0000
0100
0000
0000
0001
0000
0000
0000
0000
0100
0000
,  // measure 59
0001
0000
0100
0000
0000
0010
0000
0000
1000
0000
0010
0000
1000
0000
0001
0010
0000
0000
0002
0000
0000
0003
0200
0000
0000
0000
0300
0000
0000
0000
0020
0000
,  // measure 60
0030
0000
0100
0000
0010
0000
0000
0000
1000
0000
0000
0000
0000
0000
0001
0000
1000
0000
0000
0000
0000
0000
0100
1000
0100
0000
0000
0000
0000
0000
0010
0000
,  // measure 61
0000
0001
0000
0000
0100
0001
0000
0000
1000
0000
0010
0000
0100
0000
0001
0010
0001
0000
0000
1000
0001
0000
0000
1000
0100
0000
1000
0000
0000
0000
0000
0010
,  // measure 62
0100
0000
0000
0000
0001
0000
1000
0100
1000
0100
0000
0000
0010
0001
0000
0000
1000
0000
0000
0000
0000
0000
0000
0000
0001
0000
0100
0000
0001
0010
0100
0000
,  // measure 63
0010
0000
0001
0100
0001
0000
0000
0000
1001
0000
0000
0000
0010
0000
1000
0000
,  // measure 64
0200
0300
0010
0001
0200
0300
0001
0010
,  // measure 65
0200
0300
1000
0010
2000
3000
0001
0100
,  // measure 66
0002
0003
1000
0100
0020
0030
0001
0100
,  // measure 67
0020
0030
1000
0001
1000
0100
1000
0100
,  // measure 68
0001
0100
0001
0100
0010
0100
0010
0001
,  // measure 69
0010
0000
0001
0000
1000
0000
0010
0000
1000
0010
1000
0010
1000
0010
1000
0010
,  // measure 70
1000
0100
1000
0100
4000
0000
0000
0000
3200
0000
0000
1000
1300
0000
0000
0000
,  // measure 71
0100
0000
1000
0000
0001
0010
0100
0000
,  // measure 72
0100
0000
0000
0000
1000
0000
0010
1000
0010
0000
0100
0000
0001
0000
0000
0000
,  // measure 73
1000
0000
0000
0000
0001
0000
0000
0100
0001
0000
0010
0000
0001
0000
0000
0000
,  // measure 74
0100
0000
0001
0200
1300
0020
0031
0000
,  // measure 75
1000
0000
0100
0000
1000
0010
0100
0000
,  // measure 76
0001
0000
0101
0101
1100
1100
0010
0000
,  // measure 77
1000
0000
0000
0000
0001
0000
0000
1000
0100
0000
0010
0000
0001
0000
0000
0000
,  // measure 78
0100
0001
0200
0000
0010
0010
0310
0000
,  // measure 79
0100
0000
0001
0000
1000
0100
0010
0000
,  // measure 80
0001
0000
0000
0000
0400
0000
0300
0010
0100
0000
0010
0000
1000
0000
0000
0000
,  // measure 81
0001
0000
0000
0000
1000
0000
0000
0100
1000
0000
0010
0000
0100
0000
0000
0000
,  // measure 82
0001
0000
1000
0020
0031
0200
1300
0000
,  // measure 83
0010
0000
1000
0000
0001
0010
0100
0000
,  // measure 84
0100
0000
1100
1100
0101
0101
0010
0000
,  // measure 85
0001
0000
0000
0000
1000
0000
0000
0001
1000
0000
0100
0000
0010
0000
0000
0000
,  // measure 86
0001
0010
0001
0200
0310
2000
3000
0000
,  // measure 87
0000
0000
0000
0000
0000
0000
M000
000M
,  // measure 88
M000
0000
0000
0000
00M0
0000
0000
0000
0M00
0000
00M0
0000
0000
0000
0000
0000
0M00
0M00
0M00
0M00
0M00
0000
0000
0000
0000
0000
0000
0000
0000
0000
0000
0000
;

//---------------dance-single - ----------------
#NOTEDATA:;
#CHARTNAME:X-Scale 7;
#STEPSTYPE:dance-single;
#DESCRIPTION:;
#CHARTSTYLE:;
#DIFFICULTY:Medium;
#METER:5;
#RADARVALUES:0.324731,0.451790,0.067397,0.422763,0.027572,371.000000,360.000000,11.000000,69.000000,0.000000,0.000000,0.000000,0.000000,0.000000,0.324731,0.451790,0.067397,0.422763,0.027572,371.000000,360.000000,11.000000,69.000000,0.000000,0.000000,0.000000,0.000000,0.000000;
#CREDIT:;
#ATTACKS:TIME=89.21:LEN=3.00:MODS=Stealth;
#DISPLAYBPM:75.000000:150.000000;
#NOTES:
0000
0000
0000
0000
,
0000
0000
0000
0000
,
0000
0000
0000
0000
,
0000
0000
0000
0000
,
0000
0000
0000
0000
,
0000
0000
0000
0000
,
0000
0000
0000
0000
,
0000
0000
0000
0000
,
0000
0000
0000
0000
,
0000
0000
0000
0000
,
0000
0000
0000
0000
,
0000
0000
0000
0000
,
0000
0000
0000
0000
,
0000
0000
0000
0000
0000
0000
0000
2000
,
0000
3000
0001
0010
0200
0000
0300
1000
,
0100
0000
0000
1000
0000
0000
0000
0000
0000
0000
0000
0000
0000
0000
0000
0000
0000
0000
0000
0000
0000
0000
0000
0000
0000
0000
0000
0000
0000
0000
0000
0000
,
0011
0010
0001
0010
0001
0000
0000
0000
,
0000
0000
0000
0000
,
1010
1000
0010
1000
0010
0000
0000
0000
,
0000
0000
0000
0000
,
0110
0100
0010
0100
0010
0000
0000
0000
,
0000
0000
0000
0000
,
1001
1000
0001
1000
0001
0000
0000
0000
,
0000
0000
0000
0000
,
1100
0000
0100
0000
1000
0000
0001
0010
,
0100
0000
0010
0000
0001
0001
1000
1000
,
0001
0000
0000
0000
0100
0000
0000
0000
0010
0000
0000
0100
0010
0000
0100
0000
,
0001
0000
1000
0000
0100
0010
0001
1000
,
0001
0000
0100
0000
0010
0000
1000
0001
,
1000
0000
0010
0000
0100
0100
0010
0010
,
1000
0000
0000
0000
0001
0000
0000
0000
0100
0000
0000
0001
0100
0000
0001
0000
,
0010
0000
0100
0000
1000
0100
0010
0001
,
0011
0000
1000
0100
0001
0000
1000
0010
,
0001
0000
1000
0100
0001
0000
1000
0010
,
0001
0000
0001
0100
1000
0000
0001
0010
,
1000
0000
0001
0100
1000
0000
0001
0010
,
1000
0000
0010
0100
0001
0000
1000
0100
,
0010
0000
0001
0100
0010
0000
1000
0100
,
0010
0000
0001
0100
0010
0000
2000
0000
,
3000
0000
1001
0000
1000
0000
0001
0010
,
0001
0000
1000
0000
0010
0000
0100
0010
,
0100
0000
0001
0000
1000
1000
1000
0000
,
0001
0000
0100
0000
0010
0000
1000
0200
,
0301
0200
1300
0000
0001
0000
0010
0001
,
0010
0000
0100
0000
1000
0000
0001
0001
,
0010
0010
0100
0000
1000
0000
0001
1000
,
0001
2000
3200
2300
,
3001
0001
1001
0000
0100
0000
0001
0010
,
0200
0000
0000
0000
1300
0000
0000
0000
0100
0000
0000
0000
1000
0000
0000
0001
,
1000
0001
0010
0000
0100
0000
1000
0010
,
0100
0000
0001
0000
1000
0000
0001
0020
,
0130
0020
0031
0000
1000
0000
0100
0010
,
0001
0000
1000
0000
0001
0000
0100
0100
,
0010
0010
1000
0000
0100
0000
1000
0001
,
0100
0000
0002
0000
0023
0000
0031
0010
,
0100
1000
1100
0000
1002
0000
0000
0000
,
0000
0000
0023
0000
,
0000
0000
0230
0000
,
0000
0000
2300
0000
,
0000
0000
3002
0000
,
0000
0000
0203
0010
,
1000
0010
0001
0000
0320
0000
0100
0000
,
1000
0100
0001
0000
2030
0000
0100
0000
,
0001
0100
0010
0000
3001
0000
1000
0100
,
0001
0000
1000
0010
0001
0000
1000
0100
,
0001
0000
1000
0010
0001
0000
0001
0100
,
1000
0000
0001
0010
1000
0000
0001
0100
,
1000
0000
0001
0010
1000
0010
0100
0001
,
1000
0010
0100
0001
1000
0100
0010
0001
,
1000
0100
0010
0001
1000
1000
0001
0001
,
0020
0000
0100
0000
0230
0000
2300
3000
,
0200
0300
2000
3000
0001
0010
0200
0300
,
0200
0300
1000
0010
0100
0001
2000
3000
,
0200
0000
0300
0000
2000
0000
3000
0001
0010
0000
0001
0000
1000
0000
0000
0000
,
0010
0000
0100
0020
0031
0020
0230
0300
,
0002
0003
0200
0300
0010
1000
0200
0300
,
0200
0300
0010
0010
0001
0001
2000
3000
,
0002
0000
0003
0000
2000
0000
3000
0100
1000
0000
0001
0000
0020
0000
0000
0000
,
0230
0000
2300
0000
3001
0001
2001
3000
,
0200
0300
2000
3000
0001
0010
0200
0300
,
0200
0000
0300
0000
0200
0000
0300
1000
0001
0000
1000
0000
0020
0000
0030
0000
,
0200
0000
0300
0000
0002
0000
0003
0100
0001
0000
1000
0000
0200
0000
0300
0000
,
0200
0300
0010
0002
1003
0002
0023
0030
,
0200
0300
0020
0030
0001
1000
0200
0300
,
0200
0300
0010
0010
0001
0001
2000
3000
,
0200
0000
0300
0000
2000
0000
3000
0001
0100
0000
0001
0000
2000
0000
0000
0000
,
3020
0000
0130
0020
0031
0020
1030
0000
;

//---------------dance-single - ----------------
#NOTEDATA:;
#CHARTNAME:X-Scale 5;
#STEPSTYPE:dance-single;
#DESCRIPTION:;
#CHARTSTYLE:;
#DIFFICULTY:Easy;
#METER:3;
#RADARVALUES:0.203066,0.291913,0.110286,0.079651,0.000000,232.000000,214.000000,18.000000,13.000000,0.000000,0.000000,0.000000,0.000000,0.000000,0.203066,0.291913,0.110286,0.079651,0.000000,232.000000,214.000000,18.000000,13.000000,0.000000,0.000000,0.000000,0.000000,0.000000;
#CREDIT:;
#ATTACKS:TIME=89.21:LEN=3.00:MODS=Stealth;
#DISPLAYBPM:75.000000:150.000000;
#NOTES:
0000
0000
0000
0000
,
0000
0000
0000
0000
,
0000
0000
0000
0000
,
0000
0000
0000
0000
,
0000
0000
0000
0000
,
0000
0000
0000
0000
,
0000
0000
0000
0000
,
0000
0000
0000
0000
,
0000
0000
0000
0000
,
0000
0000
0000
0000
,
0000
0000
0000
0000
,
0000
0000
0000
0000
,
0000
0000
0000
0000
,
0000
0000
0000
0000
,
0000
0000
0000
0000
,
0000
0000
0000
0000
,
1001
0110
1001
0000
,
0000
0000
0000
0000
,
0011
0110
1100
0000
,
0000
0000
0000
0000
,
1010
0110
0101
0000
,
0000
0000
0000
0000
,
0011
1010
0011
0000
,
0000
0000
2000
0000
,
3100
0000
1000
0000
,
0001
0001
0001
0000
,
0100
0000
0010
0000
,
1000
1000
1000
0000
,
0001
0000
0100
0000
,
0001
0001
0001
0000
,
1000
0000
0100
0000
,
1000
1000
1000
0000
,
1001
0000
1000
0000
,
1000
0100
0010
0000
,
0001
0000
0001
0000
,
0001
0100
0010
0000
,
1000
0000
1000
0000
,
1000
0100
0010
0000
,
0002
0000
0010
0000
,
0003
0011
0010
0001
,
1000
0001
0010
0100
,
1000
0000
0010
0000
0100
0010
0100
0000
,
0001
0010
0100
1000
,
0001
1000
0100
0001
,
0100
0000
1000
0000
0010
0000
1000
0001
,
1000
0001
1000
0000
0100
0000
0010
0000
,
0001
1000
0000
0001
,
0000
1001
0010
1000
,
0001
1000
0100
0010
,
0001
0010
0001
0000
1000
0000
0010
0000
,
0100
0010
1000
0001
,
0010
0001
1000
0100
,
0010
0000
0001
0000
1000
0000
0010
0100
,
0010
0100
0010
0000
1000
0000
0100
0000
,
0010
0001
0000
1000
,
0000
1001
2000
0000
,
0000
0000
3200
0000
,
0000
0000
0320
0000
,
0000
0000
0032
0000
,
0000
0000
2003
0000
,
0000
0000
3200
0000
,
0000
0000
0320
0000
,
0230
0000
2300
0000
,
0000
0000
3001
0000
,
0001
0000
0001
0100
,
0010
0000
1000
0000
,
1000
0000
1000
0100
,
0010
0000
0001
0000
,
0001
0000
0001
0100
,
0010
0000
2000
0000
,
0010
0000
3000
1010
,
1000
0010
1000
0001
,
0100
0010
0100
0001
,
0010
0100
1000
0001
,
1000
0000
0100
0010
0001
0010
0100
0000
,
1000
0001
1000
0010
,
0100
0000
0001
0010
0001
0010
0001
0000
,
1000
0010
1000
0001
,
0000
1000
0000
1001
,
1000
0100
0010
0001
,
1000
0000
2000
3000
0010
0000
0100
0000
,
0001
1000
0100
0010
,
0001
0000
1000
0100
0010
0100
1000
0000
,
0001
0100
0010
0100
,
0001
0000
1000
0100
1000
0100
1000
0000
,
0001
0100
0010
0100
,
0000
0000
0001
0010
0001
0010
0000
0000
;

//---------------dance-single - ----------------
#NOTEDATA:;
#CHARTNAME:X-Scale 1;
#STEPSTYPE:dance-single;
#DESCRIPTION:;
#CHARTSTYLE:;
#DIFFICULTY:Beginner;
#METER:1;
#RADARVALUES:0.099783,0.159455,0.079651,0.018381,0.000000,114.000000,101.000000,13.000000,3.000000,0.000000,0.000000,0.000000,0.000000,0.000000,0.099783,0.159455,0.079651,0.018381,0.000000,114.000000,101.000000,13.000000,3.000000,0.000000,0.000000,0.000000,0.000000,0.000000;
#CREDIT:;
#ATTACKS:TIME=89.21:LEN=3.00:MODS=Stealth;
#DISPLAYBPM:75.000000:150.000000;
#NOTES:
0000
0000
0000
0000
,
0000
0000
0000
0000
,
0000
0000
0000
0000
,
0000
0000
0000
0000
,
0000
0000
0000
0000
,
0000
0000
0000
0000
,
0000
0000
0000
0000
,
0000
0000
0000
0000
,
0000
0000
0000
0000
,
0000
0000
0000
0000
,
0000
0000
0000
0000
,
0000
0000
0000
0000
,
0000
0000
0000
0000
,
0000
0000
0000
0000
,
0000
0000
0000
0000
,
0000
0000
0000
0000
,
1100
0000
0000
0000
,
0000
0000
0000
0000
,
0101
0000
0000
0000
,
0000
0000
0000
0000
,
0110
0000
0000
0000
,
0000
0000
0000
0000
,
1001
0000
0000
0000
,
0000
0000
0000
0000
,
1100
0000
0000
0000
,
0001
0000
0000
0000
,
0100
0000
0000
0000
,
0010
0000
0000
0000
,
1000
0000
0000
0000
,
0100
0000
0000
0000
,
0010
0000
0000
0000
,
0001
0000
0000
0000
,
1001
0000
1000
0000
,
0001
0000
1000
0000
,
0001
0000
0010
0000
,
0100
0000
0010
0000
,
0100
0000
1000
0000
,
0001
0000
1000
0000
,
0002
0000
0000
0000
,
0003
1001
0000
0001
,
0000
0100
0000
0001
,
0000
1000
0000
0100
,
0000
0010
0000
0001
,
0000
1000
0000
0001
,
0000
0100
0000
0010
,
0000
1000
0000
0001
,
0000
1000
0000
0000
,
0000
1100
0000
0001
,
0000
1000
0000
0100
,
0000
1000
0000
0010
,
0000
0100
0000
0001
,
0000
0010
0000
0001
,
0000
1000
0000
0100
,
0000
1000
0000
0001
,
0000
0100
0000
0000
,
0000
0110
1001
0000
,
0000
0000
0000
0000
,
0000
0000
0000
0000
,
0000
0000
0000
0000
,
0000
0000
0000
0000
,
0000
0000
0000
0000
,
0000
0000
0000
0000
,
0000
0000
0000
0000
,
0000
0000
1001
0000
,
1000
0000
0001
0000
,
0100
0000
0010
0000
,
1000
0000
0001
0000
,
0100
0000
0010
0000
,
1000
0000
0001
0000
,
0010
0000
0200
0000
,
0000
0000
0300
1100
,
0000
0001
0000
1000
,
0000
0100
0000
1000
,
0000
0010
0000
0100
,
0000
0010
0000
1000
,
0000
0001
0000
0010
,
0000
0001
0000
1000
,
0000
0100
0000
1000
,
0000
0000
0000
1001
,
0000
0100
0000
0001
,
0000
1000
0000
0001
,
0000
0010
0000
0100
,
0000
1000
0000
0001
,
0000
1000
0000
0010
,
0000
0100
0000
0001
,
0000
0010
0000
0001
,
0000
2000
0000
3000
;
