#TITLE:Nothing's Over;
#SUBTITLE:;
#ARTIST:Infinite;
#TITLETRANSLIT:;
#SUBTITLETRANSLIT:;
#ARTISTTRANSLIT:;
#GENRE:K-Pop;
#CREDIT:;
#BANNER:nothing's over-bn.png;
#BACKGROUND:nothing's over-bg.png;
#LYRICSPATH:;
#CDTITLE:cdtitle.png;
#MUSIC:nothing's over.ogg;
#OFFSET:-0.020000;
#SAMPLESTART:45.020000;
#SAMPLELENGTH:15.000000;
#SELECTABLE:YES;
#BPMS:0.000000=128.000000
;
#STOPS:
;
#BGCHANGES:0.000=nothing's over.avi=1.000=1=0=0=StretchNoLoop==CrossFade==,
99999=-nosongbg-=1.000=0=0=0 // don't automatically add -songbackground-
;
#KEYSOUNDS:;
#ATTACKS:;

//---------------dance-single - ----------------
#NOTES:
     dance-single:
     :
     Medium:
     6:
     0.376627,0.447009,0.339063,0.179911,0.006920,381.000000,332.000000,49.000000,26.000000,0.000000,0.000000,0.376627,0.447009,0.339063,0.179911,0.006920,381.000000,332.000000,49.000000,26.000000,0.000000,0.000000:
// measure 0
0000
0000
0000
0000
,  // measure 1
0000
0000
0000
0000
,  // measure 2
0000
0000
0000
0000
,  // measure 3
0000
0000
0000
0000
,  // measure 4
0000
0000
0000
0000
,  // measure 5
0000
0000
0000
0000
,  // measure 6
0000
0000
0000
0000
,  // measure 7
0000
1000
0001
0100
,  // measure 8
0110
0010
1000
0100
,  // measure 9
0001
0100
1000
0010
,  // measure 10
1100
1000
0010
0100
,  // measure 11
0001
0000
0010
0100
1000
0100
0010
0000
,  // measure 12
0002
0000
0000
0000
0100
0000
0000
0003
,  // measure 13
0101
0000
0010
0000
1000
0001
0100
0010
,  // measure 14
0110
0000
0010
0200
0000
0300
0100
0002
,  // measure 15
0000
0003
0010
0001
0010
0100
1000
0000
,  // measure 16
1010
0000
0000
0000
0100
0000
0000
0000
0010
0000
0000
0010
0010
0000
0100
0000
,  // measure 17
0100
0100
0010
0100
0010
1000
0001
0000
,  // measure 18
0012
0000
0000
0000
0000
0000
0000
0000
0000
0000
0000
0000
1000
0000
0000
0000
0000
0000
0000
0000
0000
0000
0000
0000
1000
0000
0000
0000
0000
0000
0000
0000
0003
1000
0000
0000
1000
0000
0000
0000
0000
0000
0100
0000
0000
0000
0000
0000
,  // measure 19
1100
0000
1000
0010
0100
0010
0001
0010
,  // measure 20
0110
0100
0101
0001
,  // measure 21
1001
0000
0100
0010
0100
0001
0010
0001
,  // measure 22
0011
0010
0110
0100
,  // measure 23
1100
0010
0100
0001
,  // measure 24
0011
0001
0010
0100
,  // measure 25
1000
0100
0010
0001
,  // measure 26
0011
0001
0010
0100
,  // measure 27
1000
0100
0010
0001
,  // measure 28
1001
1000
0100
0010
,  // measure 29
0001
0000
0010
0100
0010
0001
0010
0100
,  // measure 30
2000
0000
0000
3000
0020
0000
0000
0030
,  // measure 31
1001
0000
0010
1000
0100
1000
0010
0100
,  // measure 32
0110
0000
0100
1000
0000
1000
0100
0010
,  // measure 33
0100
0000
0001
0010
1000
0100
0010
0100
,  // measure 34
0101
0000
0010
0001
0000
0001
1000
0010
,  // measure 35
0100
0001
0010
0001
1000
0001
0100
0010
,  // measure 36
0000
0100
0000
0001
0000
1000
0100
0010
,  // measure 37
0000
0001
0000
1000
0000
0100
0010
0001
,  // measure 38
0020
0000
0000
0030
0100
0000
1000
0000
,  // measure 39
2010
0000
0000
3000
0102
0000
0003
0001
,  // measure 40
1001
0000
0000
0020
0000
0000
0030
1000
,  // measure 41
2010
0000
0000
3000
0012
0000
0003
1000
,  // measure 42
1100
0000
0010
0200
0000
0000
0300
0010
,  // measure 43
0120
0000
0000
0030
1002
0000
0003
0100
,  // measure 44
0101
0000
0100
0100
0000
0010
0010
0000
,  // measure 45
1010
0000
1000
1000
0000
0001
0001
0000
,  // measure 46
0101
0000
0010
0010
0000
1000
1000
0000
,  // measure 47
1010
0000
0100
0100
0000
0001
0100
0010
,  // measure 48
0101
0000
0010
0000
0010
0001
0010
0000
,  // measure 49
0100
0000
1000
0000
0010
0100
0010
0000
,  // measure 50
1010
0000
0010
0000
1000
0010
1000
0000
,  // measure 51
0100
0000
0010
0000
0010
0001
0010
0000
,  // measure 52
0101
0000
0010
0000
1000
0000
0100
0010
,  // measure 53
0100
0000
0010
0000
0001
0010
0100
1000
,  // measure 54
1100
1000
0100
0010
,  // measure 55
0100
0000
1000
0010
0001
0010
0100
0010
,  // measure 56
1001
0000
0001
0100
0000
0100
0010
0000
,  // measure 57
1000
0000
0010
0100
0010
1000
0010
0100
,  // measure 58
0010
0000
1000
0010
0000
0010
0100
0000
,  // measure 59
0001
0100
0010
1000
0100
0010
0100
1000
,  // measure 60
0001
0000
0101
0100
0000
0100
0101
0000
,  // measure 61
0001
0000
1010
0010
0000
0010
1010
1000
,  // measure 62
2010
0000
0000
3000
0010
0000
0100
0010
,  // measure 63
0120
0000
0000
0030
0210
0000
0300
0010
,  // measure 64
0110
0000
0010
0001
0000
1000
0010
0000
,  // measure 65
0100
0000
0001
0010
1000
0010
0001
0010
,  // measure 66
0101
0000
0001
0010
0000
0010
0100
0000
,  // measure 67
0001
0010
0100
0010
0001
0010
0100
1000
,  // measure 68
0000
0001
0000
1000
0000
1000
0010
0100
,  // measure 69
0000
0001
0000
1000
0000
1000
0100
0010
,  // measure 70
0120
0000
0000
0030
0010
0000
1000
0000
,  // measure 71
2010
0000
0000
3000
1000
0000
0000
0001
,  // measure 72
0201
0000
0010
0000
,  // measure 73
0320
0000
0000
0030
0200
0000
0300
0010
,  // measure 74
1020
0000
0100
0000
,  // measure 75
2030
0000
0002
0000
,  // measure 76
3003
0000
0000
0000
;

//---------------dance-single - ----------------
#NOTES:
     dance-single:
     :
     Easy:
     3:
     0.259981,0.341831,0.221429,0.186831,0.000000,263.000000,231.000000,32.000000,27.000000,0.000000,0.000000,0.259981,0.341831,0.221429,0.186831,0.000000,263.000000,231.000000,32.000000,27.000000,0.000000,0.000000:
0000
0000
0000
0000
,
0000
0000
0000
0000
,
0000
0000
0000
0000
,
0000
0000
0000
0000
,
0000
0000
0000
0000
,
0000
0000
0000
0000
,
0000
0000
0000
0000
,
0000
0000
0000
0010
,
1010
0000
0010
0000
,
0001
0010
0100
1000
,
1010
0000
0001
0000
,
1000
0100
0010
0001
,
0002
0000
0000
0000
0000
0000
0000
0003
,
0101
0000
0100
0000
1000
0100
0001
0100
,
0101
0000
0001
0002
0000
0003
0100
0200
,
0000
0300
0010
0000
0100
0000
0010
0000
,
1010
0000
0010
0100
,
1000
0100
0010
0001
,
0012
0000
0000
0000
0000
0000
0100
0000
0003
1000
0000
0000
,
1100
1000
0100
0001
,
0010
0010
0100
0100
,
1000
0100
0010
0001
,
1000
1000
0010
0010
,
1000
0100
0010
0001
,
0101
0000
0100
0000
,
0010
0010
0100
0100
,
0110
0000
0010
0000
,
0001
0001
1000
1000
,
1001
0000
1000
1000
,
0100
0010
1000
0100
,
0020
0000
0000
0030
0002
0000
0000
0003
,
0101
0000
0100
0010
,
0011
0000
0010
0001
0000
0001
0000
0000
,
0010
0100
1000
0100
,
0110
0000
0010
0100
0000
0100
0000
0000
,
0010
0000
0001
0000
0010
0000
0100
0100
,
0000
0100
0000
1000
0000
1000
0100
0010
,
0000
0001
0000
0001
0000
0001
0000
0000
,
0020
0000
0000
0030
0100
0000
0000
0000
,
0020
0000
0000
0030
2000
0000
3000
0010
,
1010
0000
0000
0002
0000
0000
0003
0001
,
0012
0000
0000
0003
0200
0000
0300
0010
,
1010
0000
0000
2000
0000
0000
3000
1000
,
1020
0000
0000
0030
2000
0000
3000
0001
,
0101
0000
0001
0000
0010
0000
0001
0100
,
0001
0010
0100
1000
,
0010
0001
0010
1000
,
2100
0000
0000
0000
0000
0010
0000
0010
,
3010
0000
0010
0100
,
0001
0010
0100
1000
,
0110
0000
0001
0100
,
0010
0001
0010
1000
,
1010
0010
1000
0100
,
0010
0001
0010
1000
,
1010
1000
0100
0010
,
1000
1000
0010
0100
,
0110
0000
0000
0100
0000
0100
0000
0000
,
0001
1000
0010
0100
,
0001
0000
0000
0001
0000
0001
0000
0000
,
1000
0000
0010
0000
0001
0000
0100
0010
,
0001
0011
0000
0110
,
0000
1100
0000
1001
,
2001
0000
0000
3000
0010
0000
0000
0000
,
0210
0000
0000
0300
0020
0000
0030
0100
,
0101
0010
0100
0001
,
0100
0010
0100
0001
,
1000
0001
0010
0100
,
1000
0000
0010
0000
1000
0000
0100
0100
,
0000
1000
0000
0100
0000
0100
0010
0010
,
0000
0010
0000
0001
0000
0001
0000
0000
,
0201
0000
0000
0300
0001
0000
0000
0000
,
0102
0000
0000
0003
2000
0000
3000
0010
,
2000
0000
0000
0000
,
3200
0000
0000
0300
0200
0000
0300
0010
,
0002
0000
0000
0000
,
0023
0000
0000
0000
,
0030
0000
0000
0000
;

//---------------dance-single - ----------------
#NOTES:
     dance-single:
     :
     Hard:
     9:
     0.456697,0.525893,0.366741,0.159152,0.069196,462.000000,409.000000,53.000000,23.000000,0.000000,0.000000,0.456697,0.525893,0.366741,0.159152,0.069196,462.000000,409.000000,53.000000,23.000000,0.000000,0.000000:
// measure 0
0000
0000
0000
0000
,  // measure 1
0000
0000
0000
0000
,  // measure 2
0000
0000
0000
0000
,  // measure 3
0000
0000
0000
0000
,  // measure 4
0000
0000
0000
0000
,  // measure 5
0000
0000
0000
0000
,  // measure 6
0000
0000
0000
0000
,  // measure 7
0000
0000
1000
0100
0010
0100
0010
0000
,  // measure 8
0011
0000
0000
0001
1000
0000
0010
0000
0000
0000
0100
0000
0001
0000
1000
0000
,  // measure 9
0001
0000
0010
0100
1000
0100
0010
0000
,  // measure 10
0110
0000
0000
0010
0100
0000
0010
0000
0000
0000
0100
0000
0010
0000
0100
0000
,  // measure 11
1000
0000
0100
0010
0100
1000
0001
0000
,  // measure 12
2000
0000
0000
0000
0000
0000
0010
0000
0000
0010
0000
0000
0000
0000
0000
0010
0000
0000
0001
0000
3000
0010
0000
0000
,  // measure 13
1010
0000
0100
0000
0010
1000
0010
0100
,  // measure 14
0110
0000
0000
0100
0010
0000
1000
0000
0000
0000
0100
0000
1000
0000
0100
0000
,  // measure 15
0010
0000
0001
1000
0001
0010
0100
0000
,  // measure 16
1010
0000
0000
0000
0100
0000
0000
0000
0001
0000
0000
0010
0010
0000
0100
0000
,  // measure 17
1000
0100
0010
0100
0010
0001
1000
0000
,  // measure 18
0012
0000
0000
0000
0000
0000
0000
0000
0000
0000
0000
0000
1000
0000
0000
0000
0000
0000
0000
0000
0000
0000
0000
0000
1000
0000
0000
0000
0000
0000
0000
0000
0003
0100
0000
0000
0001
0000
0000
0000
0000
0000
0100
0000
0000
0000
0000
0000
,  // measure 19
0110
0000
1000
0100
0010
0001
0010
0100
,  // measure 20
1010
0000
0101
0000
1000
0100
0010
0001
,  // measure 21
1001
0000
0100
0010
0100
0001
0010
0001
,  // measure 22
1010
0110
0101
0011
,  // measure 23
1000
0000
0000
0000
0010
0000
0000
0000
1000
0001
1000
0000
0001
0000
0001
0010
,  // measure 24
0011
1000
0100
0010
,  // measure 25
0100
0000
0010
0000
0001
1000
0001
0100
,  // measure 26
0101
0001
1000
0010
,  // measure 27
0100
0000
0010
0000
1000
0100
1000
0010
,  // measure 28
1010
0010
1000
0010
,  // measure 29
0100
0000
0010
0100
0001
0010
0100
1000
,  // measure 30
0020
0000
1000
0030
2000
0000
0001
3000
,  // measure 31
0101
0000
0000
0000
0010
0000
1000
0000
0100
1000
0001
0000
0010
0000
0100
0010
,  // measure 32
0110
0000
0000
0001
0010
0000
0100
0000
0010
0000
0100
0000
1000
0000
0100
0000
,  // measure 33
0010
0000
0010
0100
1000
0010
0100
0001
,  // measure 34
0101
0000
0000
0001
1000
0000
0100
0000
0010
0000
0100
0000
0010
0000
0001
0000
,  // measure 35
1000
0001
0010
1000
0010
0100
0010
0001
,  // measure 36
0000
0100
0000
0001
0000
0001
1000
0010
,  // measure 37
0000
1000
0000
0001
0000
0001
0010
0100
,  // measure 38
0020
0000
1000
0030
0100
0000
1000
0100
,  // measure 39
1020
0000
0100
0030
0012
0000
0103
0010
,  // measure 40
1010
0000
0000
0004
0000
0000
0003
0001
,  // measure 41
2010
0000
0000
3000
0012
0000
0003
1000
,  // measure 42
1100
0000
0010
4000
0000
0000
3000
1000
,  // measure 43
0120
0000
0000
0030
1002
0000
0003
0100
,  // measure 44
0101
0000
0000
0100
0010
0000
0100
0000
0000
0000
0001
0000
0010
0000
0100
0000
,  // measure 45
1001
0000
0000
0001
1000
0000
0010
0000
0000
0000
0100
0000
0010
0000
0100
0000
,  // measure 46
1010
0000
0000
0001
1000
0000
0100
0000
0000
0000
1000
0000
0001
0000
1000
0000
,  // measure 47
1001
0000
0000
0100
0010
0000
0100
0000
0000
0000
0001
0000
1000
0000
0001
0000
,  // measure 48
1001
0100
0001
0000
1000
0100
0010
0000
,  // measure 49
0001
0000
0010
0100
0010
0001
0100
0000
,  // measure 50
0101
0000
0010
0100
0001
0010
0001
0000
,  // measure 51
1001
0000
0001
1000
0001
0000
0010
0000
0100
0000
0010
0000
0001
0000
0000
0000
,  // measure 52
1010
0000
0100
0010
0100
1000
0100
0010
,  // measure 53
0100
0000
0001
0000
1000
0010
1000
0100
,  // measure 54
1100
0000
0001
0000
1000
0001
0010
0100
,  // measure 55
1000
0100
0000
0100
0010
0000
0001
0000
0100
0000
0010
0000
1000
0000
0010
0000
,  // measure 56
1010
0000
0010
0100
0010
0100
0010
1000
,  // measure 57
0001
0000
1000
0100
0010
0001
1000
0001
,  // measure 58
0000
0010
0001
0010
0100
0010
0001
1000
,  // measure 59
1000
0100
1000
0100
0010
0001
1000
0001
,  // measure 60
0000
0010
0110
0100
0000
1000
1001
0001
,  // measure 61
0000
0100
1100
0010
0000
0100
0110
1000
,  // measure 62
2010
0000
0001
3000
0010
0000
1000
0100
,  // measure 63
2010
0000
0010
3000
0120
0000
0130
0100
,  // measure 64
0101
0000
0010
0100
0001
0100
0010
0100
,  // measure 65
0001
0000
1000
0001
0100
0001
1000
0010
,  // measure 66
1001
0000
0000
0010
0100
0000
0010
0000
1000
0000
0010
0000
0100
0000
0001
0000
,  // measure 67
1000
0010
0100
0001
0010
1000
0010
0001
,  // measure 68
0000
1000
0000
0010
0000
0010
0100
0001
,  // measure 69
0000
1000
0000
0010
0000
0010
0100
0010
,  // measure 70
2100
0000
0001
3000
1000
0100
1000
0010
,  // measure 71
0100
0000
0000
0001
1000
0000
0001
0000
0012
0000
0000
0000
0013
0000
1000
0000
,  // measure 72
2010
0000
0000
0000
0000
0000
0020
0000
0000
0000
0000
3030
,  // measure 73
0201
0000
0000
0300
0020
0000
0030
0100
,  // measure 74
0102
0000
0000
0000
0000
0000
0000
0000
0000
0000
0000
0003
,  // measure 75
2010
0000
0020
0000
,  // measure 76
3030
0000
0000
0000
;

//---------------dance-single - ----------------
#NOTES:
     dance-single:
     :
     Beginner:
     1:
     0.150255,0.236652,0.159152,0.207589,0.000000,152.000000,129.000000,23.000000,30.000000,0.000000,0.000000,0.150255,0.236652,0.159152,0.207589,0.000000,152.000000,129.000000,23.000000,30.000000,0.000000,0.000000:
0000
0000
0000
0000
,
0000
0000
0000
0000
,
0000
0000
0000
0000
,
0000
0000
0000
0000
,
0000
0000
0000
0000
,
0000
0000
0000
0000
,
0000
0000
0000
0000
,
0000
0000
0000
0000
,
0101
0000
0001
0000
,
0010
0000
0000
0000
,
1100
0000
0100
0000
,
0010
0000
0000
0000
,
2000
0000
0000
0000
0000
0000
0000
0000
0000
0000
3000
0000
,
1010
0000
0010
0000
,
0101
0000
0010
0020
0000
0030
0100
0200
,
0000
0300
0000
0000
0000
0000
0100
0000
,
1100
0000
0001
0000
,
0100
0000
0010
0000
,
2000
0000
0000
0000
0000
3000
0000
0000
,
1001
0000
0100
0000
,
0100
0100
0010
0010
,
0110
0000
0000
0000
,
1000
1000
0001
0001
,
1001
0000
0100
0000
,
0011
0000
0100
0000
,
0001
0000
0100
0002
,
0000
0000
0000
0000
0000
0003
0000
0000
,
1000
0000
0010
2000
,
0000
0000
0000
0000
0000
3000
0000
0000
,
0100
0000
1000
0000
,
0020
0000
0000
0030
2000
0000
0000
3000
,
0020
0000
0000
0000
0000
0000
0000
0030
,
0110
0000
0000
0000
,
1010
0000
0000
0000
,
0220
0000
0000
0000
,
0000
0000
0000
0000
0000
0330
0000
0000
,
1010
0000
0000
0100
0000
0100
0000
0000
,
0101
0000
0000
0001
0000
0001
0000
0000
,
0020
0000
0000
0030
0100
0000
0000
0000
,
0020
0000
0000
0030
0002
0000
0003
0000
,
2000
0000
0000
0000
,
3002
0000
0000
0000
,
0203
0000
0000
0000
,
0320
0000
0000
0000
,
0130
0001
0000
0010
,
0001
1000
0000
0010
,
0100
0001
0000
0010
,
0002
0000
0000
0000
,
0003
0000
0001
0000
,
1000
0000
0010
0000
,
0110
0000
0010
0000
,
0001
0000
0011
0000
,
0100
0000
1000
0000
,
0100
0000
0010
0000
,
0001
0000
0010
0000
,
0100
0000
0010
0000
,
0101
0000
0010
0000
,
0001
0000
0010
0000
,
0100
0000
1000
0000
,
0010
0000
0100
0000
,
0001
0000
0000
0100
0000
0100
0000
0000
,
0001
0000
0000
1000
0000
1000
0000
0000
,
0020
0000
0000
0030
0010
0000
0000
0000
,
0200
0000
0000
0300
0002
0000
0003
0000
,
1100
0000
0000
0100
0000
0100
0000
0000
,
0010
0000
0100
0000
,
0012
0000
0000
0010
0000
0010
0000
0000
,
0100
0000
0000
0003
,
0101
0000
0000
1000
0000
1000
0000
0000
,
0010
0000
0000
0100
0000
0100
0000
0000
,
2001
0000
0000
3000
0010
0000
0000
0000
,
0120
0000
0000
0030
0012
0000
0003
0000
,
2000
0000
0000
0000
,
3200
0000
0000
0000
,
0320
0000
0000
0000
,
0032
0000
0000
0000
,
0003
0000
0000
0000
;
