#VERSION:0.83;
#TITLE:Not About You;
#SUBTITLE:;
#ARTIST:Haiku Hands;
#TITLETRANSLIT:;
#SUBTITLETRANSLIT:;
#ARTISTTRANSLIT:;
#GENRE:House;
#ORIGIN:;
#CREDIT:;
#BANNER:not about you-bn.png;
#BACKGROUND:not about you-bg.png;
#PREVIEWVID:;
#JACKET:not about you-jacket.png;
#CDIMAGE:;
#DISCIMAGE:;
#LYRICSPATH:;
#CDTITLE:cdtitle.png;
#MUSIC:not about you.ogg;
#OFFSET:-0.006000;
#SAMPLESTART:39.292000;
#SAMPLELENGTH:15.250000;
#SELECTABLE:YES;
#BPMS:0.000=126.000;
#STOPS:79.000=1.429;
#DELAYS:;
#WARPS:;
#TIMESIGNATURES:0.000=4=4;
#TICKCOUNTS:0.000=4;
#COMBOS:0.000=1;
#SPEEDS:0.000=1.000=0.000=0;
#SCROLLS:0.000=1.000;
#FAKES:;
#LABELS:0.000=Song Start;
#BGCHANGES:0.000=not about you.mp4=1.000=0=0=1=====,
99999=-nosongbg-=1.000=0=0=0 // don't automatically add -songbackground-
;
#KEYSOUNDS:;
#ATTACKS:
;

//---------------dance-single - ----------------
#NOTEDATA:;
#CHARTNAME:X-Scale 13;
#STEPSTYPE:dance-single;
#DESCRIPTION:;
#CHARTSTYLE:;
#DIFFICULTY:Hard;
#METER:9;
#RADARVALUES:0.583382,0.617574,0.098402,0.172203,0.500209,498.000000,486.000000,12.000000,21.000000,0.000000,0.000000,0.000000,0.000000,0.000000,0.583382,0.617574,0.098402,0.172203,0.500209,498.000000,486.000000,12.000000,21.000000,0.000000,0.000000,0.000000,0.000000,0.000000;
#CREDIT:;
#NOTES:
// measure 0
0000
0000
0000
0000
,  // measure 1
0000
0000
0000
0000
,  // measure 2
0000
0000
0000
0000
,  // measure 3
0000
0000
0000
0000
,  // measure 4
1010
0000
1000
0000
0010
0000
1000
0000
0001
0100
0000
0001
0100
0000
0100
0010
,  // measure 5
0100
0000
0010
0000
0100
0000
0010
0000
1000
0000
1000
0010
0000
0000
1000
0100
,  // measure 6
0010
0000
0001
0000
0010
0000
0001
0000
1000
0100
0000
1000
0100
0000
0010
0001
,  // measure 7
1000
0000
0001
0000
1000
0000
0001
0000
0100
0000
0100
0010
0000
0000
0100
0000
,  // measure 8
0110
0000
0010
1000
0001
0010
0000
0001
0100
0000
0100
0001
0000
0000
1000
0100
,  // measure 9
1000
0000
0001
0100
0000
0000
0001
0010
0001
0000
1000
0100
0000
0000
1000
0000
,  // measure 10
0001
0000
0100
0000
0001
0010
0001
0010
0001
0000
0010
0100
0000
0000
0010
0000
,  // measure 11
0001
0000
0100
0001
0000
0000
0001
1000
0001
0000
0100
0001
1000
0010
0100
0001
,  // measure 12
1000
0000
0001
1000
0010
1000
0001
1000
0010
0000
0010
0100
0000
0000
0100
0010
,  // measure 13
0100
0000
0001
1000
0000
0000
1000
0100
1000
0000
0001
1000
0000
0000
0100
0000
,  // measure 14
0010
0000
0001
0000
0100
0001
0100
0001
0100
0000
0010
0100
0000
0000
0010
1000
,  // measure 15
0010
0000
1000
0100
0000
0000
1000
0001
1000
0000
0001
0100
0010
0100
0001
0000
,  // measure 16
0001
0000
1000
0000
1000
0000
0010
0000
1000
0010
0000
1000
0010
0000
0100
0000
,  // measure 17
0001
0000
0100
0001
0000
0000
0100
0000
0001
0000
0010
0001
0000
0000
1000
0000
,  // measure 18
1001
0000
0000
1000
0010
0000
1000
0000
0001
0100
0000
0001
0100
0000
0010
0000
,  // measure 19
1000
0000
0000
0100
0000
0000
1000
0000
0001
0000
0100
0000
1000
0000
1000
0000
,  // measure 20
0010
1000
0010
0000
1010
0000
1000
0010
0000
0000
0010
0000
0100
0010
0000
0010
,  // measure 21
0000
0000
1000
0000
0001
0000
0100
0001
0000
0000
1000
0000
0100
0000
0010
0100
,  // measure 22
0000
1000
0100
0001
0100
1000
0001
0100
,  // measure 23
0010
0100
0002
1000
0000
1000
0003
1000
,  // measure 24
0001
1000
0001
0000
0100
0000
0000
0100
0010
0000
1000
0000
0001
0010
0000
0001
,  // measure 25
0100
0000
0001
0000
1000
0000
0001
1000
0000
0000
0100
0000
0010
0000
0100
0010
,  // measure 26
0000
0000
0001
0010
0001
0000
0100
0010
0000
0100
0010
0000
1000
0000
0100
0000
,  // measure 27
0010
0100
2000
3000
2000
3000
2000
3000
,  // measure 28
0200
0000
0000
0000
0010
0000
0020
0000
0300
0000
0000
0000
0031
0010
0000
0010
,  // measure 29
0000
0000
0001
0000
0001
0000
0002
0000
1000
0000
0000
0000
0013
0000
0001
1000
,  // measure 30
0000
0000
0010
0000
1000
0000
2000
0000
0010
0000
0000
0000
3010
1000
0000
1000
,  // measure 31
0000
0001
0100
0010
0001
0010
2000
3000
,  // measure 32
0020
0000
0030
0000
0101
0000
0000
1001
0000
0000
1000
0000
0010
1000
0000
0001
,  // measure 33
0000
0000
0001
0000
0100
0000
0200
0000
0010
0000
0000
0000
0310
0000
0100
0001
,  // measure 34
0000
0000
1000
0000
0001
0000
0002
0000
0100
0000
0000
0000
0103
0001
0000
0001
,  // measure 35
0000
1000
0100
0001
0100
1000
0100
0001
,  // measure 36
0100
0000
1000
0000
0210
0000
0301
0000
0100
0000
0001
0000
1000
0001
0000
1000
,  // measure 37
0000
0000
0010
0100
0010
0000
1000
0000
0100
0000
1000
0000
0001
0000
1000
0001
,  // measure 38
1000
0000
0100
0000
0001
0000
0100
0000
0010
0000
0001
0010
0001
0000
1000
0001
,  // measure 39
1000
0000
0010
0000
0100
0000
0001
0100
0000
0000
0010
0000
0100
0000
0010
0100
,  // measure 40
0000
0000
0100
0001
0100
0000
0001
0000
1000
0000
0001
0000
1000
0001
0000
0001
,  // measure 41
0010
0000
0001
0000
0100
0000
0010
0000
1000
0000
0001
0000
0010
0000
0001
0100
,  // measure 42
0001
1000
0010
1000
0100
1000
0001
0010
,  // measure 43
1000
0001
0100
1000
0001
1000
0001
1000
,  // measure 44
0100
0010
0100
0000
0110
0000
0000
1000
0001
0000
0001
0000
0100
0001
0000
0001
,  // measure 45
0000
0000
0100
0000
0010
0000
0010
0100
0010
0000
1000
0000
0001
0000
0010
0100
,  // measure 46
0010
0001
1000
0100
0001
0100
1000
0100
,  // measure 47
0010
0001
0020
0100
0000
0100
0130
0010
,  // measure 48
0001
0010
0001
0000
0011
0000
0001
0100
0000
0000
0001
0000
1000
0010
0000
0010
,  // measure 49
0000
0000
0100
0000
0001
0000
0010
0001
0010
0000
0100
0000
1000
0000
0010
1000
,  // measure 50
0010
0000
0100
0000
0001
0000
0010
0001
0000
0010
0001
0000
1000
0000
0010
1000
,  // measure 51
0020
0000
1030
0000
2000
0000
3010
0000
0020
0000
1030
0000
1000
0000
0001
0010
,  // measure 52
0100
1000
0001
0100
0101
0000
0000
0110
0000
0000
0010
0000
1000
0010
0000
0010
,  // measure 53
0000
0000
1000
0001
1000
0000
2000
0000
0010
0000
0000
0000
3100
0000
0100
0010
,  // measure 54
0000
0000
0100
0000
1000
0000
2000
0000
0010
0000
0000
0000
3001
1000
0000
1000
,  // measure 55
0000
0001
0100
0200
0001
0000
0320
0100
,  // measure 56
0000
0000
1000
0000
1030
0000
0010
0000
0001
0000
0010
0000
1000
0010
0000
1000
,  // measure 57
0000
0000
0001
0000
0100
0000
0001
0000
1000
0000
0100
0000
1000
0000
0001
0010
,  // measure 58
0100
1000
0001
0000
0010
0000
0100
0010
0000
0000
0100
0000
1000
0100
0000
0100
,  // measure 59
0000
0000
0010
0000
0001
0000
0010
0001
0010
0000
0100
0000
1000
0000
0100
0010
,  // measure 60
0001
1000
0001
0000
0101
0000
0000
0000
0000
0000
0000
0000
0000
0000
0000
0000
;

//---------------dance-single - ----------------
#NOTEDATA:;
#CHARTNAME:X-Scale 11;
#STEPSTYPE:dance-single;
#DESCRIPTION:;
#CHARTSTYLE:;
#DIFFICULTY:Medium;
#METER:8;
#RADARVALUES:0.481466,0.469356,0.073801,0.229604,0.328006,411.000000,402.000000,9.000000,28.000000,0.000000,0.000000,0.000000,0.000000,0.000000,0.481466,0.469356,0.073801,0.229604,0.328006,411.000000,402.000000,9.000000,28.000000,0.000000,0.000000,0.000000,0.000000,0.000000;
#CREDIT:;
#NOTES:
0000
0000
0000
0000
,
0000
0000
0000
0000
,
0000
0000
0000
0000
,
0000
0000
0000
0000
,
1001
0000
1000
0000
0001
0000
1000
0000
0001
0010
0000
0010
0000
0000
0001
0000
,
1000
0000
0010
0000
1000
0000
0010
0000
0100
0000
0100
0001
0000
0000
1000
0000
,
0001
0000
0010
0000
0100
0000
0010
0000
0100
1000
0000
1000
0000
0000
0001
0000
,
0100
0000
0010
0000
0100
0000
0010
0000
1000
0000
0001
1000
0000
0000
0001
0000
,
0010
0000
0000
0100
0000
0000
1000
0000
0001
0100
0000
0100
0000
0000
0010
0000
,
0100
0000
0001
0100
0000
0000
0001
0000
1000
0000
0100
1000
0000
0000
0001
0000
,
0100
0000
0000
0010
0000
0000
1000
0000
0001
0010
0000
0010
0000
0000
0001
0000
,
1000
0000
0010
1000
0000
0000
0001
0000
0100
0000
0010
0100
0000
0000
0001
0000
,
1000
0000
0100
0000
0010
0000
0001
0000
1000
0100
0000
0100
0000
0000
1000
0000
,
0001
0000
0100
0000
0001
0000
1000
0000
0010
0000
0100
0010
0100
0000
0001
0000
,
1000
0000
0100
0000
1000
0000
0001
0000
0010
0100
0000
0100
0000
0000
1000
0000
,
0001
0000
0100
0000
0001
0000
1000
0000
0010
0000
0100
0010
0100
0000
0001
0000
,
1000
0000
0001
0020
0030
0100
2000
3000
,
0001
0020
0030
0100
1000
0001
1000
0000
,
1001
0000
1000
0200
0300
0010
0002
0003
,
1000
0200
0300
0010
0001
1000
0001
0100
,
0001
1000
0001
0000
1100
0000
0000
1000
0000
0000
0001
0000
0010
0001
0000
0001
,
0000
0000
1000
0000
0010
0000
0000
0100
0000
0000
0001
0000
1000
0000
0001
1000
,
0000
0010
0100
1000
0100
0001
0100
0010
,
1000
0000
0002
0100
0000
0100
0003
0001
,
1000
0001
1000
0000
0010
0000
0000
0100
0000
0000
0001
0000
1000
0001
0000
0001
,
0000
0000
0010
0000
0100
0000
1000
0001
0000
0000
1000
0000
0010
0000
0100
0010
,
0000
0000
1000
0000
0001
0000
0000
0010
0000
0000
0001
0000
0100
0010
0000
0010
,
0000
1000
0002
0003
0020
0030
0002
0003
,
2000
0000
0000
0200
3000
0000
0310
0000
,
0001
0000
1000
0000
0001
0000
0020
0000
0000
0000
0000
0000
0130
0000
0010
0100
,
0000
1000
0001
0020
0000
0000
0130
0000
,
1000
0001
1000
0100
0010
0001
1000
0000
,
0001
0000
0000
0000
0011
0000
0000
1001
0000
0000
1000
0000
0100
0000
0000
0000
,
0010
0000
0001
0000
1000
0000
0002
0000
0000
0000
0000
0000
0103
0000
0001
1000
,
0000
0001
0010
0200
0000
0000
1300
0000
,
0100
0010
0001
1000
0100
1000
0100
1000
,
0100
0000
0010
0000
0002
0000
0000
1000
0000
0000
0010
0000
0000
0100
0000
0000
,
0010
0010
1003
0001
0010
0001
0200
0000
,
0320
0000
1030
0100
0010
0001
2000
0000
,
3020
0000
0000
0000
1030
0000
0010
0000
0001
0000
0010
0000
0100
0000
0001
0100
,
0000
0001
1000
0100
0010
0001
0100
0010
,
1000
0000
0001
0100
0010
1000
0100
0010
,
0001
0000
1000
0010
0001
0010
0100
0010
,
0001
0010
0100
0010
1000
0001
0100
0001
,
1000
0100
0010
0000
0110
0000
0000
0100
0010
0000
0001
0000
1000
0001
0000
0001
,
0000
0000
0100
0000
0010
0000
1000
0010
0000
0000
1000
0000
0001
0000
0010
0100
,
0000
0000
0010
0001
0010
0000
0001
0000
1000
0000
0010
0000
1000
0001
0000
0001
,
0000
0010
0200
1000
0000
1000
0300
0100
,
1000
0001
1000
0000
0010
0000
0000
0100
0010
0000
1000
0000
0001
0010
0000
0010
,
0000
0000
0100
0000
1000
0000
0001
1000
0000
0000
0100
0000
0010
0000
1000
0010
,
1000
0000
0100
0000
0010
0000
0000
0001
0100
0000
0001
0000
0010
0100
0000
0100
,
0020
0000
0032
0000
2003
0001
3000
1000
,
0001
0100
0001
0100
0101
0000
0000
1001
0000
0000
1000
0000
0100
1000
0000
1000
,
0000
0000
0001
0000
0100
0000
0020
0000
0000
0000
1000
0000
1030
0000
1000
0100
,
0000
0000
0010
0000
0001
0000
2000
0000
0000
0000
0001
0000
3001
1000
0000
1000
,
0000
0100
0010
0002
0000
1000
1003
0001
,
0010
0100
1000
0000
0001
0000
0000
1000
0000
0000
0001
0000
0010
0001
0000
0001
,
0000
0000
1000
0000
0010
0000
0000
0100
0000
0000
0001
0000
0010
0000
0100
1000
,
0000
0000
0001
0000
1000
0000
0000
0010
0000
0000
0100
0000
0001
0100
0000
0100
,
0000
0000
0010
0000
1000
0000
0000
0100
0000
0000
0010
0000
0001
0000
1000
0001
,
0000
1000
1100
0000
0000
0000
0000
0000
;

//---------------dance-single - ----------------
#NOTEDATA:;
#CHARTNAME:X-Scale 6;
#STEPSTYPE:dance-single;
#DESCRIPTION:;
#CHARTSTYLE:;
#DIFFICULTY:Easy;
#METER:4;
#RADARVALUES:0.320977,0.395247,0.057401,0.213204,0.000000,274.000000,267.000000,7.000000,26.000000,0.000000,0.000000,0.000000,0.000000,0.000000,0.320977,0.395247,0.057401,0.213204,0.000000,274.000000,267.000000,7.000000,26.000000,0.000000,0.000000,0.000000,0.000000,0.000000;
#CREDIT:;
#NOTES:
0000
0000
0000
0000
,
0000
0000
0000
0000
,
0000
0000
0000
0000
,
0000
0000
0000
0000
,
1100
0000
0100
0000
0010
0000
0001
1000
,
0001
0000
0100
0000
0010
0000
1000
0010
,
1000
0000
0100
0000
0010
0000
0001
0010
,
0001
0000
0100
0000
0010
0000
1000
0001
,
1000
0010
0001
0010
,
0100
0000
0010
0000
1000
0000
0001
0010
,
0100
0010
0001
1000
,
0010
0000
0100
0000
0010
0000
1000
0100
,
0010
0001
1000
0001
,
0100
0000
0010
0000
1000
0000
0100
0010
,
0001
1000
0010
0001
,
0010
0000
1000
0000
0001
0000
0010
0100
,
1000
0000
0001
0020
0030
0100
2000
3000
,
0001
0200
0300
0010
1000
0100
0020
0030
,
0101
0001
0010
0100
,
1000
0010
0100
0001
,
0000
0000
1100
1000
0100
1000
0100
0000
,
0010
0000
0001
0100
0001
0100
0001
0000
,
0010
0000
0100
1000
0100
1000
0100
0000
,
1000
0000
0020
1000
0000
1000
0030
1000
,
0100
0010
0001
1000
0001
1000
0001
0000
,
0010
0000
0100
1000
0100
1000
0100
0000
,
0010
0000
0001
0100
0001
0100
0001
0000
,
1000
0000
0200
0300
0200
0300
0200
0300
,
2000
0000
0000
0002
3000
0000
0013
0000
,
0100
0000
1000
0020
0000
0000
0130
0000
,
0010
0000
1000
0200
0000
0000
0301
0000
,
0100
0000
1000
0002
0000
0000
0013
0000
,
0100
0000
0110
0200
0000
0000
1300
0000
,
0100
0000
1000
0002
0000
0000
0013
0000
,
0100
0000
1000
0020
0000
0000
0031
0000
,
0010
0000
0100
0002
0000
0000
1003
0001
,
1000
0001
1000
0000
0100
0000
1000
0000
,
0100
0010
0001
0010
,
0001
1000
0010
1000
,
0010
0100
0001
0100
,
0001
0000
1000
0000
,
0010
0000
1000
0000
,
0001
0000
0010
0000
,
0200
0000
0000
1300
,
0000
0000
1100
0100
1000
0001
1000
0000
,
0010
0100
0001
0010
0100
1000
0001
0000
,
1000
0100
0010
0001
0100
0010
1000
0000
,
0001
0000
0200
0001
0000
0001
0300
1000
,
0100
0010
0001
0100
0001
1000
0001
0000
,
0010
0000
0100
1000
0001
1000
0100
0000
,
0010
0000
0001
0100
0010
0100
0001
0010
,
0200
0300
0200
0300
0200
0300
1000
0001
,
0200
0300
0110
0000
1000
0100
0010
0000
,
0001
0000
1000
0020
0001
0000
0130
0000
,
0010
1000
0001
0020
1000
0000
0031
0000
,
0010
0100
1000
0020
0001
0000
0130
0000
,
0010
1000
0001
0000
0010
0000
0001
0000
,
0010
0100
1000
0100
,
1000
0001
0100
0001
,
0100
0010
1000
0010
,
1000
1001
0000
0000
;

//---------------dance-single - ----------------
#NOTEDATA:;
#CHARTNAME:X-Scale 2;
#STEPSTYPE:dance-single;
#DESCRIPTION:;
#CHARTSTYLE:;
#DIFFICULTY:Beginner;
#METER:2;
#RADARVALUES:0.133545,0.148218,0.016400,0.000000,0.000000,114.000000,112.000000,2.000000,0.000000,0.000000,0.000000,0.000000,0.000000,0.000000,0.133545,0.148218,0.016400,0.000000,0.000000,114.000000,112.000000,2.000000,0.000000,0.000000,0.000000,0.000000,0.000000,0.000000;
#CREDIT:;
#NOTES:
0000
0000
0000
0000
,
0000
0000
0000
0000
,
0000
0000
0000
0000
,
0000
0000
0000
0000
,
1000
0000
0001
0000
,
1000
0000
0001
0000
,
0010
0000
0100
0000
,
0010
0000
0100
0000
,
1000
0000
0010
0000
,
1000
0000
0010
0000
,
0100
0000
0001
0000
,
0100
0000
0001
0000
,
1000
0000
0001
0000
,
1000
0000
0001
0000
,
0010
0000
0100
0000
,
0010
0000
0100
0000
,
1000
0000
0010
0000
,
1000
0000
0010
0000
,
0100
0000
0001
0000
,
0100
0000
0001
0000
,
0000
1001
0000
1000
,
0000
0100
0000
0010
,
0000
0001
0000
1000
,
0000
0100
0000
0010
,
0000
0001
0000
1000
,
0000
0010
0000
0100
,
0000
0001
0000
1000
,
0000
0010
0000
0100
,
0000
0001
0000
1000
,
0000
0001
0000
1000
,
0000
0010
0000
0100
,
0000
0010
0000
0100
,
0000
0001
0000
1000
,
0000
0001
0000
1000
,
0000
0100
0000
0010
,
0000
0100
0000
0010
,
0000
0001
1000
0000
,
1000
0000
0001
0000
,
0001
0000
0100
0000
,
0100
0000
0010
0000
,
0010
0000
1000
0000
,
1000
0000
0001
0000
,
0001
0000
0010
0000
,
0010
0000
0000
0000
,
0000
1001
0000
1000
,
0000
0100
0000
0010
,
0000
0001
0000
1000
,
0000
0100
0000
0010
,
0000
0001
0000
1000
,
0000
0010
0000
0100
,
0000
0001
0000
1000
,
0000
0010
0000
0100
,
0000
0001
0000
1000
,
0000
0001
0000
1000
,
0000
0100
0000
0010
,
0000
0100
0000
0010
,
0000
0001
0000
0100
,
0000
0001
0000
0100
,
0000
0010
0000
1000
,
0000
0010
0000
1000
,
0000
0001
0000
0000
;
