#TITLE:No Problem ft. Lil Wayne & 2 Chainz;
#SUBTITLE:;
#ARTIST:Chance the Rapper;
#TITLETRANSLIT:;
#SUBTITLETRANSLIT:;
#ARTISTTRANSLIT:;
#GENRE:Hip-Hop;
#CREDIT:;
#BANNER:np-bn.png;
#BACKGROUND:np-bg.png;
#LYRICSPATH:;
#CDTITLE:cdtitle.png;
#MUSIC:no problem.ogg;
#OFFSET:-0.013000;
#SAMPLESTART:85.320000;
#SAMPLELENGTH:14.000000;
#SELECTABLE:YES;
#BPMS:0.000000=67.500000
,16.000000=135.000000
,144.000000=67.500000
,160.000000=135.000000
,288.000000=67.500000
;
#STOPS:
;
#BGCHANGES:;
#KEYSOUNDS:;
#ATTACKS:;

//---------------dance-single - ----------------
#NOTES:
     dance-single:
     X-Scale 11:
     Hard:
     8:
     0.524387,0.654215,0.055722,0.195028,0.062688,527.000000,519.000000,8.000000,28.000000,0.000000,0.000000,0.524387,0.654215,0.055722,0.195028,0.062688,527.000000,519.000000,8.000000,28.000000,0.000000,0.000000:
// measure 0
0000
0000
0000
0000
,  // measure 1
0000
0000
0000
0000
0000
0000
0000
0000
0000
0000
0000
0000
0000
0000
0000
0010
,  // measure 2
1000
0000
1000
0000
0001
0010
0100
0010
0001
0000
0001
0000
1000
0100
0001
0100
,  // measure 3
1000
0000
1000
0000
1000
0100
1000
0000
0001
0000
0100
0000
0001
0100
0001
0000
,  // measure 4
1001
0000
1000
0010
1000
0000
0010
0100
,  // measure 5
0010
0001
0010
0100
0010
0000
1000
0100
,  // measure 6
0001
0000
0100
0010
0001
0000
0001
0010
,  // measure 7
0100
1000
0100
0010
0001
0010
0010
0010
,  // measure 8
0010
0100
0010
0100
1000
0000
0001
1000
,  // measure 9
0100
1000
0001
0100
0010
0000
0100
0001
,  // measure 10
1000
0100
0010
0100
1000
0010
0001
0010
,  // measure 11
1000
0100
0010
0001
2000
3100
2000
3010
,  // measure 12
1000
0000
0100
0010
0001
0000
1000
0010
,  // measure 13
0001
0010
0100
0010
1000
0000
0100
0010
,  // measure 14
0100
0000
1000
0100
0010
0000
0001
0100
,  // measure 15
1000
0100
0001
0010
0001
0100
0100
0100
,  // measure 16
0100
0001
1000
0100
1000
0000
0001
0100
,  // measure 17
0010
1000
0100
0010
0001
0000
1000
0001
,  // measure 18
1000
0100
0010
0100
1000
0010
0001
0010
,  // measure 19
1000
0100
1000
0001
0200
0310
0200
0310
,  // measure 20
0120
0000
0130
0010
0001
0010
1000
0010
,  // measure 21
0100
1000
0100
0010
1000
0000
0001
1000
,  // measure 22
0001
0100
0010
1000
0100
0010
0100
1000
,  // measure 23
0001
1000
0100
0010
0001
0010
0200
0310
,  // measure 24
0110
0100
0010
0001
1000
0100
0001
0100
,  // measure 25
1000
0010
0100
0001
0010
0000
0001
1000
,  // measure 26
0100
1000
0010
0100
0001
0010
0100
1000
,  // measure 27
0010
0100
0010
1000
0100
1000
0002
0003
,  // measure 28
1002
0000
0013
0001
0010
0001
0010
0100
,  // measure 29
1000
0010
1000
0100
1000
0001
0100
0001
,  // measure 30
0200
0000
0301
0100
0001
0100
0010
0001
,  // measure 31
0010
1000
0100
1000
0010
0100
0001
0100
,  // measure 32
0020
0000
1030
0010
1000
0000
0100
0000
,  // measure 33
0010
0000
0001
0010
0001
0000
0010
0100
,  // measure 34
1000
0000
0010
1000
0001
0000
0010
0000
,  // measure 35
0100
0000
1000
0100
0010
0100
1000
0001
,  // measure 36
1000
0000
0100
0000
1000
0000
0010
0100
0010
0000
1000
0100
1000
0000
0001
0000
,  // measure 37
0010
0000
0100
0000
0010
0000
0001
0100
0001
0010
0100
1000
0001
0000
1000
0001
,  // measure 38
1000
0000
0100
0000
0010
0100
0010
0001
0010
0000
0100
0000
1000
0010
0001
0010
,  // measure 39
0100
0000
0001
0000
1000
0001
1000
0000
0100
0000
0010
0000
0001
0000
0001
0000
,  // measure 40
1001
0000
0100
0001
1000
0000
0010
0100
,  // measure 41
1000
0100
0010
0100
0002
0003
0001
0100
,  // measure 42
0001
0000
0010
0100
1000
0000
1000
0010
,  // measure 43
0001
0010
1000
0100
0010
0001
0001
0001
,  // measure 44
0001
0010
1000
0010
0100
1000
0100
0010
,  // measure 45
0001
1000
0010
0100
0002
0000
2003
0001
,  // measure 46
3001
1000
0001
0010
0001
0010
0200
2300
,  // measure 47
3010
0100
0010
1000
0200
0301
0200
1300
,  // measure 48
1100
0000
1000
0100
1000
0000
0001
1000
,  // measure 49
0100
0010
0100
1000
0001
0010
0100
0010
,  // measure 50
0001
0000
1000
0100
1000
0000
1000
0010
,  // measure 51
0100
0010
1000
0020
0000
1000
1000
1000
,  // measure 52
1030
0010
0001
0010
0100
0000
0001
0010
,  // measure 53
1000
0010
0100
1000
0020
0000
0230
0000
,  // measure 54
0301
0100
0001
0010
0100
1000
0010
0100
,  // measure 55
0001
0010
0001
1000
0200
0310
0200
0310
,  // measure 56
0110
0010
0001
1000
0001
0010
0100
1000
,  // measure 57
0001
0100
0010
0100
0001
0000
0002
0023
,  // measure 58
0031
0010
1000
0010
0100
1000
0010
0100
,  // measure 59
0001
0010
0100
2000
0000
0000
3100
1000
,  // measure 60
0100
0010
1000
0010
0001
0100
0001
0010
,  // measure 61
0100
1000
0010
0200
0000
0000
0301
0100
,  // measure 62
0001
0010
0100
0010
0001
1000
0100
1000
,  // measure 63
0010
0100
0001
0010
0100
0010
0100
0010
,  // measure 64
0110
0000
0100
1000
0100
0000
1000
0100
,  // measure 65
0001
0100
1000
0100
0010
0001
0100
0001
,  // measure 66
0010
0000
1000
0010
0001
0000
0100
0010
,  // measure 67
1000
0001
0010
0100
1000
0010
0010
0010
,  // measure 68
0010
0000
1000
0001
0100
0000
0010
0000
,  // measure 69
1000
0000
0001
0010
0001
0000
0100
0001
,  // measure 70
1000
0000
0100
1000
0010
0000
0100
0000
,  // measure 71
0001
0100
1000
0100
0010
0000
0100
0010
,  // measure 72
0200
0320
0030
0000
0000
0000
0000
0000
;

//---------------dance-single - ----------------
#NOTES:
     dance-single:
     X-Scale 8:
     Medium:
     6:
     0.410952,0.528404,0.034826,0.376126,0.013931,413.000000,408.000000,5.000000,54.000000,0.000000,0.000000,0.410952,0.528404,0.034826,0.376126,0.013931,413.000000,408.000000,5.000000,54.000000,0.000000,0.000000:
// measure 0
0000
0000
0000
0000
,  // measure 1
0000
0000
0000
0000
,  // measure 2
0001
0000
0001
0000
1000
0000
0100
0000
1000
0000
1000
0000
0001
0100
0001
0000
,  // measure 3
0010
1000
0010
0001
0010
0100
1000
1000
,  // measure 4
1010
0000
0001
1000
0001
0000
0010
0000
,  // measure 5
0100
0000
0010
0001
1000
0000
0010
0100
,  // measure 6
0001
0000
1000
0010
1000
0000
0001
0000
,  // measure 7
0100
0000
0010
0000
1000
0100
1000
0100
,  // measure 8
1000
0000
0010
1000
0001
0000
1000
0000
,  // measure 9
0010
0000
1000
0100
0010
0000
0010
0100
,  // measure 10
1000
0000
0001
0001
2000
0000
3020
0000
,  // measure 11
0032
0000
0023
0000
2030
0000
3020
1000
,  // measure 12
1030
0000
0010
1000
0010
0000
1000
0000
,  // measure 13
0001
0000
0100
0010
0100
0000
0001
0001
,  // measure 14
0100
0000
0001
0100
0010
0000
1000
0000
,  // measure 15
0010
0000
0100
0000
0001
0010
0001
0010
,  // measure 16
0001
0000
1000
0010
1000
0000
0001
0000
,  // measure 17
0010
0000
0001
1000
0100
0000
0100
1000
,  // measure 18
0001
0000
0100
0010
0200
0000
0302
0000
,  // measure 19
2003
0000
3200
0000
0320
0000
0032
0100
,  // measure 20
0203
0000
0000
0301
0100
0000
0001
0010
,  // measure 21
0100
1000
0100
0010
0001
0000
1000
0000
,  // measure 22
0001
0000
1000
0100
1000
0000
0001
0010
,  // measure 23
0001
1000
0100
0010
0001
0000
0002
0003
,  // measure 24
0011
0000
0000
1000
0001
0000
0001
0010
,  // measure 25
0100
0010
0001
1000
0010
0000
0010
1000
,  // measure 26
0010
1000
0200
0000
0320
0000
0230
0000
,  // measure 27
2300
3002
0203
0320
,  // measure 28
2030
0000
3000
0010
1000
0000
1000
0010
,  // measure 29
0001
0010
1000
0100
1000
0001
0100
0001
,  // measure 30
0100
0000
0010
1000
0001
0000
0100
0010
,  // measure 31
0100
1000
0100
0001
1000
0010
0100
0001
,  // measure 32
1000
0000
0100
0010
0100
0000
0010
0000
,  // measure 33
0001
0000
1000
0001
1000
0000
0010
1000
,  // measure 34
0001
0000
0100
0010
0200
0000
0302
0000
,  // measure 35
2003
3200
0302
0203
,  // measure 36
2300
0000
3001
0100
1000
0100
0001
0010
,  // measure 37
0001
0100
0001
0010
0100
0010
0001
1000
,  // measure 38
0001
0000
1000
0000
0100
0000
0010
0001
0010
0000
0001
0000
1000
0000
0100
0010
,  // measure 39
0100
0000
1000
0000
0001
1000
0001
0000
0010
0000
0100
0000
1000
0000
1000
0000
,  // measure 40
1001
0000
0001
0010
0100
0000
0010
0000
,  // measure 41
0001
1000
0010
1000
0002
0003
0001
0010
,  // measure 42
0001
0000
0010
0100
1000
0000
0100
0000
,  // measure 43
0010
0001
1000
0001
0000
1000
0100
1000
,  // measure 44
0100
0000
0010
0100
0010
0000
0001
0010
,  // measure 45
0001
0000
0010
0100
1000
0000
0100
1000
,  // measure 46
0100
0000
0010
0001
0020
0000
0230
0000
,  // measure 47
0320
0000
0031
0010
0100
0000
1000
0100
,  // measure 48
1000
0000
0001
0100
0001
0000
1000
0000
,  // measure 49
0100
0010
0100
0020
0001
0000
0001
0001
,  // measure 50
0031
0000
0010
0001
1000
0000
0010
0000
,  // measure 51
0100
0010
1000
0000
0001
0010
0001
0010
,  // measure 52
0001
0000
1000
0100
0010
0000
0100
0010
,  // measure 53
0001
0000
1000
0010
0100
0000
0010
0000
,  // measure 54
0100
0000
0001
0100
0002
0000
0023
0000
,  // measure 55
0032
0000
1003
0100
1000
0000
0100
0000
,  // measure 56
0200
1000
0010
1000
,  // measure 57
0010
0000
1300
0100
0010
0000
0002
0023
,  // measure 58
0001
1000
0001
1000
,  // measure 59
0031
0010
0100
2000
0000
0000
3100
1000
,  // measure 60
1100
0000
1000
0000
0100
0000
0010
0100
,  // measure 61
1000
0100
0010
0001
0100
0000
0001
0000
,  // measure 62
0100
0000
0001
1000
0001
0000
0010
0000
,  // measure 63
0100
0010
0100
1000
0100
0000
1000
0000
,  // measure 64
1100
0000
1000
0001
1000
0000
0001
0100
,  // measure 65
0001
0000
1000
0100
1000
0000
0010
0100
,  // measure 66
0001
0000
0010
0100
1000
0000
0001
0010
,  // measure 67
0001
0000
1000
0000
0100
0010
0100
0010
,  // measure 68
0100
2000
3200
0320
,  // measure 69
0032
0000
1003
0001
0020
0000
0130
0010
,  // measure 70
0200
2300
3002
0023
,  // measure 71
1030
0010
0001
0010
0200
0000
0320
0000
,  // measure 72
0032
0023
0030
0000
0000
0000
0000
0000
;

//---------------dance-single - ----------------
#NOTES:
     dance-single:
     X-Scale 5:
     Easy:
     3:
     0.320403,0.325976,0.013931,0.459709,0.000000,322.000000,320.000000,2.000000,66.000000,0.000000,0.000000,0.320403,0.325976,0.013931,0.459709,0.000000,322.000000,320.000000,2.000000,66.000000,0.000000,0.000000:
// measure 0
0000
0000
0000
0000
,  // measure 1
0000
0000
0000
0000
,  // measure 2
1000
0000
0100
0000
1000
0010
1000
0000
,  // measure 3
0001
0000
0010
0100
0010
0000
0001
0001
,  // measure 4
0011
0001
0100
0010
,  // measure 5
1000
0000
0100
0000
0010
0000
0001
0100
,  // measure 6
0001
0010
0001
1000
,  // measure 7
0001
0010
0100
0100
,  // measure 8
0100
1000
0010
1000
,  // measure 9
0100
0000
0010
0000
0001
0000
0010
0100
,  // measure 10
0020
0032
2003
3200
,  // measure 11
2300
3020
0230
0302
,  // measure 12
0013
0001
1000
0001
,  // measure 13
0010
0000
0100
0000
1000
0000
0010
1000
,  // measure 14
0010
0100
0001
1000
,  // measure 15
0100
1000
0010
0010
,  // measure 16
0010
0100
0001
0010
,  // measure 17
0100
1000
0010
0100
,  // measure 18
0002
0023
2030
3020
,  // measure 19
0032
0203
0320
2030
,  // measure 20
3200
0000
0000
1300
0100
0000
1000
0000
,  // measure 21
0010
0000
0001
0010
1000
0000
0010
0100
,  // measure 22
0002
0000
0000
0013
0001
0000
1000
0000
,  // measure 23
0100
0000
0001
0100
1000
0000
0010
0100
,  // measure 24
0020
0000
0000
0130
0010
0000
1000
0000
,  // measure 25
0001
0000
0010
0001
1000
0000
0100
0010
,  // measure 26
0200
2300
3002
2003
,  // measure 27
3020
0032
0203
0320
,  // measure 28
0032
0000
0000
0013
0001
0000
1000
0000
,  // measure 29
0100
0000
1000
0010
1000
0000
0001
0010
,  // measure 30
0002
0000
0000
0103
0001
0000
0010
0000
,  // measure 31
0100
0000
1000
0000
0010
0100
0010
0000
,  // measure 32
2000
0000
0000
3100
1000
0000
0001
0000
,  // measure 33
1000
0000
0100
0010
0001
0000
0100
0001
,  // measure 34
0200
0320
2030
3002
,  // measure 35
0023
2030
3020
0032
,  // measure 36
1003
0000
0001
0000
0010
0100
0010
0000
,  // measure 37
0001
0000
1000
0100
1000
0000
0010
0000
,  // measure 38
0100
0000
0001
0000
0010
0100
0010
0000
,  // measure 39
0001
0000
1000
0010
1000
0000
0100
0100
,  // measure 40
1100
1000
0100
0010
,  // measure 41
0100
0000
1000
0001
1000
0000
0001
1000
,  // measure 42
0001
0010
0100
0010
,  // measure 43
0001
0000
1000
0100
0010
0000
0010
0000
,  // measure 44
0010
0000
0001
0100
0001
0000
0010
0000
,  // measure 45
1000
0000
0010
0001
0020
0000
0230
0000
,  // measure 46
2300
3020
0032
0023
,  // measure 47
2030
3200
0320
0230
,  // measure 48
0310
0100
1000
0001
,  // measure 49
1000
0000
0100
0010
0100
0000
0010
0100
,  // measure 50
0010
0001
1000
0010
,  // measure 51
0100
0000
0001
0100
0010
0000
0010
0000
,  // measure 52
0010
0001
0010
1000
,  // measure 53
0100
0000
1000
0100
0010
0000
0001
0010
,  // measure 54
0200
0320
0032
2003
,  // measure 55
3200
2300
3020
0230
,  // measure 56
0302
0000
0100
0000
,  // measure 57
0013
0000
0001
1000
0001
0000
1000
0100
,  // measure 58
2000
0000
0010
0000
,  // measure 59
3100
0000
1000
0010
1000
0000
0100
0000
,  // measure 60
0010
0001
1000
0001
,  // measure 61
0010
0100
1000
0100
0010
0000
0010
0000
,  // measure 62
0001
0100
0010
1000
,  // measure 63
0100
0010
0001
0010
0100
0000
0100
0000
,  // measure 64
1000
0100
1000
0001
,  // measure 65
0010
0000
0001
1000
0100
0000
0010
0001
,  // measure 66
1000
0010
0100
0001
,  // measure 67
0010
0000
0100
0010
1000
0000
1000
0000
,  // measure 68
1000
0100
1000
0001
,  // measure 69
0010
0000
0100
0010
0100
0000
0100
0000
,  // measure 70
2000
3200
0302
0203
,  // measure 71
2300
3020
0230
0302
,  // measure 72
0013
0000
0000
0000
;

//---------------dance-single - ----------------
#NOTES:
     dance-single:
     X-Scale 2:
     Beginner:
     2:
     0.183088,0.200600,0.000000,0.000000,0.000000,184.000000,184.000000,0.000000,0.000000,0.000000,0.000000,0.183088,0.200600,0.000000,0.000000,0.000000,184.000000,184.000000,0.000000,0.000000,0.000000,0.000000:
// measure 0
0000
0000
0000
0000
,  // measure 1
0000
0000
0000
0000
,  // measure 2
0001
0000
0000
0100
0000
0000
0010
0000
,  // measure 3
1000
0000
0001
0000
0000
1000
1000
0000
,  // measure 4
0010
0000
0100
0100
,  // measure 5
0000
0001
0001
0000
,  // measure 6
1000
0000
0100
0100
,  // measure 7
0000
0010
0010
0000
,  // measure 8
0001
0000
1000
1000
,  // measure 9
0000
0010
0010
0100
,  // measure 10
0010
0000
1000
1000
,  // measure 11
0000
0001
0001
0100
,  // measure 12
0001
0000
0010
0010
,  // measure 13
0000
0100
0100
0000
,  // measure 14
1000
0000
0001
0001
,  // measure 15
0000
0100
0100
0000
,  // measure 16
0010
0000
1000
1000
,  // measure 17
0000
0001
0001
0010
,  // measure 18
0001
0000
1000
1000
,  // measure 19
0000
0100
0100
0010
,  // measure 20
0100
0000
1000
1000
,  // measure 21
0000
0001
0001
0000
,  // measure 22
0010
0000
0100
0100
,  // measure 23
0000
0010
0010
0000
,  // measure 24
0001
0000
1000
1000
,  // measure 25
0000
0100
0100
0000
,  // measure 26
1000
0000
0010
0010
,  // measure 27
0000
0100
0100
0000
,  // measure 28
0001
0000
0010
0010
,  // measure 29
0000
0100
0100
0000
,  // measure 30
1000
0000
0010
0010
,  // measure 31
0000
0100
0100
0000
,  // measure 32
0001
0000
0010
0010
,  // measure 33
0001
0000
1000
1000
,  // measure 34
0100
0000
0010
0010
,  // measure 35
0000
0100
0100
0000
,  // measure 36
1000
0000
0100
0000
,  // measure 37
0010
0000
0100
0000
,  // measure 38
1000
0000
0001
0000
,  // measure 39
0100
0000
0010
0000
,  // measure 40
0100
0000
1000
1000
,  // measure 41
0000
0001
0001
0000
,  // measure 42
0010
0000
0100
0100
,  // measure 43
0000
0010
0010
0000
,  // measure 44
0001
0000
1000
1000
,  // measure 45
0000
0010
0010
0100
,  // measure 46
0010
0000
1000
1000
,  // measure 47
0000
0100
0100
0010
,  // measure 48
0100
0000
1000
1000
,  // measure 49
0000
0001
0001
0000
,  // measure 50
0010
0000
0100
0100
,  // measure 51
0000
0010
0010
0000
,  // measure 52
0001
0000
0100
0100
,  // measure 53
0000
0010
0010
1000
,  // measure 54
0001
0000
0010
0010
,  // measure 55
0000
0100
0100
1000
,  // measure 56
0100
0000
0010
0000
,  // measure 57
0100
0000
1000
0000
,  // measure 58
0001
0000
0100
0000
,  // measure 59
0001
0000
0010
0000
,  // measure 60
0100
0000
0010
0010
,  // measure 61
0000
0001
0001
0000
,  // measure 62
1000
0000
0100
0100
,  // measure 63
0000
0010
0010
0000
,  // measure 64
0001
0000
0100
0100
,  // measure 65
0000
0010
0010
0000
,  // measure 66
1000
0000
0100
0100
,  // measure 67
0000
0010
0010
0000
,  // measure 68
0001
0000
0100
0100
,  // measure 69
0010
0000
1000
1000
,  // measure 70
0001
0000
0100
0000
,  // measure 71
0010
0000
1000
1000
,  // measure 72
0100
0000
0000
0000
;
