#VERSION:0.83;
#TITLE:Nightmares;
#SUBTITLE:;
#ARTIST:Chris Lorenzo;
#TITLETRANSLIT:;
#SUBTITLETRANSLIT:;
#ARTISTTRANSLIT:;
#GENRE:UK Bass House;
#ORIGIN:;
#CREDIT:;
#BANNER:nightmares-bn.png;
#BACKGROUND:nightmares-bg.png;
#PREVIEWVID:;
#JACKET:nightmares-jacket.png;
#CDIMAGE:;
#DISCIMAGE:;
#LYRICSPATH:;
#CDTITLE:cdtitle.png;
#MUSIC:nightmares.ogg;
#OFFSET:0.000000;
#SAMPLESTART:44.651001;
#SAMPLELENGTH:14.850000;
#SELECTABLE:YES;
#DISPLAYBPM:129.000000;
#BPMS:0.000=129.000,
92.000=32.250,
93.000=129.000,
120.000=64.500,
121.000=129.000;
#STOPS:;
#DELAYS:;
#WARPS:;
#TIMESIGNATURES:0.000=4=4;
#TICKCOUNTS:0.000=4;
#COMBOS:0.000=1;
#SPEEDS:0.000=1.000=0.000=0;
#SCROLLS:0.000=1.000;
#FAKES:;
#LABELS:0.000=Song Start;
#BGCHANGES:;
#KEYSOUNDS:;
#ATTACKS:
;

//---------------dance-single - ----------------
#NOTEDATA:;
#CHARTNAME:;
#STEPSTYPE:dance-single;
#DESCRIPTION:;
#CHARTSTYLE:;
#DIFFICULTY:Hard;
#METER:9;
#RADARVALUES:0.536459,0.606530,0.135019,0.067509,0.270038,445.000000,429.000000,16.000000,8.000000,0.000000,0.000000,1.000000,0.000000,0.000000,0.536459,0.606530,0.135019,0.067509,0.270038,445.000000,429.000000,16.000000,8.000000,0.000000,0.000000,1.000000,0.000000,0.000000;
#CREDIT:;
#DISPLAYBPM:129.000000;
#NOTES:
0000
0000
0000
0000
,
0000
0000
0000
0000
,
0000
0000
0000
0000
,
0000
0000
0000
0000
,
1000
0100
1000
0100
0010
0100
0010
0001
,
0010
0001
1000
0001
1000
0010
1000
0010
,
0100
0010
0100
0001
0100
0001
1000
0001
,
1000
0001
1000
0100
1000
0000
0010
0000
,
0110
0000
0000
0000
0001
0000
0010
0001
0010
0000
0000
0000
0001
0000
1000
0000
,
0001
0000
0000
0000
1000
0000
0100
1000
0010
0000
0000
0000
0100
0000
0001
0000
,
0010
0000
0000
0000
0001
0000
0100
0001
0100
0000
0000
0000
0010
0000
1000
0000
,
0100
0000
0000
0000
0010
0000
0001
0010
0100
0000
0000
0000
0010
0000
0001
0000
,
0010
0000
0000
0000
0100
0000
1000
0100
1000
0000
0000
0000
0001
0000
0100
0000
,
0001
0000
0000
0000
1000
0000
0010
1000
0100
0000
0000
0000
1000
0000
0010
0000
,
0100
0000
0000
0000
0001
0000
1000
0100
0010
0000
0000
0000
0100
0000
1000
0000
,
0001
0000
0000
0000
0010
0000
0100
0010
0100
0000
0000
0000
0001
0000
1000
0000
,
0001
0000
0000
0000
0100
0000
0010
0100
0000
0100
0000
0000
0001
0000
1000
0000
,
0001
0000
0000
0000
0100
0000
0010
1000
0000
1000
0000
0000
0001
0000
0100
0000
,
0001
0000
0000
0000
1000
0000
0001
0010
0000
0010
0000
0000
1000
0000
0100
0000
,
0010
0000
0000
0000
0010
0000
0100
0001
0000
0001
0000
0000
0001
0000
1000
0000
,
0010
0000
0000
0000
0010
0000
0100
0001
0000
0001
0000
0000
1000
0000
0001
0000
,
0010
0000
0000
0000
0100
0000
0010
1000
0000
1000
0000
0000
0001
0000
0100
0000
,
2004
0000
0000
0000
,
3003
0000
1010
0000
0100
0010
0100
1000
,
0100
0000
0000
0100
0010
0000
0001
0000
0010
0000
0000
1000
0010
0000
0000
0000
,
1010
0000
2000
3000
1100
0100
0010
0001
,
0010
0000
0000
0010
0001
0000
1000
0000
0100
0000
0000
0100
1000
0000
0000
0000
,
0001
0010
0100
0000
0110
0010
0001
0100
,
0001
0000
0000
0001
1000
0000
0010
0000
0100
0000
0000
0001
0100
0000
0000
0000
,
0002
0000
0000
0000
0100
0000
0000
0100
0103
0000
0001
0000
1000
0000
0010
0000
,
0100
0000
0001
0000
0000
0000
0000
0001
0100
0000
0000
0000
0001
0000
0000
0000
1000
0000
0000
0000
0010
0000
0000
0000
0010
0100
0010
0100
0010
0000
0000
0000
,
0110
0000
0010
0000
0100
0000
0010
0000
0100
0000
0001
0000
0100
0000
0001
0100
,
0010
0000
0100
0000
0001
0000
0000
0001
1000
0000
0001
0000
1000
0000
0001
0000
,
2000
0000
3000
0000
1000
0000
0100
0000
0001
0000
0100
0000
1000
0000
0100
1000
,
0001
0000
0100
0000
0010
0000
0000
0010
0100
0000
0001
0000
0010
0000
0001
0000
,
0010
0000
0000
0000
0001
0000
1000
0000
0100
0000
0010
0000
0001
0000
0100
0010
,
1000
0000
0010
0000
0100
0000
0000
0010
1000
0000
0000
0000
0010
0000
0100
0000
,
0010
0000
0000
0100
0010
0000
0100
0000
0000
0000
0100
0000
0001
1000
0000
0000
,
1000
0000
1000
0010
1000
0000
0200
0000
,
1300
0000
0000
0000
0001
0000
0100
0000
0001
0000
0010
0000
0100
0000
0000
0100
,
1000
0000
0010
0000
0100
0000
0000
0001
0100
0000
0000
0000
0101
0000
0000
0000
,
0001
0000
0000
0000
0010
0000
1000
0000
0100
0000
0001
0000
0010
0000
0000
0001
,
0100
0000
0010
0000
0100
0000
0000
0100
0001
0000
0000
0000
1000
0000
0100
0000
,
0010
0000
0000
0000
0010
0000
0100
0000
0010
0000
0001
0000
0010
0000
0000
0001
,
0010
0000
0001
0000
1000
0000
0000
0010
1000
0000
0000
0000
0200
0000
0000
0000
,
1300
0000
1000
0010
1000
0010
1000
0010
,
1010
0000
0000
0000
0000
0000
1000
0000
0010
0000
0000
0000
1000
0000
0000
0000
0001
0000
0000
0000
0100
0000
0000
0000
0010
0100
0010
0100
0010
0000
0000
0000
,
0110
0000
0100
0000
0001
0000
0100
0000
0001
0000
0100
0000
0010
0000
0100
0010
,
0100
0000
0001
0000
1000
0000
0001
0100
0001
0000
0000
0000
0001
0000
1000
0000
,
0001
0000
0000
0000
1000
0000
0100
0000
0010
0000
0100
0000
1000
0000
0001
1000
,
0001
0000
0010
0000
0001
0000
1000
0100
1000
0000
0010
0000
0100
0000
0010
0000
,
1000
0000
0000
0000
1000
0000
0010
0000
0100
0000
0010
0000
1000
0000
0001
0100
,
0001
0000
0100
0000
0010
0000
1000
0001
1000
0000
0000
0000
0100
0000
0100
0000
,
0110
0000
0000
0100
0010
0000
0100
0000
0000
0000
0100
0000
0002
0100
0000
0000
,
0013
0000
0000
0000
0000
0000
0000
0000
0001
0000
0000
0000
1000
0000
0000
0000
0001
0000
0000
0000
0000
0000
0000
0000
0100
0010
0100
0010
0100
0000
0000
0000
,
0110
0000
0010
0000
0100
0000
0010
0000
1000
0000
0010
0000
0100
0000
0010
0100
,
0001
0001
0100
0001
1000
0001
0100
0001
,
1000
0000
0010
0000
1000
0000
0001
0000
1000
0000
0010
0000
1000
0000
0001
0010
,
0100
0010
0100
0001
0100
0010
0200
0000
,
1300
0000
0100
0000
1000
0000
0010
0000
1000
0000
0100
0000
1000
0000
0100
0010
,
0001
0100
0001
0010
0001
0100
0001
0010
,
0011
0000
0100
0000
0001
1000
0001
0000
,
0110
1001
0110
0000
;

//---------------dance-single - ----------------
#NOTEDATA:;
#CHARTNAME:;
#STEPSTYPE:dance-single;
#DESCRIPTION:;
#CHARTSTYLE:;
#DIFFICULTY:Easy;
#METER:3;
#RADARVALUES:0.224228,0.290079,0.016877,0.126580,0.000000,186.000000,184.000000,2.000000,15.000000,0.000000,0.000000,0.000000,0.000000,0.000000,0.224228,0.290079,0.016877,0.126580,0.000000,186.000000,184.000000,2.000000,15.000000,0.000000,0.000000,0.000000,0.000000,0.000000;
#CREDIT:;
#DISPLAYBPM:129.000000;
#NOTES:
0000
0000
0000
0000
,
0000
0000
0000
0000
,
0000
0000
0000
0000
,
0000
0000
0000
0000
,
1000
0000
0010
0000
,
0100
0000
0001
0000
,
0100
0000
0010
0000
,
1000
0000
0000
0100
,
0000
0000
1000
0000
,
0001
0000
0001
0000
,
0100
0000
0010
0000
,
0100
0000
1000
0000
,
0010
0000
0100
0000
,
0001
0000
0001
0000
,
0100
0000
0100
0000
,
0001
0000
1000
1000
,
2000
0100
0000
0010
,
0000
0001
0000
0010
,
0000
0100
0000
0010
,
0000
0001
0000
0010
,
3000
1000
0000
0010
,
0000
0100
0000
0001
,
0200
0000
0000
0000
,
0300
0110
0100
0000
,
0010
0000
0100
0001
,
0100
0020
1030
0000
,
0010
0000
0100
0001
,
0100
0100
0100
0000
0001
0000
0000
0000
,
1000
0000
0100
0001
,
0020
0000
0000
0000
0130
0000
0010
0100
,
0001
0000
0001
1000
0100
0000
2000
0000
,
3010
1000
0001
0010
,
1000
0100
0010
0100
,
0002
1003
0001
0010
,
0100
0000
0010
0000
0001
0000
0100
0100
,
0100
0001
0100
0001
,
1000
0100
1000
0001
,
0010
0100
1000
0200
,
0300
0000
0001
0001
0001
0000
0200
0000
,
0301
0001
0000
1000
,
0000
0010
0000
0100
,
0200
0310
0100
0000
,
0001
0000
0000
0000
1000
0000
0010
0010
,
0010
1000
0000
0001
,
0000
0010
0000
0002
,
0013
0000
0001
0000
1000
1000
1000
0000
,
0010
0000
0001
0001
0001
0000
0020
0000
,
0130
0001
1000
0010
,
0100
0001
0010
0100
,
2000
3100
1000
0001
,
0010
0000
1000
0000
0100
0000
0001
0001
,
0001
1000
0010
0100
,
0001
0010
0100
0010
,
0001
0000
1000
0000
0010
0010
0020
0000
,
1030
0000
0100
0100
0100
0000
0002
0000
,
0103
0001
0000
1000
,
0010
0100
0000
0001
,
0010
0001
0000
1000
,
0010
0100
0000
0200
,
0310
1000
0000
0001
,
0010
0100
0000
1000
,
0100
0010
0000
0001
,
0100
0010
0110
0000
;

//---------------dance-single - ----------------
#NOTEDATA:;
#CHARTNAME:;
#STEPSTYPE:dance-single;
#DESCRIPTION:;
#CHARTSTYLE:;
#DIFFICULTY:Medium;
#METER:6;
#RADARVALUES:0.333930,0.369192,0.016877,0.101264,0.059071,277.000000,275.000000,2.000000,12.000000,0.000000,0.000000,3.000000,0.000000,0.000000,0.333930,0.369192,0.016877,0.101264,0.059071,277.000000,275.000000,2.000000,12.000000,0.000000,0.000000,3.000000,0.000000,0.000000;
#CREDIT:;
#DISPLAYBPM:129.000000;
#NOTES:
0000
0000
0000
0000
,
0000
0000
0000
0000
,
0000
0000
0000
0000
,
0000
0000
0000
0000
,
1000
0100
0010
0100
,
1000
0100
0001
0100
,
1000
0001
0010
0100
,
0010
0001
0010
1000
,
0010
0001
1000
0000
,
0001
0010
0001
0000
,
1000
0100
1000
0000
,
0100
1000
0001
0000
,
0010
1000
0100
0000
,
0001
1000
0100
0000
,
0010
0100
1000
0000
,
0001
1000
0010
1000
,
0001
0000
0000
0000
0100
0000
0000
0100
0000
0100
0000
0000
0001
0000
0000
0000
,
1000
0000
0000
0000
0010
0000
0000
0010
0000
0010
0000
0000
1000
0000
0000
0000
,
0010
0000
0000
0000
0100
0000
0000
0100
0000
0100
0000
0000
0010
0000
0000
0000
,
1000
0000
0000
0000
0010
0000
0000
0010
0000
0010
0000
0000
1000
0000
0000
0000
,
0001
0000
0000
0000
0100
0000
0000
0100
0000
0100
0000
0000
0001
0000
0000
0000
,
1000
0000
0000
0000
0010
0000
0000
0010
0000
0010
0000
0000
2000
0000
0000
0000
,
0002
0000
0000
0000
,
3003
1001
1000
0100
,
0010
0000
0100
0010
0100
0000
0001
0000
,
0001
0002
1003
0001
,
0010
0000
0100
1000
0100
0000
0010
0000
,
1000
0100
0010
0000
1000
0000
0001
0000
,
0010
0000
0100
1000
0010
0000
1000
0000
,
0002
0000
0100
0000
0103
0001
1000
0001
,
0100
0000
0001
0100
0001
0000
4000
0000
,
3010
0000
1000
0100
1000
0100
1000
0000
,
0001
0100
0001
0000
0010
0000
0100
0000
,
0200
0000
1300
0100
0010
0100
0010
0000
,
0001
1000
0010
0000
0100
0000
0001
0100
,
0001
0000
1000
0010
0100
0010
1000
0000
,
0001
1000
0100
0000
1000
0000
0001
0001
,
0001
0000
0000
0001
0100
0000
0100
0000
0000
0000
0100
0000
0002
0000
0000
0000
,
1003
0000
0001
1000
0001
0000
0200
0000
,
0301
0001
0100
0010
,
1000
0100
0010
0000
0100
0000
1000
0000
,
0002
0013
0001
1000
,
0001
0010
0100
0000
0010
0000
1000
0100
,
0010
1000
0001
0100
,
0001
0100
0010
0000
1000
0000
2000
0000
,
3010
0000
1000
0001
1000
0100
0010
0001
,
0010
0000
0001
0001
0001
0000
0004
0000
,
1003
0000
0001
0100
1000
0010
0001
0000
,
0100
0001
0100
0000
0010
0000
1000
0000
,
2000
0000
3001
1000
0100
0010
0001
0000
,
0010
0100
1000
0000
0100
0000
0001
0010
,
0100
0000
0001
1000
0100
0010
0100
0000
,
1000
0100
0010
0000
0100
0000
0010
0001
,
0010
0000
0000
0000
0001
0000
1000
0000
0010
0000
0100
0000
0002
0100
0000
0000
,
0103
0000
0100
0001
1000
0000
0004
0000
,
0103
0001
1000
0100
,
0010
0100
1000
0001
,
0010
0001
0100
0010
,
1000
0100
0010
0200
,
0310
0100
1000
0001
,
0010
0100
0010
0001
,
1000
0000
0010
0000
0100
0100
0001
0000
,
0001
0001
0101
0000
;
