#VERSION:0.83;
#TITLE:Night of Core;
#SUBTITLE:;
#ARTIST:Kobaryo;
#TITLETRANSLIT:;
#SUBTITLETRANSLIT:;
#ARTISTTRANSLIT:;
#GENRE:Speedcore;
#ORIGIN:;
#CREDIT:;
#BANNER:Night of Core-bn.png;
#BACKGROUND:Night of Core-bg.png;
#PREVIEWVID:;
#JACKET:Night of Core-jacket.png;
#CDIMAGE:;
#DISCIMAGE:;
#LYRICSPATH:;
#CDTITLE:cdtitle.png;
#MUSIC:Night of Core.ogg;
#OFFSET:-0.095000;
#SAMPLESTART:78.704002;
#SAMPLELENGTH:11.130000;
#SELECTABLE:YES;
#BPMS:0.000=172.500,
34.000=345.000,
90.000=86.250,
92.000=172.500,
156.000=86.250,
172.000=172.500,
232.000=86.250,
234.000=345.000,
294.000=172.500,
296.000=345.000,
352.000=86.250,
354.000=172.500,
418.000=345.000,
530.000=86.250;
#STOPS:;
#DELAYS:;
#WARPS:;
#TIMESIGNATURES:0.000=4=4;
#TICKCOUNTS:0.000=4;
#COMBOS:0.000=1;
#SPEEDS:0.000=1.000=0.000=0;
#SCROLLS:0.000=1.000;
#FAKES:;
#LABELS:0.000=Song Start;
#BGCHANGES:;
#KEYSOUNDS:;
#ATTACKS:
;

//---------------dance-single - ----------------
#NOTEDATA:;
#CHARTNAME:X-Scale 16;
#STEPSTYPE:dance-single;
#DESCRIPTION:;
#CHARTSTYLE:;
#DIFFICULTY:Hard;
#METER:11;
#RADARVALUES:0.765864,1.116886,0.341340,0.033465,0.321261,801.000000,750.000000,51.000000,5.000000,0.000000,0.000000,19.000000,0.000000,0.000000,0.765864,1.116886,0.341340,0.033465,0.321261,801.000000,750.000000,51.000000,5.000000,0.000000,0.000000,19.000000,0.000000,0.000000;
#CREDIT:iamthek3n;
#NOTES:
// measure 0
0000
0000
0000
0000
,  // measure 1
0000
0000
0000
0000
,  // measure 2
0000
0000
0000
0000
,  // measure 3
0000
0000
0000
0000
,  // measure 4
0000
0000
1100
1000
,  // measure 5
0000
0001
1001
0001
,  // measure 6
0000
0000
0100
0001
0101
0000
0100
0000
,  // measure 7
0110
0000
0010
1000
1010
0000
0110
0000
,  // measure 8
0011
0000
0000
0001
1000
0000
1000
0000
1100
0000
0000
0000
0100
0000
0000
0000
,  // measure 9
0010
0001
0100
1000
,  // measure 10
0100
0001
1000
0010
,  // measure 11
0100
0001
0100
1000
,  // measure 12
0100
0001
1000
0001
,  // measure 13
0010
0001
1000
0100
,  // measure 14
0010
0001
0100
1000
,  // measure 15
0100
0000
0001
0000
1000
0100
1000
0000
,  // measure 16
0004
0000
0013
0001
,  // measure 17
1000
0010
0001
0010
,  // measure 18
1000
0100
0010
0100
,  // measure 19
1000
0001
0100
0010
,  // measure 20
0100
0001
1000
0100
,  // measure 21
1000
0001
0010
0001
,  // measure 22
4000
0000
0000
0000
0000
0000
0000
0000
3100
0000
0000
0000
0000
0000
0000
0000
1100
0000
0000
1000
0000
0000
0001
0000
0000
0100
0000
0000
0001
0000
0010
0000
,  // measure 23
0011
0001
1000
0001
0100
0010
0001
0010
,  // measure 24
1000
0100
0010
0001
0100
0010
0100
0001
,  // measure 25
0010
1000
0010
0100
1000
0100
0001
0100
,  // measure 26
1000
0100
0010
0001
1000
0010
0100
0010
,  // measure 27
1000
0001
0010
0100
1000
0010
1000
0001
,  // measure 28
1000
0100
0001
0100
1000
0010
0001
0010
,  // measure 29
1000
0100
0010
0001
0100
0010
0100
0001
,  // measure 30
0010
0000
0001
0000
1000
0000
0010
0000
1000
0000
0000
0001
1000
0000
1000
0000
,  // measure 31
1001
1001
0110
0110
,  // measure 32
0011
0011
1010
1010
,  // measure 33
0110
0110
0101
0101
,  // measure 34
0011
0000
0000
0000
0011
0000
0000
0000
1010
0000
0000
0010
1000
0000
1000
0000
,  // measure 35
1001
1001
0110
0110
,  // measure 36
0101
0101
1100
1100
,  // measure 37
1010
1010
0110
0110
,  // measure 38
0011
0000
0000
0001
0040
0000
4030
0000
3400
0000
0340
0000
0130
0000
0001
0000
,  // measure 39
0101
0001
1000
0001
1000
0000
0100
0010
0000
0001
0010
0001
0010
0000
0100
1000
,  // measure 40
0000
0000
0002
0000
0000
0100
0000
0000
0010
0000
0000
0000
1000
0000
1000
0000
1000
0000
0000
0100
0000
0000
1000
0000
0000
0010
0000
0000
0103
0000
0001
0000
,  // measure 41
0000
1000
0010
1000
0010
0000
0100
0001
0000
0010
0100
0010
0100
0000
1000
0001
,  // measure 42
0000
0000
0020
0000
0000
0100
0000
0000
0001
0000
0000
0000
0100
0000
0100
0000
0230
0000
0000
1000
0000
0000
0001
0000
0000
1000
0000
0000
0310
0000
0100
0000
,  // measure 43
1100
0000
0000
1000
0000
0000
0001
0000
0010
0001
0000
0000
0100
0000
0010
0000
,  // measure 44
0100
0000
0000
0010
0000
0000
1000
0000
0100
0010
0000
0000
0001
0000
0010
0000
,  // measure 45
0001
0000
0000
1000
0000
0000
0010
0000
0100
0010
0000
0000
1000
0000
0001
0000
,  // measure 46
1000
0000
0000
0010
0000
0000
0100
0000
0001
0100
0000
0000
0001
0000
0010
0000
,  // measure 47
0001
0000
0000
1000
0000
0000
0010
0000
1000
0001
0000
0000
0001
0000
0100
0000
,  // measure 48
0001
0000
0000
0010
0000
0000
0100
0000
1000
0010
0000
0000
0100
0000
0010
0000
,  // measure 49
0100
0000
0000
0001
0000
0000
1000
0000
0010
1000
0000
0000
0100
0000
0010
0000
,  // measure 50
0001
0000
0000
0100
0000
0000
0001
0000
1000
0001
0000
0000
1000
0000
0010
0000
,  // measure 51
0101
0001
1000
0001
,  // measure 52
1000
0100
0010
0100
,  // measure 53
0010
0001
0100
0001
,  // measure 54
0100
0001
1000
0001
,  // measure 55
0101
0000
0100
0000
0010
0000
0100
0000
0001
0010
0000
0000
0100
0000
1000
0000
,  // measure 56
0100
0000
0010
0000
0001
0000
1000
0000
0001
0100
0000
0000
0001
0000
1000
0000
,  // measure 57
0001
0000
0010
0000
0100
0000
1000
0000
0100
1000
0000
0000
0001
0000
1000
0000
,  // measure 58
0001
1000
0100
1000
1100
0000
0100
0000
,  // measure 59
0010
0000
0001
0000
1000
0001
0100
0000
,  // measure 60
0010
0001
0010
1000
,  // measure 61
0001
0000
1000
0000
0100
1000
0010
0000
,  // measure 62
0100
0001
1000
0001
,  // measure 63
0010
0000
0001
0000
1000
0100
0010
0000
,  // measure 64
0100
1000
0001
0100
,  // measure 65
0010
0000
0100
0000
0001
0100
0001
0000
,  // measure 66
4000
3004
0013
0001
,  // measure 67
1000
0000
0010
0000
0001
0010
1000
0000
,  // measure 68
0100
1000
0010
0100
,  // measure 69
0001
0000
0010
0000
0100
1000
0010
0000
,  // measure 70
0100
0001
1000
0100
,  // measure 71
1000
0000
0001
0000
0010
0100
1000
0000
,  // measure 72
0001
1000
0100
0010
,  // measure 73
0001
1000
0010
1000
0001
0001
4000
0000
,  // measure 74
3100
0000
0100
1000
0001
0000
0100
0000
,  // measure 75
0001
0010
0100
0000
0010
0000
0001
0000
,  // measure 76
1000
0000
0010
0100
0001
0000
1000
0000
,  // measure 77
0001
0010
0100
0000
0010
0000
0001
0000
,  // measure 78
1000
0000
0001
1000
0010
0000
0100
0000
,  // measure 79
0001
1000
0010
0000
1000
0000
0001
0000
,  // measure 80
1000
0000
0100
1000
0001
0000
0100
0000
,  // measure 81
0001
1000
0001
0000
0004
0000
4003
0000
,  // measure 82
3010
0000
1000
0100
1000
0000
1000
0000
,  // measure 83
0001
0010
0100
0000
1000
0000
0100
0000
,  // measure 84
0010
0000
0001
1000
0001
0000
0100
0000
,  // measure 85
0010
0100
0001
0000
0100
0000
0001
0000
,  // measure 86
1000
0100
1000
0100
0010
0001
0010
0001
,  // measure 87
0010
0100
0010
0100
4000
0000
3100
0000
,  // measure 88
1100
0000
0000
1000
0000
0000
0001
0000
0000
0010
0000
0000
0001
0000
1000
0000
1001
0000
0000
0000
0000
0000
0010
0000
1000
0000
0000
0000
0001
0000
0000
0000
,  // measure 89
0010
0100
0000
0000
0010
0000
0001
0000
0010
0000
0000
0100
1000
0000
0001
0000
,  // measure 90
0010
0001
0000
0000
1000
0000
0010
0000
1000
0000
0000
0010
0100
0000
0001
0000
,  // measure 91
1000
0001
0000
0000
0100
0000
0010
0000
0100
0000
0000
0001
0010
0000
0001
0000
,  // measure 92
1000
0010
0000
0000
1000
0000
0100
0000
0010
0000
0000
0001
0010
0000
0001
0000
,  // measure 93
1000
0010
0000
0000
0100
0000
0010
0000
1000
0000
0000
0100
0010
0000
0001
0000
,  // measure 94
0100
0001
0000
0000
1000
0000
0010
0000
1000
0000
0000
0001
0010
0000
0100
0000
,  // measure 95
1000
0010
0000
0000
1000
0000
0001
0000
0100
0000
0000
0010
0100
0000
0001
0000
,  // measure 96
0010
0100
0000
0000
1000
0000
0001
0000
1001
0000
0000
1000
0010
0000
1000
0000
,  // measure 97
0100
0010
0000
0000
0100
0000
1000
0000
0001
0000
0000
0100
0010
0000
0100
0000
,  // measure 98
0001
0010
0000
0000
0001
0000
1000
0000
0010
0000
0000
0100
0010
0000
0001
0000
,  // measure 99
0010
0100
0000
0000
0001
0000
1000
0000
0010
0000
0000
0100
0010
0000
1000
0000
,  // measure 100
0001
0010
0000
0000
0100
0000
1000
0000
1100
0000
0000
0100
0000
0000
0001
0000
,  // measure 101
0000
0100
0000
0000
1000
0000
0010
0000
1000
0000
0000
0001
0000
0000
0010
0000
,  // measure 102
0000
0001
0000
0000
1000
0000
0010
0000
1000
0000
0000
0001
0000
0000
0100
0000
,  // measure 103
0000
0010
0000
0000
1000
0000
0100
0000
1000
0000
0000
0000
0001
0000
0000
0000
,  // measure 104
0010
0100
1100
0010
,  // measure 105
1000
0000
0001
0000
0010
0100
0010
0000
,  // measure 106
0001
1000
0100
1000
,  // measure 107
0001
0000
0010
0000
0100
0010
0100
0000
,  // measure 108
1000
0000
0001
1000
0001
0000
0010
0000
,  // measure 109
0100
0000
1000
0000
0010
0100
0010
0000
,  // measure 110
1000
0001
0100
0010
,  // measure 111
0100
0000
0001
0000
1000
0100
1000
0100
,  // measure 112
0040
0034
0013
0001
,  // measure 113
1000
0000
0010
0000
0100
0010
0100
0000
,  // measure 114
0001
0010
0001
1000
,  // measure 115
0100
0000
0010
0000
0001
0010
0001
0000
,  // measure 116
1000
0000
0010
1000
0010
1000
0010
1000
,  // measure 117
0010
1000
0001
0010
0001
0010
0001
0010
,  // measure 118
0001
0000
0010
0000
0100
0000
0000
0000
1000
0000
0000
0000
0100
1000
0100
0000
,  // measure 119
0000
0000
0000
0000
0010
0001
0010
0000
0000
0000
0001
0000
1000
0001
4000
0000
,  // measure 120
0000
0000
0000
3000
1001
0000
1000
0000
,  // measure 121
0010
0000
1000
0000
0001
0100
0001
0000
,  // measure 122
1000
0010
0100
0001
,  // measure 123
0010
0000
0100
0000
1000
0100
1000
0000
,  // measure 124
0001
0000
0100
0001
0100
0000
0010
0000
,  // measure 125
1000
0000
0001
0000
1000
0010
1000
0000
,  // measure 126
0001
0010
1000
0010
,  // measure 127
0100
0000
1000
0000
0100
0010
0100
0010
,  // measure 128
0400
0000
4300
0000
3001
1000
0001
1000
,  // measure 129
0001
1000
0001
1000
0010
0100
0010
0100
,  // measure 130
0010
0100
0010
0100
0004
0000
0000
0000
,  // measure 131
0000
0000
4000
0000
,  // measure 132
0000
0000
0000
0000
0000
0000
3003
0000
1001
0000
1000
0200
0000
0000
0310
0002
,  // measure 133
0010
0000
0000
1000
0000
0000
0100
0000
0000
1000
0000
0000
1000
0000
1003
0000
1001
0000
0000
0000
0000
0000
0000
0000
0000
0000
0000
0000
0000
0000
0000
0000
;

//---------------dance-single - ----------------
#NOTEDATA:;
#CHARTNAME:X-Scale 13;
#STEPSTYPE:dance-single;
#DESCRIPTION:;
#CHARTSTYLE:;
#DIFFICULTY:Medium;
#METER:9;
#RADARVALUES:0.599497,0.848833,0.140552,0.348033,0.207481,627.000000,606.000000,21.000000,52.000000,0.000000,0.000000,0.000000,0.000000,0.000000,0.599497,0.848833,0.140552,0.348033,0.207481,627.000000,606.000000,21.000000,52.000000,0.000000,0.000000,0.000000,0.000000,0.000000;
#CREDIT:iamthek3n;
#NOTES:
// measure 0
0000
0000
0000
0000
,  // measure 1
0000
0000
0000
0000
,  // measure 2
0000
0000
0000
0000
,  // measure 3
0000
0000
0000
0000
,  // measure 4
0000
0000
1001
0000
,  // measure 5
0000
0000
0110
0000
,  // measure 6
0000
0000
0000
1000
1100
0000
0000
0000
,  // measure 7
0101
0000
0000
0001
0011
0000
0110
0000
,  // measure 8
1010
0000
1000
0000
0001
0000
0000
0010
,  // measure 9
0000
0000
0100
0000
0000
1000
0000
0000
,  // measure 10
0001
0000
1000
0000
0001
0000
0000
0100
,  // measure 11
0000
0000
0010
0000
0000
0100
0000
0000
,  // measure 12
0001
0000
1000
0000
0001
0000
0000
1000
,  // measure 13
0000
0000
0100
0000
0000
0010
0000
0000
,  // measure 14
0001
0000
0010
0000
0001
0000
0000
0100
,  // measure 15
0000
0000
0010
0000
0000
0100
0000
0000
,  // measure 16
0001
0000
0010
0000
0001
0000
0000
0010
,  // measure 17
0000
0000
0100
0000
0000
1000
0000
0000
,  // measure 18
0010
0000
1000
0000
0010
0000
0000
0100
,  // measure 19
0000
0000
0001
0000
0000
0010
0000
0000
,  // measure 20
0100
0000
1000
0000
0100
0000
0000
0010
,  // measure 21
0000
0000
0001
0000
0000
1000
0000
0000
,  // measure 22
0001
0000
0000
0000
0000
0000
0000
0000
1000
0000
0000
0000
0000
0000
0000
0000
1001
0000
0000
0001
0000
0000
0001
0000
0000
1000
0000
0000
1000
0000
0100
0000
,  // measure 23
0010
0100
0010
0000
0002
0000
2003
0000
,  // measure 24
3200
0000
0001
0000
1300
0100
1000
0001
,  // measure 25
0100
0000
0010
0000
0100
0001
0010
0000
,  // measure 26
0100
1000
0002
0000
0100
0000
1003
0001
,  // measure 27
0100
0000
0001
0000
0010
0000
0100
1000
,  // measure 28
0020
0000
0001
0000
1030
0001
0010
0001
,  // measure 29
0100
0010
0100
0001
0010
0100
1000
0001
,  // measure 30
1000
0100
0010
0001
1000
0000
0100
0100
,  // measure 31
0110
0010
0002
2003
,  // measure 32
3020
0100
0130
0010
,  // measure 33
0101
0001
2000
3200
,  // measure 34
0320
0000
1000
0000
0100
0000
0031
0010
,  // measure 35
0011
0001
2000
0010
,  // measure 36
3002
0100
1003
0100
,  // measure 37
1010
1000
0001
0010
,  // measure 38
0001
0000
0000
0001
0200
0000
0000
0000
0320
0000
0230
0000
0301
0000
1000
0000
,  // measure 39
0000
0100
1000
0100
1000
0000
0100
0010
0000
0001
0010
0001
0010
0000
0100
1000
,  // measure 40
0000
0002
0000
0000
0000
0010
0000
0000
0100
0000
0000
1000
0000
0000
1003
0001
,  // measure 41
0000
0010
0100
0010
0100
0000
1000
0001
0000
0100
0010
0100
0010
0000
1000
0100
,  // measure 42
0000
0020
0000
0000
0000
0000
0000
0000
0032
0000
0000
0000
0000
0000
0003
0000
,  // measure 43
0011
0000
0000
0010
0000
0000
0100
0000
0000
1000
0000
0000
0001
0000
1000
0000
,  // measure 44
0001
0000
0000
0100
0000
0000
0010
0000
0000
0100
0000
0000
0001
0000
0010
0000
,  // measure 45
0001
0000
0000
1000
0000
0000
0010
0000
0000
1000
0000
0000
0001
0000
0010
0000
,  // measure 46
0001
0000
0000
0100
0000
0000
0010
0000
0000
0100
0000
0000
0001
0000
1000
0000
,  // measure 47
0100
0000
0000
0010
0000
0000
0100
0000
0000
1000
0000
0000
0001
0000
0100
0000
,  // measure 48
0010
0000
0000
0100
0000
0000
1000
0000
0000
0100
0000
0000
0010
0000
0100
0000
,  // measure 49
0001
0000
0000
0010
0000
0000
0100
0000
0000
1000
0000
0000
0001
0000
1000
0000
,  // measure 50
0001
0000
0000
0010
0000
0000
0001
0000
0000
1000
0000
0000
0100
0000
0010
0000
,  // measure 51
0011
0001
0010
0100
,  // measure 52
1000
0010
0100
0001
,  // measure 53
1000
0001
0100
0010
,  // measure 54
0001
0010
1000
0100
,  // measure 55
0110
0000
0100
0000
1000
0000
0001
1000
,  // measure 56
0001
0000
0010
0000
0100
0000
1000
0100
,  // measure 57
1000
0000
0000
0100
0000
0000
0010
0000
0000
0001
0000
0000
1000
0000
0001
0000
,  // measure 58
1000
0010
0100
0001
0101
0000
0100
0000
,  // measure 59
0010
0100
0001
0010
,  // measure 60
0100
1000
0010
1000
,  // measure 61
0001
1000
0100
0010
,  // measure 62
0100
1000
0001
0100
,  // measure 63
0001
1000
0100
0010
,  // measure 64
0100
1000
0100
0010
,  // measure 65
0001
0000
1000
0000
0001
0100
0001
0000
,  // measure 66
0020
0000
0130
0010
,  // measure 67
0001
1000
0010
1000
,  // measure 68
0001
0010
0100
1000
,  // measure 69
0010
1000
0001
0100
,  // measure 70
0010
0100
0001
0010
,  // measure 71
0100
1000
0010
1000
,  // measure 72
0001
0010
0001
1000
,  // measure 73
0100
0010
0100
0010
0100
0000
0200
0000
,  // measure 74
0310
0000
0100
1000
0000
0000
0001
0000
,  // measure 75
0100
0001
0000
0000
1000
0000
0100
0000
,  // measure 76
0010
0000
0100
1000
0000
0000
0001
0000
,  // measure 77
0100
0001
0000
0000
0010
0000
0100
0000
,  // measure 78
1000
0000
0001
0010
0000
0000
0001
0000
,  // measure 79
1000
0010
0000
0000
1000
0000
0100
0000
,  // measure 80
0010
0000
0001
1000
0000
0000
0001
0000
,  // measure 81
0010
0100
0010
0100
0020
0000
0032
0000
,  // measure 82
1003
0000
0001
0100
0000
0000
0001
0000
,  // measure 83
0010
0100
0000
0000
1000
0000
0100
0000
,  // measure 84
0010
0000
0100
1000
0000
0000
0001
0000
,  // measure 85
0100
0001
0000
0000
0010
0000
0100
0000
,  // measure 86
1000
0000
0100
0010
0000
0000
0100
0000
,  // measure 87
1000
0001
0000
0000
0010
0000
0100
0000
,  // measure 88
1100
0000
0000
1000
0000
0000
0001
0000
0000
0100
0000
0000
0001
0000
0010
0000
0001
0000
0000
0000
2000
0000
0000
0000
0001
0000
0000
0000
0000
0000
0000
0000
,  // measure 89
3100
1000
0001
0010
1000
0200
0001
0000
,  // measure 90
0310
0000
0100
0001
2000
0000
3100
0020
,  // measure 91
1000
0000
0000
0000
0031
0000
0010
0000
0100
0000
0000
1000
0000
0000
0001
0000
,  // measure 92
0000
0100
0000
0000
0001
0000
0010
0000
0100
0000
2000
0000
0001
0000
0000
0000
,  // measure 93
3010
1000
0100
0001
0010
2000
0100
0000
,  // measure 94
3001
1000
0001
0010
0200
0000
1300
0020
,  // measure 95
0001
0000
0000
0000
1030
0000
0001
0000
0010
0000
0000
0001
0000
0000
1000
0000
,  // measure 96
0000
0010
0000
0000
1000
0000
0001
0000
1001
0000
0000
1000
0100
0000
1000
0000
,  // measure 97
0001
0010
0000
0000
0001
0000
1000
0000
0001
0000
0000
0100
0010
0000
0100
0000
,  // measure 98
0001
1000
0000
0000
0100
0000
0010
0000
0100
0000
0000
1000
0010
0000
1000
0000
,  // measure 99
0001
0100
0000
0000
0001
0000
0010
0000
0100
0000
0000
1000
0100
0000
0010
0000
,  // measure 100
0001
0010
0000
0000
0001
0000
1000
0000
1001
0000
0000
0001
0000
0000
0010
0000
,  // measure 101
0000
0100
0000
0000
1000
0000
0100
0000
1000
0000
0000
0010
0000
0000
0100
0000
,  // measure 102
0000
0001
0000
0000
0010
0000
0001
0000
0020
0000
0000
0000
0130
0000
2000
0000
,  // measure 103
0000
0000
3001
0200
0000
0000
0010
0000
,  // measure 104
0310
0010
0110
0100
,  // measure 105
0010
1000
0001
0010
,  // measure 106
0100
0010
0001
1000
,  // measure 107
0100
1000
0001
0010
,  // measure 108
1000
0010
0001
0100
,  // measure 109
0010
0100
0001
1000
,  // measure 110
0100
1000
0001
0100
,  // measure 111
0010
1000
0200
0000
,  // measure 112
2300
3002
0013
0001
,  // measure 113
1000
0100
0001
0100
,  // measure 114
1000
0010
0100
0010
,  // measure 115
1000
0001
0100
0001
,  // measure 116
0010
0000
0100
0000
0010
0000
0001
0010
,  // measure 117
0000
0000
0001
0000
1000
0010
0000
0000
,  // measure 118
1000
0000
0100
0000
0010
0000
0100
1000
,  // measure 119
0000
0000
0001
0000
0100
0001
0100
0000
,  // measure 120
0010
2000
3001
0002
,  // measure 121
0010
0010
0013
0001
,  // measure 122
1000
0100
0020
0130
,  // measure 123
0200
1000
1000
1300
,  // measure 124
0100
0010
0002
1000
,  // measure 125
1003
0001
0100
0020
,  // measure 126
1030
2000
0100
0100
,  // measure 127
3100
0000
0010
0000
0001
0010
0001
0000
,  // measure 128
1000
0020
1030
2000
,  // measure 129
0001
0001
3001
0010
,  // measure 130
0100
0020
0032
2000
,  // measure 131
3000
0000
2003
0000
,  // measure 132
0000
0000
0000
0000
0000
0000
0000
0000
3100
0000
1000
0002
0000
0000
0013
0200
,  // measure 133
0000
1300
0100
1000
1100
0000
0000
0000
;

//---------------dance-single - ----------------
#NOTEDATA:;
#CHARTNAME:X-Scale 7;
#STEPSTYPE:dance-single;
#DESCRIPTION:;
#CHARTSTYLE:;
#DIFFICULTY:Easy;
#METER:5;
#RADARVALUES:0.404445,0.625456,0.120473,0.127166,0.000000,423.000000,405.000000,18.000000,19.000000,0.000000,0.000000,0.000000,0.000000,0.000000,0.404445,0.625456,0.120473,0.127166,0.000000,423.000000,405.000000,18.000000,19.000000,0.000000,0.000000,0.000000,0.000000,0.000000;
#CREDIT:iamthek3n;
#NOTES:
// measure 0
0000
0000
0000
0000
,  // measure 1
0000
0000
0000
0000
,  // measure 2
0000
0000
0000
0000
,  // measure 3
0000
0000
0000
0000
,  // measure 4
0000
0000
1100
0000
,  // measure 5
0000
0000
0011
0000
,  // measure 6
0000
0000
1001
0000
,  // measure 7
0110
0000
1001
1000
,  // measure 8
0001
0000
0001
0000
,  // measure 9
0010
0000
0100
0000
,  // measure 10
1000
0000
0001
0000
,  // measure 11
0010
0000
0100
0000
,  // measure 12
1000
0000
0010
0000
,  // measure 13
0100
0000
0001
0000
,  // measure 14
1000
0000
0010
0000
,  // measure 15
0100
0000
0001
0000
,  // measure 16
1000
0000
0100
0000
,  // measure 17
0010
0000
0100
0000
,  // measure 18
1000
0000
0001
0000
,  // measure 19
0100
0000
0001
0000
,  // measure 20
1000
0000
0001
0000
,  // measure 21
0010
0000
0100
0000
,  // measure 22
1000
0000
1100
0000
,  // measure 23
1001
0001
0010
0001
,  // measure 24
1000
0001
0010
0001
,  // measure 25
1000
0100
0010
0100
,  // measure 26
1000
0100
0010
0100
,  // measure 27
1000
0001
0100
0001
,  // measure 28
1000
0001
0100
0001
,  // measure 29
1000
0001
0010
0001
,  // measure 30
1000
0000
0001
0000
0010
0000
0100
0100
,  // measure 31
0110
0010
0001
1000
,  // measure 32
0010
1000
0001
0100
,  // measure 33
0001
1000
0100
0010
,  // measure 34
0100
0000
1000
0000
0001
0000
0010
0001
,  // measure 35
0010
0100
0010
0001
,  // measure 36
1000
0010
1000
0001
,  // measure 37
0100
0001
1000
0010
,  // measure 38
1000
0000
0100
0000
0010
0001
0010
0000
,  // measure 39
0011
0001
1000
0010
,  // measure 40
1000
0001
0010
0100
,  // measure 41
0010
0001
1000
0010
,  // measure 42
1000
0001
0010
0100
,  // measure 43
1100
0000
0100
1000
,  // measure 44
0100
0000
0010
0001
,  // measure 45
0010
0000
0001
1000
,  // measure 46
0001
0000
1000
0010
,  // measure 47
1000
0000
0100
0010
,  // measure 48
0100
0000
1000
0001
,  // measure 49
1000
0000
0001
0100
,  // measure 50
0001
0000
0010
0100
,  // measure 51
0110
0010
0001
1000
,  // measure 52
0001
0010
0100
1000
,  // measure 53
0010
1000
0001
0100
,  // measure 54
0001
1000
0100
0010
,  // measure 55
0110
0000
0100
0000
1000
0000
0001
1000
,  // measure 56
0001
0000
0010
0000
0100
0000
1000
0100
,  // measure 57
1000
0000
0001
0000
0100
0000
0001
0100
,  // measure 58
0001
0010
0100
1000
1100
0000
0000
0000
,  // measure 59
0100
0000
0010
0000
,  // measure 60
0001
1000
0001
0000
,  // measure 61
0100
0000
0010
0000
,  // measure 62
1000
0010
1000
0000
,  // measure 63
0001
0000
0100
0000
,  // measure 64
0001
0100
0001
0000
,  // measure 65
0010
0000
0100
0000
,  // measure 66
1000
0100
1000
0000
,  // measure 67
0100
0000
0010
0000
,  // measure 68
0001
0010
0001
0000
,  // measure 69
1000
0000
0010
0000
,  // measure 70
1000
0001
1000
0000
,  // measure 71
0001
0000
0010
0100
,  // measure 72
0010
0000
0001
0000
,  // measure 73
1000
0000
0200
0320
,  // measure 74
0031
0000
0010
0000
,  // measure 75
0100
0000
1000
0100
,  // measure 76
1000
0000
0001
0000
,  // measure 77
0100
0000
0010
0100
,  // measure 78
0010
0000
1000
0000
,  // measure 79
0001
0000
0010
0100
,  // measure 80
0010
0000
0001
0000
,  // measure 81
1000
0000
0100
0010
,  // measure 82
0100
0000
1000
0000
,  // measure 83
0001
0000
0100
0001
,  // measure 84
0100
0000
0001
0000
,  // measure 85
0010
0000
0100
0010
,  // measure 86
0100
0000
1000
0000
,  // measure 87
0001
0000
1000
0001
,  // measure 88
1001
0000
0110
0100
,  // measure 89
0010
1000
0001
0010
,  // measure 90
0100
0000
0010
0000
0001
0000
1000
0020
,  // measure 91
0000
0000
0031
0020
1000
0000
0130
0000
,  // measure 92
0010
1000
0001
0100
,  // measure 93
0001
1000
0100
0010
,  // measure 94
0001
0000
0100
0000
0010
0000
1000
0200
,  // measure 95
0000
0000
0301
0200
1000
0000
0310
0000
,  // measure 96
0100
1000
1001
0100
,  // measure 97
0001
0000
1000
0010
1000
0000
0001
0000
,  // measure 98
0100
0000
0001
0010
0001
0000
1000
0100
,  // measure 99
0010
0002
0003
2000
0100
0000
3001
1000
,  // measure 100
0010
0000
1000
0000
1001
0001
0000
1000
,  // measure 101
0000
0010
0000
0100
0000
0010
0000
1000
,  // measure 102
0000
0100
0000
0010
0000
0001
0000
0010
,  // measure 103
0000
0100
0000
1000
0000
0000
0002
0000
,  // measure 104
0023
0230
1300
0000
,  // measure 105
0100
0000
0010
0000
,  // measure 106
0001
0010
0001
0000
,  // measure 107
0100
0000
0010
0000
,  // measure 108
1000
0010
1000
0000
,  // measure 109
0001
0000
0010
0000
,  // measure 110
0100
0010
0100
0000
,  // measure 111
1000
0000
0002
0000
,  // measure 112
0203
0320
1030
0000
,  // measure 113
0010
0000
1000
0000
,  // measure 114
0001
0100
0001
0000
,  // measure 115
0010
0000
0100
0000
,  // measure 116
1000
0100
1000
0100
,  // measure 117
0010
0001
0010
0001
,  // measure 118
0100
0000
0010
0000
1000
0000
0000
0001
,  // measure 119
0000
0000
1000
0000
0000
0001
0000
0000
,  // measure 120
1000
0001
1000
0000
,  // measure 121
0010
0000
0100
0000
,  // measure 122
0001
0100
0001
0000
,  // measure 123
0010
0000
0100
0000
,  // measure 124
1000
0100
1000
0000
,  // measure 125
0001
0000
0100
0000
,  // measure 126
0001
0010
0001
0000
,  // measure 127
0100
0000
0020
0000
,  // measure 128
0032
0023
1030
0010
,  // measure 129
0100
0001
0010
0100
,  // measure 130
1000
0010
2000
0000
,  // measure 131
0100
0000
3002
0000
,  // measure 132
0010
0000
0103
0000
,  // measure 133
0000
0001
1000
0001
1001
0000
0000
0000
;
