#TITLE:New Rules;
#SUBTITLE:(Vicetone Remix);
#ARTIST:Dua Lipa;
#TITLETRANSLIT:;
#SUBTITLETRANSLIT:;
#ARTISTTRANSLIT:;
#GENRE:House;
#CREDIT:;
#BANNER:new rules_vicetone-bn.png;
#BACKGROUND:new rules_vicetone-bg.png;
#LYRICSPATH:;
#CDTITLE:cdtitle.png;
#MUSIC:new rules - vicetone.ogg;
#OFFSET:0.000000;
#SAMPLESTART:58.019997;
#SAMPLELENGTH:18.000000;
#SELECTABLE:YES;
#BPMS:0.000000=120.000000
;
#STOPS:
;
#BGCHANGES:;
#KEYSOUNDS:;
#ATTACKS:;

//---------------dance-single - ----------------
#NOTES:
     dance-single:
     X-Scale 11:
     Hard:
     8:
     0.496700,0.518449,0.092580,0.102867,0.288027,338.000000,329.000000,9.000000,10.000000,0.000000,0.000000,0.496700,0.518449,0.092580,0.102867,0.288027,338.000000,329.000000,9.000000,10.000000,0.000000,0.000000:
// measure 0
0000
0000
0000
0000
,  // measure 1
1000
0000
0000
0000
0001
0000
0000
0000
0100
0000
0000
0001
0000
0000
0001
0000
,  // measure 2
1000
0000
0000
0000
0010
0000
0000
0000
0100
0000
0000
0010
0000
0000
0010
0000
,  // measure 3
1000
0000
0100
0000
1000
0000
0000
0000
0010
0000
0000
1000
0000
0000
1000
0000
,  // measure 4
0001
0000
0000
0000
0100
0000
0000
0000
0010
0000
0000
0100
0000
0000
0100
0000
,  // measure 5
0001
0010
0100
0010
0001
1000
0100
1000
,  // measure 6
1000
0000
0001
0000
0100
0000
0010
0000
1000
0000
0000
1000
0010
0000
1000
0000
,  // measure 7
0001
0000
0100
0001
0100
0010
0100
0001
,  // measure 8
0001
0000
1000
0000
0100
0000
0010
0000
0100
0000
0000
1000
0000
0000
1000
0000
,  // measure 9
0001
1000
0100
0010
0100
1000
0001
0100
,  // measure 10
0100
0000
0001
0000
0010
0000
0100
0000
0010
0000
0000
0010
0001
0000
0010
0000
,  // measure 11
0100
0000
1000
0001
0010
0100
1000
0001
,  // measure 12
0001
0000
1000
0000
0100
0000
0010
0000
0001
0000
0000
0100
0000
0000
0100
0010
,  // measure 13
0100
0000
0000
0000
0001
0000
0000
0000
1000
0000
0000
0001
0000
0000
0001
0000
,  // measure 14
0100
0000
0000
0000
0001
0000
0000
0000
1000
0000
0000
0000
0010
0100
0010
0000
,  // measure 15
2000
0000
0000
0000
3001
0000
0000
0000
1000
0000
0000
0000
0001
0010
0001
0000
,  // measure 16
0100
0010
0100
0000
0002
0000
0000
0000
2003
0000
0000
0000
3001
0000
1000
0100
,  // measure 17
1000
0000
0000
0000
0001
0000
0000
0000
0100
0000
0000
0010
0000
0000
0010
0000
,  // measure 18
1000
0000
0000
0000
0100
0000
0000
0000
0010
0000
0000
0000
0001
0100
0001
0000
,  // measure 19
1000
0000
0001
0000
0100
0000
0000
0000
0001
0000
0010
0000
0001
0010
0001
0000
,  // measure 20
0010
0000
0001
0000
1000
0000
0000
0000
0100
0000
0000
0100
1000
0000
0001
0000
,  // measure 21
1001
0000
0000
0000
1000
0001
1000
0000
0010
0000
0100
0010
0000
0000
0100
0000
,  // measure 22
0001
0000
0000
0000
1000
0000
0100
0000
1000
0000
0000
1000
0001
0000
0100
0000
,  // measure 23
0101
0000
0000
0000
0001
0000
0010
0000
0100
0000
0010
0100
0000
0000
0010
0000
,  // measure 24
0001
0000
1000
0000
0001
0000
0010
0000
0100
0000
1000
0100
0000
0000
1000
0000
,  // measure 25
1100
0000
0000
0000
1000
0000
0001
0000
0100
0000
0001
0100
0000
0000
0001
0000
,  // measure 26
1000
0000
0100
0000
1000
0000
0010
0000
0100
0000
0100
0001
0100
0000
0010
0000
,  // measure 27
0110
0000
0000
0000
1000
0000
0001
1000
0001
0000
0100
0001
0000
0000
0100
0000
,  // measure 28
0001
0000
0010
0001
0010
0000
0001
4000
3001
0000
1000
0000
0010
0000
1000
0000
,  // measure 29
0200
0010
1000
0010
1000
0010
1000
0310
,  // measure 30
0110
0000
0010
0000
0001
0000
0000
0000
0001
0000
0000
1000
0000
0000
0001
0000
,  // measure 31
0100
0000
0000
0100
0000
0000
0001
0000
1000
0000
0010
1000
0010
0000
0100
0000
,  // measure 32
0001
0000
0010
0000
0100
0000
0000
0000
0010
0000
0000
0001
0000
0000
1000
0000
,  // measure 33
0001
0000
0000
0100
0000
0000
0001
0000
1000
0000
0010
0000
0010
0100
0010
0000
,  // measure 34
2010
0000
0001
0000
3010
0000
0000
0000
1000
0000
0000
0001
0000
0000
1000
0000
,  // measure 35
0010
0000
0000
0100
0000
0000
0010
0000
1000
0000
0100
1000
0010
0000
0100
0000
,  // measure 36
0001
0000
0100
0000
0001
0000
0000
0000
1000
0000
0000
0100
0000
0000
1000
0000
,  // measure 37
0001
0000
0000
0100
0000
0000
0001
0000
1000
0000
0010
0000
1000
0100
1000
0000
,  // measure 38
1100
0000
1000
0000
0001
0000
0100
0001
0100
0000
0000
0010
0100
0000
0010
0000
,  // measure 39
1000
0000
0000
0100
0000
0000
1000
0000
0001
0000
0010
0001
0010
0000
0001
0000
,  // measure 40
0012
0000
0100
0000
0013
0000
0000
0000
0001
0000
0000
0010
0001
0000
0100
0000
,  // measure 41
0010
0000
0000
1000
0000
0000
0010
0000
0100
0000
0001
0000
0100
0010
0100
0000
,  // measure 42
0001
0000
1000
0000
0010
0000
1000
0100
1000
0000
0000
0001
0010
0000
0001
0000
,  // measure 43
0100
0000
0000
0001
0000
0000
1000
0000
0001
0000
0010
0001
0100
0000
0001
0000
,  // measure 44
0010
0000
0100
0000
1000
0000
0000
0000
0001
0000
0000
0100
0001
0000
0100
0000
,  // measure 45
0010
0000
0000
1000
0000
0000
0001
4000
3001
0000
1000
0000
1000
0100
0010
0000
,  // measure 46
0220
0000
0000
0000
0000
0000
0000
0300
,  // measure 47
0002
0000
0000
0003
2000
0000
0000
0000
,  // measure 48
3030
0000
0000
0000
;

//---------------dance-single - ----------------
#NOTES:
     dance-single:
     X-Scale 8:
     Medium:
     6:
     0.402650,0.419697,0.041147,0.082294,0.190304,274.000000,270.000000,4.000000,8.000000,0.000000,0.000000,0.402650,0.419697,0.041147,0.082294,0.190304,274.000000,270.000000,4.000000,8.000000,0.000000,0.000000:
// measure 0
0000
0000
0000
0000
,  // measure 1
0001
0000
0000
0000
0001
0000
0000
0000
0001
0000
0000
0001
0000
0000
0001
0000
,  // measure 2
1000
0000
0000
0000
1000
0000
0000
0000
1000
0000
0000
1000
0000
0000
1000
0000
,  // measure 3
0010
0000
1000
0000
0001
0000
0000
0000
0010
0000
0000
0001
0000
0000
1000
0000
,  // measure 4
0001
0000
0000
0000
0100
0000
0000
0000
0010
0000
0000
0100
0000
0000
0001
0000
,  // measure 5
1000
0000
0100
0000
1000
0001
0100
0000
,  // measure 6
0100
0000
0000
0000
0001
0000
0000
0000
1000
0000
0000
1000
0010
0000
1000
0000
,  // measure 7
0001
0000
0100
0010
0100
0010
0100
0000
,  // measure 8
0001
0000
1000
0000
0001
0000
1000
0000
0001
0000
0000
1000
0000
0000
0100
0000
,  // measure 9
1000
0000
0100
0000
0010
1000
0010
0000
,  // measure 10
0001
0000
0010
0000
0100
0001
0100
0000
,  // measure 11
1000
0000
0001
0100
0010
0100
0001
0000
,  // measure 12
1000
0000
0010
0000
0100
0000
0010
0000
1000
0000
0000
0100
0000
0000
1000
0000
,  // measure 13
0002
1000
0000
1003
,  // measure 14
0001
0000
0000
0000
0010
0000
0000
0000
0100
0000
0000
0000
0010
0100
0010
0000
,  // measure 15
0002
0000
0000
0000
0003
0000
0000
0000
1000
0000
0000
0000
0001
0010
0001
0000
,  // measure 16
0010
0000
0000
0000
0100
0000
0000
0000
1000
0000
0000
0100
0000
0000
1000
0000
,  // measure 17
0200
0010
0000
0310
,  // measure 18
0100
0000
0000
0000
0010
0000
0000
0000
0001
0000
0000
0000
1000
0100
1000
0000
,  // measure 19
0100
0000
0000
0000
1000
0000
0000
0000
0001
0000
0000
0000
0100
0010
0100
0000
,  // measure 20
0010
0000
0000
0000
0001
0000
0000
0000
0010
0000
0000
0100
0000
0000
0010
0000
,  // measure 21
0110
0000
0000
0000
1000
0000
0000
0000
0001
0000
0000
0100
0000
0000
0001
0000
,  // measure 22
0010
0000
0000
0000
0100
0000
0000
0000
1000
0000
0000
0001
0000
0000
0100
0000
,  // measure 23
0001
0000
0000
0000
1000
0000
0000
0000
0100
0000
0000
1000
0000
0000
0001
0000
,  // measure 24
1000
0000
0000
0000
0001
0000
0000
0000
0010
0000
0000
0100
0000
0000
0010
0000
,  // measure 25
0100
0000
0000
0000
1000
0000
0000
0000
0100
0000
0000
1000
0000
0000
0001
0000
,  // measure 26
1000
0000
0000
0000
0100
0000
0000
0000
0010
0000
0000
0001
0000
0000
0010
0000
,  // measure 27
0001
0000
0000
0000
1000
0000
0001
0000
1000
0000
0000
0001
0000
0000
0100
0000
,  // measure 28
0001
0000
0010
0000
0001
0000
1000
0000
0010
0000
0000
1000
0000
0000
0100
0000
,  // measure 29
2000
0010
0010
0100
0100
0010
0010
3001
,  // measure 30
1001
0000
0001
0000
1000
0000
0000
0000
0001
0000
0000
1000
0000
0000
0001
0000
,  // measure 31
1000
0000
0000
0100
0000
0000
0001
0000
0100
0000
0010
0000
0001
0000
0010
0000
,  // measure 32
0100
0000
0010
0000
0100
0000
0000
0000
0010
0000
0000
1000
0000
0000
0001
0000
,  // measure 33
1000
0000
0000
0010
0000
0000
0100
0000
0001
0000
0010
0000
0001
0010
0001
0000
,  // measure 34
1000
0000
0001
0000
1000
0000
0000
0000
0100
0000
0000
0010
0000
0000
0001
0000
,  // measure 35
1000
0000
0000
0001
0000
0000
0010
0000
1000
0000
0010
0000
0100
0000
1000
0000
,  // measure 36
0001
0000
0100
0000
0001
0000
0000
0000
1000
0000
0000
0100
0000
0000
1000
0000
,  // measure 37
0001
0000
0000
0000
0010
0000
0000
0000
0001
0000
0000
0001
0010
0000
0001
0000
,  // measure 38
0011
0010
0001
0000
1000
0010
1000
0010
,  // measure 39
1000
0000
0000
0100
0000
0000
1000
0000
0001
0000
0010
0000
0100
0000
0010
0000
,  // measure 40
0001
1000
0001
0000
1000
0010
1000
0010
,  // measure 41
1000
0000
0000
0100
0000
0000
0010
0000
0100
0000
1000
0000
0100
1000
0100
0000
,  // measure 42
0010
1000
0010
0000
0001
0010
0001
0010
,  // measure 43
0001
0000
0000
0100
0000
0000
0001
0000
0010
0000
0100
0000
0010
0000
0001
0000
,  // measure 44
0010
0000
0100
0000
1000
0000
0000
0000
0001
0000
0000
0100
0000
0000
0001
0000
,  // measure 45
1000
0000
0000
0100
0000
0000
0010
0000
0100
0000
1000
0000
0010
0100
0010
0000
,  // measure 46
0220
0000
0000
0000
0000
0000
0000
0300
,  // measure 47
2000
0000
0000
3000
0200
0000
0000
0000
,  // measure 48
0330
0000
0000
0000
;

//---------------dance-single - ----------------
#NOTES:
     dance-single:
     X-Scale 5:
     Easy:
     3:
     0.268923,0.296257,0.010287,0.061720,0.010287,183.000000,182.000000,1.000000,6.000000,0.000000,0.000000,0.268923,0.296257,0.010287,0.061720,0.010287,183.000000,182.000000,1.000000,6.000000,0.000000,0.000000:
// measure 0
0000
0000
0000
0000
,  // measure 1
1000
0000
0000
0000
0001
0000
0000
0001
,  // measure 2
0010
0000
0000
0000
0100
0000
0000
0100
,  // measure 3
0010
0000
0000
0000
1000
0000
0000
0000
0010
0000
0000
0001
0000
0000
1000
0000
,  // measure 4
0001
0000
0000
0000
1000
0000
0000
0001
,  // measure 5
1000
0100
1000
0000
,  // measure 6
0010
0001
0010
0000
,  // measure 7
1000
0000
0100
0000
1000
0001
1000
0000
,  // measure 8
0001
0000
0100
0001
0100
0000
0000
0000
,  // measure 9
0010
0100
0010
0000
,  // measure 10
1000
0010
1000
0000
,  // measure 11
0001
0000
0100
0000
0001
0010
0001
0000
,  // measure 12
1000
0000
0100
1000
0100
0000
0000
0000
,  // measure 13
2000
0100
0000
3100
,  // measure 14
0000
1000
0000
0010
,  // measure 15
0020
1030
0000
0010
,  // measure 16
0000
0100
0000
0001
,  // measure 17
0002
0010
0000
0013
,  // measure 18
0000
0001
0000
1000
,  // measure 19
0000
0010
0000
0100
,  // measure 20
0000
0001
0000
0100
,  // measure 21
0101
1000
0001
0100
,  // measure 22
0010
1000
0100
0001
,  // measure 23
0100
1000
0100
1000
,  // measure 24
0010
0100
0001
0010
,  // measure 25
0100
1000
0010
1000
,  // measure 26
0001
0100
0010
1000
,  // measure 27
0001
1000
0100
0010
,  // measure 28
0001
0000
0010
0000
0100
0000
0010
0000
0001
0000
0000
1000
0000
0000
0001
0000
,  // measure 29
2000
0100
0001
0100
,  // measure 30
3001
1000
0100
0010
,  // measure 31
1000
0000
0010
0000
0001
0010
0100
1000
,  // measure 32
0010
1000
0100
1000
,  // measure 33
0001
0000
0100
0000
0001
0010
0100
1000
,  // measure 34
0010
1000
0100
1000
,  // measure 35
0001
0000
0100
0000
0001
0010
0100
1000
,  // measure 36
0001
0100
0010
1000
,  // measure 37
0001
0000
0100
0000
0000
0000
0001
0010
,  // measure 38
0001
1000
0010
0100
,  // measure 39
0001
0000
1000
0000
0001
0010
0100
1000
,  // measure 40
0010
0100
0001
1000
,  // measure 41
0100
0000
0010
0000
0001
0010
0100
1000
,  // measure 42
0001
1000
0100
0010
,  // measure 43
0001
0000
1000
0000
0001
0010
0100
1000
,  // measure 44
0010
1000
0001
0100
,  // measure 45
0010
0000
1000
0000
0001
0010
0100
1000
,  // measure 46
0200
0000
0000
0000
,  // measure 47
2300
0000
0000
0000
,  // measure 48
3000
0000
0000
0000
;

//---------------dance-single - ----------------
#NOTES:
     dance-single:
     X-Scale 2:
     Beginner:
     1:
     0.129318,0.148128,0.000000,0.041147,0.000000,88.000000,88.000000,0.000000,4.000000,0.000000,0.000000,0.129318,0.148128,0.000000,0.041147,0.000000,88.000000,88.000000,0.000000,4.000000,0.000000,0.000000:
// measure 0
0000
0000
0000
0000
,  // measure 1
1000
0000
0000
0000
,  // measure 2
0010
0000
0000
0000
,  // measure 3
0100
0000
0000
0000
,  // measure 4
0001
0000
0000
0000
,  // measure 5
0100
0000
0000
0000
,  // measure 6
0010
0000
0000
0000
,  // measure 7
1000
0000
0001
0000
,  // measure 8
1000
0000
0100
0000
,  // measure 9
0010
0000
0000
0000
,  // measure 10
0100
0000
0000
0000
,  // measure 11
1000
0000
0001
0000
,  // measure 12
1000
0000
0100
0000
,  // measure 13
0020
0000
0000
0030
,  // measure 14
0001
0000
1000
0000
,  // measure 15
0001
0000
1000
0000
,  // measure 16
0001
0000
0010
0000
,  // measure 17
0200
0000
0000
0300
,  // measure 18
1000
0000
0100
0000
,  // measure 19
1000
0000
0001
0000
,  // measure 20
0100
0000
0001
0000
,  // measure 21
1000
0000
0001
0000
,  // measure 22
1000
0100
0010
0000
,  // measure 23
0001
0000
0100
0000
,  // measure 24
0010
0100
0001
0000
,  // measure 25
1000
0000
0100
0000
,  // measure 26
0010
0100
1000
0000
,  // measure 27
0010
0000
0100
0000
,  // measure 28
0001
0100
0001
0000
,  // measure 29
0020
0000
0000
0000
,  // measure 30
0031
0000
1000
0000
,  // measure 31
0001
0000
0010
0000
,  // measure 32
0001
0000
1000
0000
,  // measure 33
0010
0000
0100
0000
,  // measure 34
0001
0000
0100
0000
,  // measure 35
0010
0000
1000
0000
,  // measure 36
0100
0000
1000
0000
,  // measure 37
0001
0000
0010
0000
,  // measure 38
0100
0000
0010
0000
,  // measure 39
0001
0000
1000
0100
,  // measure 40
1000
0000
0010
0000
,  // measure 41
0100
0000
0001
0010
,  // measure 42
0001
0000
1000
0000
,  // measure 43
0100
0000
1000
0010
,  // measure 44
1000
0000
0100
0000
,  // measure 45
0010
0000
0001
1000
,  // measure 46
0002
0000
0000
0000
,  // measure 47
0000
0000
0000
0000
,  // measure 48
0003
0000
0000
0000
;
