#VERSION:0.83;
#TITLE:Never Letting Go;
#SUBTITLE:;
#ARTIST:Emrah Karaduman;
#TITLETRANSLIT:;
#SUBTITLETRANSLIT:;
#ARTISTTRANSLIT:;
#GENRE:Future House;
#ORIGIN:;
#CREDIT:;
#BANNER:Never Letting Go-bn.png;
#BACKGROUND:Never Letting Go-bg.png;
#PREVIEWVID:;
#JACKET:Never Letting Go-jacket.png;
#CDIMAGE:;
#DISCIMAGE:;
#LYRICSPATH:;
#CDTITLE:cdtitle.png;
#MUSIC:Never Letting Go.ogg;
#OFFSET:-0.005000;
#SAMPLESTART:52.505001;
#SAMPLELENGTH:15.000000;
#SELECTABLE:YES;
#BPMS:0.000=128.000;
#STOPS:;
#DELAYS:;
#WARPS:;
#TIMESIGNATURES:0.000=4=4;
#TICKCOUNTS:0.000=4;
#COMBOS:0.000=1;
#SPEEDS:0.000=1.000=0.000=0;
#SCROLLS:0.000=1.000;
#FAKES:;
#LABELS:0.000=Song Start;
#BGCHANGES:0.000=Never Letting Go.avi=1.000=1=0=0=StretchNoLoop==CrossFade==,
99999=-nosongbg-=1.000=0=0=0 // don't automatically add -songbackground-
;
#KEYSOUNDS:;
#ATTACKS:
;

//---------------dance-single - ----------------
#NOTEDATA:;
#CHARTNAME:X-Scale 11;
#STEPSTYPE:dance-single;
#DESCRIPTION:;
#CHARTSTYLE:;
#DIFFICULTY:Hard;
#METER:8;
#RADARVALUES:0.507390,0.638201,0.221983,0.288578,0.310776,320.000000,300.000000,20.000000,26.000000,0.000000,0.000000,0.000000,0.000000,0.000000,0.507390,0.638201,0.221983,0.288578,0.310776,320.000000,300.000000,20.000000,26.000000,0.000000,0.000000,0.000000,0.000000,0.000000;
#CREDIT:;
#NOTES:
// measure 0
0000
0000
0000
0000
,  // measure 1
0000
0000
0000
0000
,  // measure 2
0000
0000
0000
0000
,  // measure 3
0000
0000
0000
0000
,  // measure 4
1100
0000
1000
0000
0001
0000
0100
0001
,  // measure 5
0010
0000
0000
0001
0000
0000
1000
0000
0020
0000
0000
0000
0230
0000
0000
0000
,  // measure 6
1000
0000
0301
0000
0010
0000
0100
0010
,  // measure 7
0001
0000
0000
1000
0000
0000
0100
0000
0020
0000
0000
0000
1000
0000
0000
0000
,  // measure 8
0031
0000
0010
0000
0100
0000
0010
0001
,  // measure 9
1000
0000
0000
0001
0000
0000
0100
0000
0002
0000
0000
0000
0023
0000
0000
0000
,  // measure 10
1000
0000
0031
0010
0200
0000
0300
1000
,  // measure 11
0010
0001
1000
0100
0002
0000
0000
0003
,  // measure 12
1001
0000
0000
0000
0000
0000
0000
0000
0000
0001
0000
0000
1000
0000
0000
0000
0010
0000
0000
0000
1000
0000
0000
0000
0001
0000
0000
0000
0000
0000
0010
0000
0000
0000
0000
0000
0001
0000
0000
0000
0000
0000
1000
0000
0000
0000
0000
0000
,  // measure 13
0010
0000
0000
1000
0001
0000
1000
0000
0200
0000
0000
0000
2300
0000
0000
0000
,  // measure 14
0010
0000
3001
0100
0010
0100
0001
0010
,  // measure 15
0100
0000
0000
0010
0001
0000
1000
0000
0002
0000
0000
0000
0010
0000
0000
0000
,  // measure 16
1003
0000
0100
0010
0001
1000
0001
0010
,  // measure 17
0100
0000
0000
1000
0001
0000
1000
0000
0200
0000
0000
0000
0320
0000
0000
0000
,  // measure 18
1000
0000
0031
0100
0020
0000
0031
0010
,  // measure 19
1000
0100
1000
0010
0200
0000
1300
0000
,  // measure 20
0101
0000
0000
0000
1000
0010
0000
1000
0000
0001
0000
0100
0000
0000
0000
0000
,  // measure 21
0011
0000
0000
0000
1010
0000
0000
1000
0002
0000
0000
0000
0013
0000
0000
0000
,  // measure 22
0101
0000
0100
0000
0001
1000
0000
0100
0000
0010
0000
0001
0000
0000
0000
0000
,  // measure 23
0011
0000
0000
0000
1010
0000
0000
1000
0002
0000
0000
0000
0103
0000
0001
1000
,  // measure 24
0001
0100
1000
0100
0001
0100
1000
0100
,  // measure 25
0001
0010
1000
0010
0001
0010
1000
0010
,  // measure 26
0001
0010
0001
0010
0001
0010
0001
0010
0100
1000
0100
1000
0100
1000
0100
1000
,  // measure 27
0001
0100
1000
0100
0001
0000
1001
0000
,  // measure 28
0220
0000
0000
0330
0100
0000
0010
0100
0001
0010
0000
0000
0100
0000
0010
0000
,  // measure 29
0100
0000
1000
0000
0001
0100
0001
0000
1000
0000
0100
0000
1000
0000
0001
0000
,  // measure 30
1001
0000
0000
0000
0001
0000
0010
0001
1000
0010
0000
0000
0100
0000
0001
0000
,  // measure 31
0010
0100
1000
0010
0001
0010
1000
0100
,  // measure 32
2200
0000
0000
3300
1000
0000
0001
0100
0001
1000
0000
0000
0100
0000
1000
0000
,  // measure 33
0001
0000
0010
0000
0100
0010
0001
0000
1000
0000
0010
0000
1000
0000
0001
0000
,  // measure 34
1001
0000
0000
0000
0001
0000
0100
0001
0010
0100
0000
0000
1000
0000
0010
0000
,  // measure 35
0001
0000
0010
0000
1000
0000
0001
0000
0100
0000
0000
0000
0010
0100
0010
0000
,  // measure 36
0220
0000
0000
0330
1001
0000
1000
0001
1000
0100
0000
0000
0010
0000
0100
0000
,  // measure 37
1000
0000
0001
0000
0100
0010
0100
0000
0001
0000
0010
0000
0100
0000
1000
0000
,  // measure 38
1100
0000
0000
0000
0001
0000
0010
0001
1000
0010
0000
0000
0100
0000
0010
0000
,  // measure 39
0001
0010
1000
0001
0010
0100
1000
0001
,  // measure 40
2002
0000
0000
3003
0110
0000
0100
0010
1000
0001
0000
0000
0010
0000
1000
0000
,  // measure 41
0010
0000
0001
0000
1000
0001
0100
0000
0001
0000
0010
0000
1000
0000
0010
0000
,  // measure 42
0011
0000
0000
0000
1000
0000
0010
1000
0001
0010
0000
0000
0100
0000
0010
0000
,  // measure 43
0001
0010
0001
1000
0000
0100
1000
0001
0000
0010
0001
1000
0000
0001
1000
0000
,  // measure 44
2001
0001
0001
0001
,  // measure 45
0001
0001
0001
0002
,  // measure 46
3003
0000
0000
0000
;

//---------------dance-single - ----------------
#NOTEDATA:;
#CHARTNAME:X-Scale 9;
#STEPSTYPE:dance-single;
#DESCRIPTION:;
#CHARTSTYLE:;
#DIFFICULTY:Medium;
#METER:7;
#RADARVALUES:0.383713,0.485033,0.144289,0.221983,0.061045,242.000000,229.000000,13.000000,20.000000,0.000000,0.000000,0.000000,0.000000,0.000000,0.383713,0.485033,0.144289,0.221983,0.061045,242.000000,229.000000,13.000000,20.000000,0.000000,0.000000,0.000000,0.000000,0.000000;
#CREDIT:;
#NOTES:
// measure 0
0000
0000
0000
0000
,  // measure 1
0000
0000
0000
0000
,  // measure 2
0000
0000
0000
0000
,  // measure 3
0000
0000
0000
0000
,  // measure 4
1001
0000
0000
0000
0000
0000
0000
0001
,  // measure 5
0100
0000
0000
0001
0000
0000
1000
0000
0200
0000
0000
0000
0320
0000
0000
0000
,  // measure 6
0000
0000
0030
0000
0000
0000
0000
0001
,  // measure 7
0010
0000
0000
0001
0000
0000
1000
0000
0200
0000
0000
0000
0000
0000
0000
0000
,  // measure 8
0310
0000
0000
0000
0000
0000
0000
0100
,  // measure 9
1000
0000
0000
0001
0000
0000
0010
0000
0002
0000
0000
0000
0203
0000
0000
0000
,  // measure 10
0000
0000
0300
0001
0020
0000
0030
0100
,  // measure 11
0010
0001
1000
0100
0020
0000
0030
0000
,  // measure 12
0001
0000
0011
0000
0010
0000
0101
0001
,  // measure 13
1000
0000
0000
0100
0000
0000
1000
0000
0020
0000
0000
0000
2030
0000
0000
0000
,  // measure 14
0000
0000
3001
0000
0010
0000
0101
0001
,  // measure 15
1000
0000
0000
0100
0000
0000
1000
0000
0020
0000
0000
0000
0000
0000
0000
0000
,  // measure 16
0130
0000
0110
0000
0001
0000
0101
1000
,  // measure 17
0001
0000
0000
0010
0000
0000
0100
0000
2000
0000
0000
0000
3020
0000
0000
0000
,  // measure 18
0000
0000
0031
0010
2000
0000
3001
1000
,  // measure 19
0100
0001
0100
0010
0002
0000
1003
0000
,  // measure 20
1001
1000
0001
0010
,  // measure 21
0001
0000
0000
0000
0100
0000
0000
0010
0100
0000
0000
0000
0002
0000
0000
0000
,  // measure 22
1003
0001
1000
0000
0100
0010
0100
0000
,  // measure 23
1000
0010
1000
0000
0001
0010
0001
0000
,  // measure 24
1000
0010
0100
0001
1000
0010
0100
0001
,  // measure 25
1000
0100
0010
0001
1000
0100
0010
0001
,  // measure 26
1000
0000
0100
1000
0001
0000
0010
0100
,  // measure 27
1000
0100
0001
0100
1000
0000
1100
0000
,  // measure 28
1001
0000
0001
0010
0001
0000
1000
0100
,  // measure 29
0001
0100
1000
0010
0100
0010
2000
0000
,  // measure 30
3001
0000
1000
0010
0100
0000
0001
0010
,  // measure 31
0001
1000
0100
0001
0100
0010
0001
1000
,  // measure 32
1001
0000
0010
1000
0010
0000
1000
0100
,  // measure 33
0001
0100
1000
0010
0100
0010
2000
0000
,  // measure 34
3001
0000
0010
0001
1000
0010
0001
0010
,  // measure 35
1000
0000
0100
0000
0010
0000
0001
0000
2000
0000
0000
0000
3001
1000
0001
1000
,  // measure 36
0001
0000
1001
1000
0010
0000
1000
0100
,  // measure 37
0001
0000
0100
0000
1000
0100
1000
0000
0001
0000
0100
0000
0010
0000
0100
0000
,  // measure 38
0001
0000
1000
0010
1000
0000
0001
0010
,  // measure 39
1000
0010
0100
1000
0001
0100
0001
1000
,  // measure 40
0001
0000
1001
1000
0100
0000
1000
0001
,  // measure 41
0010
0000
0001
0000
0100
0010
0100
0000
0001
0000
0010
0000
1000
0000
0010
0000
,  // measure 42
0001
0000
1000
0010
0100
0010
1000
0000
,  // measure 43
0001
0010
1000
0010
0001
0000
1000
0010
,  // measure 44
2020
0000
0000
0000
,  // measure 45
0000
0000
0000
0000
,  // measure 46
3030
0000
0000
0000
;

//---------------dance-single - ----------------
#NOTEDATA:;
#CHARTNAME:X-Scale 6;
#STEPSTYPE:dance-single;
#DESCRIPTION:;
#CHARTSTYLE:;
#DIFFICULTY:Easy;
#METER:4;
#RADARVALUES:0.290163,0.415108,0.055496,0.022198,0.000000,183.000000,178.000000,5.000000,2.000000,0.000000,0.000000,0.000000,0.000000,0.000000,0.290163,0.415108,0.055496,0.022198,0.000000,183.000000,178.000000,5.000000,2.000000,0.000000,0.000000,0.000000,0.000000,0.000000;
#CREDIT:;
#NOTES:
// measure 0
0000
0000
0000
0000
,  // measure 1
0000
0000
0000
0000
,  // measure 2
0000
0000
0000
0000
,  // measure 3
0000
0000
0000
0000
,  // measure 4
0001
0000
0000
0000
,  // measure 5
0010
0000
0100
0010
,  // measure 6
0001
0000
0000
0000
,  // measure 7
1000
0000
0010
0000
,  // measure 8
1000
0000
0000
0000
,  // measure 9
0001
0000
0010
0100
,  // measure 10
0010
0000
0001
0000
,  // measure 11
1000
0100
1000
0000
,  // measure 12
1001
0001
0000
0010
,  // measure 13
0000
0000
0001
0010
0100
0000
1000
0000
,  // measure 14
0000
0100
0000
1000
,  // measure 15
0000
0000
0001
0010
0200
0000
0000
0000
,  // measure 16
1300
0100
0000
0010
,  // measure 17
0000
0000
0001
1000
0010
0000
1000
0000
,  // measure 18
0001
0000
0100
0010
0100
0000
0000
0001
,  // measure 19
0100
0010
0100
0001
0100
0000
0001
0000
,  // measure 20
1001
1000
0100
1000
,  // measure 21
0001
0010
0001
0100
,  // measure 22
0010
0100
0001
0010
,  // measure 23
0100
1000
0010
0100
,  // measure 24
0001
0010
0001
0010
0001
0010
0001
0010
,  // measure 25
0100
1000
0100
1000
0100
1000
0100
1000
,  // measure 26
0001
0000
0100
0001
1000
0000
0000
0010
,  // measure 27
0100
0001
1000
0100
0020
0000
0030
0000
,  // measure 28
0011
0000
0001
0000
1000
0000
0010
1000
,  // measure 29
0001
0000
0010
0001
1000
0000
0010
0000
,  // measure 30
1000
0000
0001
0000
0100
0000
0001
1000
,  // measure 31
0010
0000
1000
0001
0010
0000
0100
0000
,  // measure 32
1000
0000
0001
0000
0010
0000
0001
1000
,  // measure 33
0010
0000
1000
0001
0010
0000
1000
0000
,  // measure 34
0100
0000
0010
0000
0001
0000
1000
0100
,  // measure 35
0010
0001
0100
0010
1000
0000
0001
0000
,  // measure 36
1001
0000
1000
0010
1000
0000
0001
0010
,  // measure 37
0001
0000
0100
0010
0100
0000
0001
0010
,  // measure 38
0001
0000
1000
0010
1000
0000
0100
0010
,  // measure 39
0100
0000
1000
0010
1000
0000
0001
0010
,  // measure 40
0001
0000
0100
0010
0100
0000
0001
0010
,  // measure 41
0001
0000
1000
0010
1000
0000
0100
0010
,  // measure 42
0100
0000
1000
0100
1000
0000
0001
0010
,  // measure 43
0100
1000
0010
0100
0001
0000
1000
0000
,  // measure 44
1001
0000
0000
0000
;

//---------------dance-single - ----------------
#NOTEDATA:;
#CHARTNAME:X-Scale 1;
#STEPSTYPE:dance-single;
#DESCRIPTION:;
#CHARTSTYLE:;
#DIFFICULTY:Beginner;
#METER:1;
#RADARVALUES:0.110991,0.146509,0.022198,0.000000,0.000000,70.000000,68.000000,2.000000,0.000000,0.000000,0.000000,0.000000,0.000000,0.000000,0.110991,0.146509,0.022198,0.000000,0.000000,70.000000,68.000000,2.000000,0.000000,0.000000,0.000000,0.000000,0.000000,0.000000;
#CREDIT:;
#NOTES:
// measure 0
0000
0000
0000
0000
,  // measure 1
0000
0000
0000
0000
,  // measure 2
0000
0000
0000
0000
,  // measure 3
0000
0000
0000
0000
,  // measure 4
1000
0000
0000
0000
,  // measure 5
0000
0000
0000
0000
,  // measure 6
0001
0000
0000
0000
,  // measure 7
0000
0000
0000
0000
,  // measure 8
0010
0000
0000
0000
,  // measure 9
0000
0000
0000
0000
,  // measure 10
0100
0000
0000
0000
,  // measure 11
0000
0000
0000
0000
,  // measure 12
0000
1000
0000
0100
,  // measure 13
0000
0010
0000
0001
,  // measure 14
0000
1000
0000
0010
,  // measure 15
0000
0100
0000
0001
,  // measure 16
0000
1000
0000
0001
,  // measure 17
0000
0010
0000
0100
,  // measure 18
0000
1000
0000
0010
,  // measure 19
0000
0100
0000
0001
,  // measure 20
1001
0000
1000
0000
,  // measure 21
0100
0000
1000
0000
,  // measure 22
0001
0000
0010
0000
,  // measure 23
0001
0000
1000
0000
,  // measure 24
0100
0000
1000
0000
,  // measure 25
0010
0000
0100
0000
,  // measure 26
0001
0000
0010
0000
,  // measure 27
0100
0000
0000
0000
,  // measure 28
0110
0000
1000
0000
,  // measure 29
0001
0000
1000
0000
,  // measure 30
0010
0000
1000
0000
,  // measure 31
0001
0000
0010
0000
,  // measure 32
0100
0000
0010
0000
,  // measure 33
0001
0000
1000
0000
,  // measure 34
0001
0000
0010
0000
,  // measure 35
0100
0000
1000
0000
,  // measure 36
0001
0000
1000
0000
,  // measure 37
0100
0000
1000
0000
,  // measure 38
0001
0000
1000
0000
,  // measure 39
0100
0000
0010
0000
,  // measure 40
0001
0000
1000
0000
,  // measure 41
0001
0000
0100
0000
,  // measure 42
0001
0000
1000
0000
,  // measure 43
0010
0000
0100
0000
,  // measure 44
0001
0000
0000
0000
;

//---------------dance-single - ----------------
#NOTEDATA:;
#CHARTNAME:X-Scale 14;
#STEPSTYPE:dance-single;
#DESCRIPTION:;
#CHARTSTYLE:;
#DIFFICULTY:Challenge;
#METER:10;
#RADARVALUES:0.631066,0.740313,0.055496,0.188686,0.782490,398.000000,393.000000,5.000000,17.000000,0.000000,0.000000,0.000000,0.000000,0.000000,0.631066,0.740313,0.055496,0.188686,0.782490,398.000000,393.000000,5.000000,17.000000,0.000000,0.000000,0.000000,0.000000,0.000000;
#CREDIT:;
#NOTES:
// measure 0
0000
0000
0000
0000
,  // measure 1
0000
0000
0000
0000
,  // measure 2
0000
0000
0000
0000
,  // measure 3
0000
0000
0000
0000
,  // measure 4
0101
0000
0100
0001
1000
0001
0010
0100
,  // measure 5
1000
0000
0000
0100
0000
0000
0010
0000
0002
0000
0000
0000
0203
0000
0000
0000
,  // measure 6
0301
0000
0100
0010
0001
0010
1000
0001
,  // measure 7
0100
0000
0000
0001
0000
0000
1000
0000
0200
0000
0000
0000
0001
0000
0000
0000
,  // measure 8
1300
0000
0100
0010
0001
1000
0001
0010
,  // measure 9
0100
0000
0000
0010
0000
0000
0001
0000
2000
0000
0000
0000
3002
0000
0000
0000
,  // measure 10
0013
0000
1000
0100
0002
0000
1003
0010
,  // measure 11
0001
0100
0001
0010
0200
0000
0001
0000
,  // measure 12
1300
0000
0000
0000
0000
0000
0000
0000
0000
0100
0000
0000
1000
0000
0000
0000
0100
0000
0000
0000
0010
0000
0000
0000
0001
0000
0010
0000
0001
0000
0010
0000
0001
0000
0010
0000
0001
0000
0000
0000
0000
0000
1000
0000
0000
0000
0000
0000
,  // measure 13
0010
0000
0000
0100
0000
0000
0010
0000
2000
0000
0000
0000
3002
0000
0000
0000
,  // measure 14
0013
0000
0100
0010
0001
1000
0010
0001
,  // measure 15
0010
0000
0000
0100
0000
0000
0001
0000
2000
0000
0000
0000
0100
0000
0000
0000
,  // measure 16
3001
0000
0010
0100
1000
0001
1000
0010
,  // measure 17
0100
0000
0000
0001
0000
0000
0010
0000
0200
0000
0000
0000
0320
0000
0000
0000
,  // measure 18
0031
0000
1000
0100
0020
0000
1030
0010
,  // measure 19
0001
0100
0001
0010
0200
0000
0001
0300
,  // measure 20
1100
0000
0000
0000
1000
0001
0100
0001
1000
0100
0010
0100
1000
0000
0000
0000
,  // measure 21
0001
0100
0010
0100
0001
0010
0100
0010
0001
0010
0100
1000
0001
0100
0001
1000
,  // measure 22
0100
0000
0010
0000
0001
0010
0100
0010
0001
1000
0010
1000
0001
0000
0010
0000
,  // measure 23
0100
1000
0001
1000
0010
0100
0010
1000
0100
1000
0001
0100
0001
0000
0010
0100
,  // measure 24
0010
0001
0010
1000
0010
0001
0010
0100
,  // measure 25
1000
0100
0001
0100
1000
0100
0010
0001
,  // measure 26
1000
0001
1000
0001
1000
0001
1000
0001
0010
0100
0010
0100
0010
0100
0010
0100
,  // measure 27
2000
0000
0000
0000
0000
0000
3100
1000
0001
1000
0100
0000
0010
0001
0010
0000
,  // measure 28
0011
0000
0000
0000
1000
0100
1000
0100
0000
0010
0001
0010
0001
0000
1000
0000
,  // measure 29
0010
0100
0010
0100
0000
0001
0010
0001
0000
1000
0100
1000
0000
0010
0100
0010
,  // measure 30
0100
0000
0000
0000
0001
0010
0001
0010
0000
0100
1000
0100
1000
0000
0001
0000
,  // measure 31
0010
0001
0010
0001
0000
1000
0010
1000
0000
0100
0010
0100
0000
1000
0001
1000
,  // measure 32
0001
0000
0000
0000
0010
0100
0010
0100
0000
1000
0010
1000
0010
0000
0100
0000
,  // measure 33
0001
0010
0001
0010
0000
0100
1000
0100
0000
0010
0001
0010
0000
0100
1000
0001
,  // measure 34
1000
0000
0100
0010
0001
1000
0001
0010
0000
0100
0010
0100
0010
0000
0001
0000
,  // measure 35
1000
0100
1000
0100
0000
0010
0001
0010
0000
0100
1000
0001
0100
0010
1000
0001
,  // measure 36
0100
0000
0000
0000
0001
1000
0010
0100
0000
0001
0010
0100
1000
0000
0001
0100
,  // measure 37
0001
1000
0001
0010
0000
0100
0010
0001
0000
1000
0100
1000
0001
0000
0010
0000
,  // measure 38
0100
0000
1000
0100
1000
0001
0100
0001
0000
0010
0100
0010
0100
0000
1000
0000
,  // measure 39
0001
0100
0001
1000
0000
0100
0010
0100
0000
1000
0001
0100
0001
0000
0010
0000
,  // measure 40
0101
0000
0000
0000
0001
1000
0010
1000
0000
0100
0010
0100
0010
0000
0001
0010
,  // measure 41
0001
1000
0100
0010
0000
0100
1000
0001
0000
0100
0010
0100
0001
0000
0010
0000
,  // measure 42
0001
0000
1000
0001
1000
0010
1000
0001
0000
0010
0100
0010
0100
0000
0010
0001
,  // measure 43
0010
0000
0001
1000
0000
0100
1000
0001
0000
0010
0001
1000
0000
0100
0010
0000
,  // measure 44
0021
0100
1000
0100
,  // measure 45
0001
0100
1000
0200
,  // measure 46
0330
0000
0000
0000
;
