#VERSION:0.83;
#TITLE:Never Give Up on You;
#SUBTITLE:;
#ARTIST:Lucie Jones;
#TITLETRANSLIT:;
#SUBTITLETRANSLIT:;
#ARTISTTRANSLIT:;
#GENRE:Chamber Pop;
#ORIGIN:;
#CREDIT:;
#BANNER:Never Give Up on You-bn.png;
#BACKGROUND:Never Give Up on You-bg.png;
#PREVIEWVID:;
#JACKET:Never Give Up on You-jacket.png;
#CDIMAGE:;
#DISCIMAGE:;
#LYRICSPATH:;
#CDTITLE:cdtitle.png;
#MUSIC:Never Give Up on You.ogg;
#OFFSET:-0.004000;
#SAMPLESTART:38.144001;
#SAMPLELENGTH:32.000000;
#SELECTABLE:YES;
#BPMS:0.000=64.500;
#STOPS:;
#DELAYS:;
#WARPS:;
#TIMESIGNATURES:0.000=4=4;
#TICKCOUNTS:0.000=4;
#COMBOS:0.000=1;
#SPEEDS:0.000=1.000=0.000=0;
#SCROLLS:0.000=1.000;
#FAKES:;
#LABELS:0.000=Song Start;
#BGCHANGES:1.000=Never Give Up on You.avi=1.000=1=0=0=StretchNoLoop==CrossFade==,
99999=-nosongbg-=1.000=0=0=0 // don't automatically add -songbackground-
;
#KEYSOUNDS:;
#ATTACKS:
;

//---------------dance-single - ----------------
#NOTEDATA:;
#CHARTNAME:X-Scale 9;
#STEPSTYPE:dance-single;
#DESCRIPTION:;
#CHARTSTYLE:;
#DIFFICULTY:Hard;
#METER:7;
#RADARVALUES:0.384538,0.374644,0.031483,0.346309,0.582430,342.000000,338.000000,4.000000,44.000000,0.000000,0.000000,0.000000,0.000000,0.000000,0.384538,0.374644,0.031483,0.346309,0.582430,342.000000,338.000000,4.000000,44.000000,0.000000,0.000000,0.000000,0.000000,0.000000;
#CREDIT:;
#NOTES:
// measure 0
0000
0000
0000
0000
0000
1000
0010
0100
0002
0000
2003
0000
3000
0001
1000
0100
,  // measure 1
2000
0000
0000
0000
3000
0010
0100
0001
2000
0000
3002
0000
1003
0010
0001
0010
,  // measure 2
1000
0000
0000
0000
0100
0000
0010
0000
0200
0000
0000
0000
0000
0300
2000
0000
0000
0000
0000
3000
0002
0000
0000
0000
0000
0000
0000
0000
0000
0000
0003
0000
,  // measure 3
0001
0000
0010
0000
0100
0000
0000
0000
2000
0000
0000
0000
0000
3000
0020
0000
0000
0000
0000
0030
2000
0000
0000
0000
0002
0000
0000
0000
0000
0000
0003
0000
,  // measure 4
3200
0000
0000
0300
1100
1000
0100
0010
0001
0000
1000
0000
0000
0001
0100
0010
,  // measure 5
1000
0000
0000
0000
0001
0010
0100
1000
0001
0000
1000
0000
0100
0001
0100
1000
,  // measure 6
0100
0000
1000
0100
2000
0000
3000
0002
1000
0003
0020
0000
0000
0100
0000
0000
,  // measure 7
0031
0010
0001
0000
2000
0000
3000
0002
0000
0003
2000
0000
0200
0000
0300
0000
,  // measure 8
3002
0000
0003
0010
0011
0000
0000
1000
0010
0000
0100
0010
1000
0001
0100
0010
,  // measure 9
2000
0000
3002
0000
1003
0000
0100
0010
0100
0000
1000
0010
2000
0000
3200
0000
,  // measure 10
0320
0000
0000
0000
0032
0000
0000
0000
0013
0000
0000
0000
0002
0000
1000
0000
0000
0000
0000
0000
0003
0000
1000
0000
0001
0000
0000
1000
0000
0000
0001
0000
,  // measure 11
0010
0000
0000
0000
0200
0000
0000
0000
0310
0000
0200
0000
0000
0000
0000
0000
1300
0000
0100
0000
0000
1000
0000
0000
0001
0000
0000
0000
0010
0000
0001
0000
,  // measure 12
1000
0000
0000
0000
0001
0000
0000
0000
0010
0000
0000
0000
0100
0000
1000
0000
0000
0000
0001
0000
0100
0000
0010
0000
1000
0000
0000
0001
0000
0000
1000
0000
,  // measure 13
0001
0000
0000
0010
0000
0000
0001
0000
0010
0000
0000
0000
0100
0000
2000
0000
0000
0000
0000
0000
0000
0000
3100
0000
0010
0000
0000
0001
0000
0000
1000
0000
,  // measure 14
0001
0000
0000
0010
0000
0000
0100
0000
1000
0000
0000
0000
1000
0000
0010
0000
0000
0000
1000
0000
0000
0010
0000
0000
1000
0000
0001
0000
0000
0010
0000
0000
,  // measure 15
0001
0000
0000
0000
0100
0000
0000
0000
0010
0000
0100
0000
0001
0000
0100
0000
0010
0000
1000
0000
0000
0000
0001
0000
1000
0000
0000
0100
0000
0000
1000
0000
,  // measure 16
0001
0000
0000
0000
0010
0000
0000
0000
0001
0000
0000
0000
0100
0000
0001
0000
0000
0000
0000
0000
0000
0000
1000
0000
0100
0000
0000
1000
0000
0000
0010
0000
,  // measure 17
0001
0000
0000
0010
0000
0000
1000
0000
0010
0000
0000
0000
0100
0000
0020
0000
0000
0000
0000
0000
0000
0000
1030
0000
0001
0000
0000
1000
0000
0000
0100
0000
,  // measure 18
1000
0000
0000
0100
0000
0000
0010
0000
0200
0000
0000
0000
0002
0000
0000
0000
0000
0000
0000
0000
0000
0000
0003
0000
0000
0000
0000
0000
0000
0000
0000
0000
,  // measure 19
0000
0000
0000
0000
0000
0000
0000
0000
0000
0000
0000
0000
0310
0000
0000
0100
0000
0000
1000
0000
0000
0100
0000
0000
0020
0000
0000
0000
0000
0000
0032
0000
0000
0000
0000
0000
1003
0000
0000
0001
0000
0000
0000
0000
0100
0000
0010
0000
,  // measure 20
1000
0000
0001
0100
0010
0100
1000
0100
0020
0000
2030
0000
3010
0100
0001
0100
,  // measure 21
0010
0000
1000
0100
0010
0000
0010
0001
0010
0000
0100
0100
0200
0000
0000
0000
,  // measure 22
1300
0000
0100
0010
0100
0000
1000
0001
1000
0000
0020
0000
0001
0000
0100
0000
,  // measure 23
1000
0030
0000
0010
0110
0000
0000
0010
0001
0000
0000
1000
0001
0000
0000
0010
,  // measure 24
0100
0000
0010
0001
0010
0000
0100
1000
0100
0000
1000
0001
1000
0000
0001
0000
,  // measure 25
1002
1000
1000
0000
1003
0000
0001
0100
0001
0010
0100
1000
0001
1000
0100
1000
,  // measure 26
0010
0000
0000
0000
0010
0000
0100
0000
0010
0000
0000
0000
0100
0000
0001
0000
1000
0000
0001
0000
0000
0000
1000
0000
0001
0000
0000
0010
0000
0000
0100
0000
,  // measure 27
0010
0000
0000
0000
0001
0000
1000
0000
0001
0000
0000
0000
0001
0000
1000
0000
0001
0000
0000
0000
0010
0000
0100
0000
0010
0000
0000
0001
0000
0000
0010
0000
,  // measure 28
0001
0000
0000
1000
0000
0000
0001
0000
0020
0000
0000
0000
0000
0000
0100
0000
0100
0000
0000
0000
0030
0000
0001
0000
0010
0000
0000
0010
0000
0000
0100
0000
,  // measure 29
0010
0001
1000
0100
0010
0001
0000
1000
0010
0000
1000
0001
0010
0001
0000
0100
,  // measure 30
0010
0000
0000
0000
0010
0000
0100
0000
0001
0000
1000
0000
0000
0000
0100
0000
0010
0000
0001
0000
0000
0000
0001
0000
0100
0000
0000
0010
0000
0000
1000
0000
,  // measure 31
0001
0000
0000
0000
0001
0000
0100
0000
0001
0000
0000
0000
0001
0000
1000
0000
0001
0000
0000
0000
1000
0000
0100
0000
1000
0000
0000
0100
0000
0000
0001
0000
,  // measure 32
1000
0000
0000
0010
0000
0000
0001
0000
0100
0000
0000
0000
0001
0000
0100
0000
0001
0000
0000
0000
0010
0000
0100
0000
0010
0000
0000
0001
0000
0000
1000
0000
,  // measure 33
0001
0000
0000
0100
0000
0000
0020
0000
0000
0000
0000
0000
0200
0000
0000
0000
0000
0000
0000
0000
0000
0000
0000
0000
0000
0000
0000
0000
0000
0000
0000
0000
,  // measure 34
0330
0000
0000
0000
;

//---------------dance-single - ----------------
#NOTEDATA:;
#CHARTNAME:X-Scale 7;
#STEPSTYPE:dance-single;
#DESCRIPTION:;
#CHARTSTYLE:;
#DIFFICULTY:Medium;
#METER:5;
#RADARVALUES:0.279971,0.307743,0.031483,0.401404,0.377792,249.000000,245.000000,4.000000,51.000000,0.000000,0.000000,0.000000,0.000000,0.000000,0.279971,0.307743,0.031483,0.401404,0.377792,249.000000,245.000000,4.000000,51.000000,0.000000,0.000000,0.000000,0.000000,0.000000;
#CREDIT:;
#NOTES:
// measure 0
0000
0000
2000
0000
0010
0010
0000
0000
,  // measure 1
3002
0000
0023
0000
0100
0100
0000
0000
,  // measure 2
0032
0000
1003
0001
2000
0000
0000
3200
0000
0000
0320
0000
0000
0000
0000
0030
,  // measure 3
0001
0010
0000
0000
0200
0000
0000
2300
0000
0000
3002
0000
0020
0000
0000
0003
,  // measure 4
0230
0000
0000
0000
1300
0000
0000
0100
1000
0000
0001
0000
1000
0000
0100
0010
,  // measure 5
0002
0000
0000
0000
1003
0000
0001
0100
0010
0000
1000
0000
0001
0000
0000
0100
,  // measure 6
0001
0000
1000
0100
2000
0000
3000
0002
0000
0003
0020
0000
0000
0000
0030
0000
,  // measure 7
0100
1000
0000
0000
0002
0000
0003
2000
0000
3000
0200
0000
0010
0000
0000
0000
,  // measure 8
1300
0000
0000
0000
1100
0000
0000
1000
0001
0000
0000
0001
0010
0000
0000
0010
,  // measure 9
0100
0000
1000
0000
0001
0000
0000
0100
0001
0000
0000
0001
0020
0000
0230
0000
,  // measure 10
2300
0000
0000
0000
3002
0000
0000
0000
1003
0000
0000
0000
2000
0000
0000
0000
0000
0000
0000
0000
3000
0000
0001
0000
0010
0000
0000
0001
0000
0000
1000
0000
,  // measure 11
0010
0000
0000
0000
0200
0000
0000
0000
0300
0000
0002
0000
0000
0000
0000
0000
0003
0000
0000
1000
0000
0000
0001
0000
0010
0000
0000
0000
0001
0000
1000
0000
,  // measure 12
0010
0000
0200
0000
0300
0002
0000
0000
0003
0000
0000
1000
0100
0000
0000
0100
,  // measure 13
1000
0000
0000
0000
0000
0000
0002
0000
0000
0000
0003
0200
0000
0000
0000
0000
0300
0000
0000
0000
0000
0000
0001
0000
0100
0000
0000
0000
0000
0000
0100
0000
,  // measure 14
0010
0000
0000
0000
0000
0000
2000
0000
0000
0000
3002
0000
0000
0000
0000
0000
0003
0000
0010
0000
0000
0000
0001
0000
1000
0000
0000
0100
0000
0000
1000
0000
,  // measure 15
0001
0000
0000
0000
0020
0000
0000
0000
0030
0000
0002
0000
0000
0000
0000
0000
0003
0000
1000
0000
0000
0000
0010
0000
1000
0000
0000
0100
0000
0000
0010
0000
,  // measure 16
0001
0000
2000
0000
3000
0000
0020
0000
0030
0000
0000
0100
0001
0000
0000
0001
,  // measure 17
1000
0000
0000
0000
0000
0000
2000
0000
0000
0000
3000
0020
0000
0000
0000
0000
0030
0000
0000
0000
0000
0000
1000
0000
0100
0000
0000
0000
0000
0000
0100
0000
,  // measure 18
0010
0000
0000
0010
0002
0000
2000
0000
0000
0000
0000
0000
3000
0000
0000
0000
,  // measure 19
0000
0000
0013
0000
0001
1000
0001
0000
,  // measure 20
0010
0100
1000
0000
0001
0100
0010
0000
,  // measure 21
1000
0000
0100
0000
0020
0000
0030
0002
0000
0003
2000
3020
2030
0000
0000
0000
,  // measure 22
3001
0000
0100
0000
0020
0000
0030
0200
0000
0300
0002
0000
1000
0000
0000
0000
,  // measure 23
0010
0000
0003
0000
0011
0000
0000
0001
1000
0000
0000
1000
0100
0000
0000
0100
,  // measure 24
0010
0000
0001
0000
1000
0000
0000
1000
0010
0000
0000
0010
0100
0000
0001
0000
,  // measure 25
1000
0100
1000
0000
1100
0000
0000
0001
0010
0000
0001
0000
1000
0100
0000
1000
,  // measure 26
0100
0000
0010
0001
1000
0000
0000
0001
0100
0000
0000
0010
1000
0001
0000
0100
,  // measure 27
0001
0000
0010
0100
1000
0000
0001
1000
0100
0000
0000
0001
1000
0001
0000
0100
,  // measure 28
0010
0000
1000
0010
2000
0000
0000
0000
0001
0000
3000
1000
0100
1000
0000
0001
,  // measure 29
0100
0000
0001
0000
0101
0000
0000
0100
0010
0000
0000
1000
0001
1000
0000
0100
,  // measure 30
0010
0000
0001
0010
0001
0000
0000
1000
0100
1000
0000
0001
0010
0001
0000
0100
,  // measure 31
0010
0000
1000
0100
0010
0000
0001
0010
0001
0000
0000
1000
0010
1000
0000
0001
,  // measure 32
0010
0000
0000
0100
1000
0000
0001
0100
0010
0000
0000
1000
0010
1000
0000
0100
,  // measure 33
0010
0000
0001
2000
0000
0000
0002
0000
0000
0000
0000
0000
0000
0000
0000
0000
,  // measure 34
3003
0000
0000
0000
;

//---------------dance-single - ----------------
#NOTEDATA:;
#CHARTNAME:X-Scale 5;
#STEPSTYPE:dance-single;
#DESCRIPTION:;
#CHARTSTYLE:;
#DIFFICULTY:Easy;
#METER:3;
#RADARVALUES:0.194518,0.240842,0.015741,0.157413,0.157413,173.000000,171.000000,2.000000,20.000000,0.000000,0.000000,0.000000,0.000000,0.000000,0.194518,0.240842,0.015741,0.157413,0.157413,173.000000,171.000000,2.000000,20.000000,0.000000,0.000000,0.000000,0.000000,0.000000;
#CREDIT:;
#NOTES:
// measure 0
0000
0002
0000
0000
,  // measure 1
2003
3200
0000
0000
,  // measure 2
0300
0010
0200
0000
0000
0000
0000
0000
,  // measure 3
1300
0002
0000
2003
,  // measure 4
3200
0000
0000
0000
1300
0000
0000
0100
0000
0000
0010
0000
0000
0100
0000
0000
,  // measure 5
2000
0000
0000
0000
3001
0000
0000
0100
0000
0000
0010
0000
0000
0100
0000
0000
,  // measure 6
0001
0000
0010
0001
0010
0000
0000
0100
0000
0000
1000
0000
0000
0001
0000
0000
,  // measure 7
1000
0002
0000
0000
0013
0000
0000
0001
0000
0000
1000
0000
0200
0000
0000
0000
,  // measure 8
2300
3001
1000
0001
,  // measure 9
1000
0100
0010
0002
,  // measure 10
0000
1003
0000
0100
,  // measure 11
1000
0001
0100
0000
0000
0000
0010
0000
,  // measure 12
1000
0100
0010
0000
0000
0000
0001
0000
,  // measure 13
0010
0001
0000
1000
,  // measure 14
0010
0000
0000
0000
1000
0000
0000
0100
0000
0000
0000
0000
0010
0000
0000
0100
,  // measure 15
0010
0000
0002
0000
1003
0002
0000
0003
0000
0000
0000
0000
0100
0000
0010
0100
,  // measure 16
0010
0000
1000
0100
0010
0000
0000
0001
0000
0000
0000
0000
1000
0000
0000
0000
,  // measure 17
0100
1000
0000
0000
0001
0000
0000
0010
0000
0000
0000
0000
0001
0000
0000
0100
,  // measure 18
0001
0000
1000
0100
0000
0000
2000
0000
0000
0000
0000
0000
3000
0000
0000
0000
,  // measure 19
0000
0000
0101
0000
1000
0100
1000
0000
,  // measure 20
0001
0100
0001
0000
0010
0100
0010
0000
,  // measure 21
0001
1000
0001
0000
1000
0010
1000
0000
,  // measure 22
0100
0010
0100
0000
1000
0001
1000
0000
,  // measure 23
0001
1001
1000
0001
,  // measure 24
1000
0010
0100
0001
,  // measure 25
2000
0001
0010
0100
,  // measure 26
0010
0000
0000
0000
0001
0000
3000
0000
1000
0000
0000
0000
0010
0100
0000
0010
,  // measure 27
0100
0000
0001
0000
1000
0000
0010
1000
0010
0000
0000
0000
1000
0001
0000
1000
,  // measure 28
0001
0000
0000
0000
0020
0000
0000
0000
0100
0000
0030
0000
0010
0001
0000
0010
,  // measure 29
0001
0000
1000
0000
0001
0000
0000
0020
0100
0000
0000
0030
0001
1000
0000
0001
,  // measure 30
1000
0000
0100
0000
1000
0000
0000
0001
0010
0000
0000
0000
0100
1000
0000
0100
,  // measure 31
1000
0000
0000
0000
0001
0000
0000
0100
0010
0000
0000
0000
1000
0100
0000
1000
,  // measure 32
0100
0000
0000
0010
0001
0000
1000
0001
1000
0000
0000
0000
0010
0100
0000
0010
,  // measure 33
0100
0000
0001
2000
0000
0000
0200
0000
0000
0000
0000
0000
0000
0000
0000
0000
,  // measure 34
3300
0000
0000
0000
;

//---------------dance-single - ----------------
#NOTEDATA:;
#CHARTNAME:X-Scale 1;
#STEPSTYPE:dance-single;
#DESCRIPTION:;
#CHARTSTYLE:;
#DIFFICULTY:Beginner;
#METER:1;
#RADARVALUES:0.088826,0.132818,0.007871,0.015741,0.000000,79.000000,78.000000,1.000000,2.000000,0.000000,0.000000,0.000000,0.000000,0.000000,0.088826,0.132818,0.007871,0.015741,0.000000,79.000000,78.000000,1.000000,2.000000,0.000000,0.000000,0.000000,0.000000,0.000000;
#CREDIT:;
#NOTES:
// measure 0
0000
1000
0000
0000
,  // measure 1
0000
0100
0000
0000
,  // measure 2
0000
0010
0000
0000
,  // measure 3
0000
0001
0000
1000
,  // measure 4
0100
1000
0000
0000
,  // measure 5
0000
0001
0000
0000
,  // measure 6
0000
0100
0000
0000
,  // measure 7
0000
0010
0000
1000
,  // measure 8
0100
1000
0000
0001
,  // measure 9
0000
1000
0000
0001
,  // measure 10
0000
1000
0000
0000
,  // measure 11
0000
0100
0000
0000
,  // measure 12
0000
1000
0000
0000
,  // measure 13
0000
0001
0000
0000
,  // measure 14
0000
0100
0000
0000
,  // measure 15
0000
0010
0000
0000
,  // measure 16
0000
1000
0000
0000
,  // measure 17
0000
0001
0000
0000
,  // measure 18
0000
2000
0000
3000
,  // measure 19
0000
1100
0100
1000
,  // measure 20
0100
1000
0001
0100
,  // measure 21
0001
0100
0010
1000
,  // measure 22
0010
1000
0001
0010
,  // measure 23
0001
0010
0000
0100
,  // measure 24
0000
0010
0000
0100
,  // measure 25
0000
1000
0010
1000
,  // measure 26
0001
0010
0001
1000
,  // measure 27
0100
0010
0100
1000
,  // measure 28
0001
1000
0010
0100
,  // measure 29
0010
1000
0100
0010
,  // measure 30
0001
1000
0100
0010
,  // measure 31
0001
1000
0010
0100
,  // measure 32
0001
1000
0010
0100
,  // measure 33
0001
0002
0000
0003
;
