#VERSION:0.83;
#TITLE:Never Change;
#SUBTITLE:;
#ARTIST:NUU$HI;
#TITLETRANSLIT:;
#SUBTITLETRANSLIT:;
#ARTISTTRANSLIT:;
#GENRE:Future Riddim;
#ORIGIN:;
#CREDIT:;
#BANNER:Never Change-bn.png;
#BACKGROUND:Never Change-bg.png;
#PREVIEWVID:;
#JACKET:Never Change-jacket.png;
#CDIMAGE:;
#DISCIMAGE:;
#LYRICSPATH:;
#CDTITLE:cdtitle.png;
#MUSIC:Never Change.ogg;
#OFFSET:-0.003000;
#SAMPLESTART:13.717000;
#SAMPLELENGTH:13.714000;
#SELECTABLE:YES;
#BPMS:0.000=140.000;
#STOPS:;
#DELAYS:;
#WARPS:;
#TIMESIGNATURES:0.000=4=4;
#TICKCOUNTS:0.000=4;
#COMBOS:0.000=1;
#SPEEDS:0.000=1.000=0.000=0;
#SCROLLS:0.000=1.000;
#FAKES:;
#LABELS:0.000=Song Start;
#BGCHANGES:;
#KEYSOUNDS:;
#ATTACKS:
;

//---------------dance-single - ----------------
#NOTEDATA:;
#CHARTNAME:X-Scale 6;
#STEPSTYPE:dance-single;
#DESCRIPTION:;
#CHARTSTYLE:;
#DIFFICULTY:Easy;
#METER:4;
#RADARVALUES:0.236706,0.311523,0.033815,0.177530,0.000000,196.000000,192.000000,4.000000,21.000000,0.000000,0.000000,0.000000,0.000000,0.000000,0.236706,0.311523,0.033815,0.177530,0.000000,196.000000,192.000000,4.000000,21.000000,0.000000,0.000000,0.000000,0.000000,0.000000;
#CREDIT:iamthek3n;
#NOTES:
// measure 0
0000
0000
0000
0000
,  // measure 1
0000
0000
0000
0000
,  // measure 2
0000
0000
0000
0000
,  // measure 3
0000
0000
0000
0000
,  // measure 4
1000
0000
0001
0000
,  // measure 5
0100
0000
0001
0000
,  // measure 6
1000
0100
0010
0100
,  // measure 7
1000
0000
1000
0000
,  // measure 8
0001
0000
0001
0100
,  // measure 9
0001
0000
1000
0000
0010
1000
0001
0000
,  // measure 10
0010
0100
0010
0001
,  // measure 11
1000
0000
0001
0000
0100
0010
1000
0000
,  // measure 12
0001
1000
0001
0000
0010
0000
0001
0000
,  // measure 13
1000
0000
0010
0000
0100
0010
1000
0000
,  // measure 14
0001
0010
0100
0010
,  // measure 15
0001
0010
0100
0000
0010
0100
1000
0000
,  // measure 16
0001
1000
0010
1000
,  // measure 17
0001
0000
0010
0000
0100
0010
0001
0000
,  // measure 18
1000
0001
1000
0010
,  // measure 19
1000
0000
0001
0000
0100
0010
1000
0000
,  // measure 20
0001
0010
0100
0010
,  // measure 21
0001
0000
1000
0000
0010
1000
0001
0000
,  // measure 22
1000
0100
0010
0100
,  // measure 23
1000
1000
0001
0001
,  // measure 24
1001
0000
0100
0000
,  // measure 25
1000
0000
0001
0000
,  // measure 26
0100
0000
0001
0000
,  // measure 27
0010
0000
0100
0000
,  // measure 28
1000
0000
0001
0000
,  // measure 29
1000
0000
0010
0000
,  // measure 30
1000
0000
0001
0000
,  // measure 31
0100
0000
0010
0000
,  // measure 32
1000
0000
0001
0010
,  // measure 33
0100
0000
1000
0000
,  // measure 34
0001
1000
0010
0000
,  // measure 35
1000
0000
0100
0000
,  // measure 36
0010
0100
1000
0000
,  // measure 37
0001
1000
0010
0000
,  // measure 38
1000
0100
0010
0000
,  // measure 39
0001
0000
1000
0000
,  // measure 40
0000
1001
0000
0000
,  // measure 41
0000
0000
0000
0000
,  // measure 42
0110
0000
0000
0000
,  // measure 43
0000
0000
0000
0000
,  // measure 44
1001
0000
1000
0200
,  // measure 45
0000
2300
0000
0000
3002
0000
0100
0000
,  // measure 46
1003
0000
0100
0000
0010
0100
2000
0000
,  // measure 47
0000
3002
0000
0000
0023
0000
0230
0000
,  // measure 48
1300
0100
1000
0000
0001
0000
0200
0000
,  // measure 49
0000
0320
0000
0000
2030
0000
0010
0000
,  // measure 50
3001
0000
0100
0000
0001
0010
0200
0000
,  // measure 51
1300
0001
0100
0010
,  // measure 52
1000
0001
1000
0020
,  // measure 53
0000
0230
0000
0000
0302
0000
0100
0000
,  // measure 54
1003
0000
0100
0000
0010
0100
2000
0000
,  // measure 55
0000
3002
0000
0000
0023
0000
0130
0010
,  // measure 56
0001
0000
1000
0001
0100
0000
0002
0000
,  // measure 57
0000
2003
0000
0000
3200
0000
0010
0000
,  // measure 58
1300
0010
0100
0001
,  // measure 59
0010
0100
2000
0010
,  // measure 60
3001
0000
0000
0000
,  // measure 61
0010
0000
0000
0000
,  // measure 62
0100
0000
0000
0000
,  // measure 63
1000
0000
0000
0000
,  // measure 64
0001
0000
0000
0000
,  // measure 65
0100
0000
0000
0000
,  // measure 66
0010
0000
0000
0000
,  // measure 67
1000
0000
0000
0000
;

//---------------dance-single - ----------------
#NOTEDATA:;
#CHARTNAME:X-Scale 10;
#STEPSTYPE:dance-single;
#DESCRIPTION:;
#CHARTSTYLE:;
#DIFFICULTY:Medium;
#METER:7;
#RADARVALUES:0.409405,0.517372,0.287429,0.262068,0.219799,339.000000,305.000000,34.000000,31.000000,0.000000,0.000000,0.000000,0.000000,0.000000,0.409405,0.517372,0.287429,0.262068,0.219799,339.000000,305.000000,34.000000,31.000000,0.000000,0.000000,0.000000,0.000000,0.000000;
#CREDIT:iamthek3n;
#NOTES:
// measure 0
0000
0000
0000
0000
,  // measure 1
0000
0000
0000
0000
,  // measure 2
0000
0000
0000
0000
,  // measure 3
0000
0000
0000
0000
,  // measure 4
0010
0000
1010
0000
,  // measure 5
1000
0000
1001
0000
,  // measure 6
0010
0000
0011
0000
,  // measure 7
0011
1010
0011
1010
,  // measure 8
1000
0000
0000
0100
0000
0000
0001
0000
0100
0000
1000
0000
0020
0000
0000
0000
,  // measure 9
0130
0010
0000
0000
0010
0100
0000
0000
0001
0000
0010
0000
0100
0000
0000
0000
,  // measure 10
1100
0000
0000
0100
0000
0000
1000
0000
0100
0000
0010
0000
0002
0000
0000
0000
,  // measure 11
1003
0010
0000
0000
0100
0001
0000
0000
0101
0000
0001
0000
2000
0000
0000
0000
,  // measure 12
3010
0100
0010
0000
1001
1000
0200
0000
,  // measure 13
0301
0100
0000
0000
1000
0010
0000
0000
0101
0000
0001
0000
2000
0000
0000
0000
,  // measure 14
3100
0000
0000
1000
0000
0001
1000
0000
0100
0000
1000
0000
0020
0000
0000
0000
,  // measure 15
1030
0000
0010
0000
0001
0000
1000
0000
0001
0000
0010
0000
1000
0100
0000
0100
,  // measure 16
0010
0000
0000
0001
0010
0000
0001
0000
1000
0000
0100
0000
0001
0000
0100
0000
,  // measure 17
1000
0100
0000
0000
1000
0001
0000
0000
0010
0000
0100
0000
1000
0000
0000
0000
,  // measure 18
0001
1000
0000
0000
0100
1000
0001
0000
1000
0000
0100
0000
0020
0000
0000
0000
,  // measure 19
1030
0010
0000
0000
0001
0000
1000
0000
0010
0000
1000
0000
0002
0000
0000
0000
,  // measure 20
1003
0001
0000
0000
1000
0000
0010
0000
0001
0000
0010
0000
2000
0000
0000
0000
,  // measure 21
3001
0010
0000
0000
0001
0000
0100
0000
1000
0000
0100
0000
0020
0000
0000
0000
,  // measure 22
0130
0010
0000
0000
1000
0000
0100
0000
0001
0000
0100
0000
1000
0000
0000
0000
,  // measure 23
1100
0101
1100
0101
,  // measure 24
0001
0000
0000
0000
0000
0010
0000
0000
0100
0000
0000
0000
1000
0000
0000
0000
,  // measure 25
0001
0000
0000
0000
1000
0000
0000
0000
0100
0000
0010
0000
0000
0001
0000
0000
,  // measure 26
0011
0000
0000
0000
0000
1000
0000
0000
1001
0000
0000
0000
0100
0000
0000
0000
,  // measure 27
1000
0000
0000
0000
0000
0000
0000
0001
0010
0000
0000
0000
0001
0000
0000
0000
,  // measure 28
0011
0000
0000
1000
0001
0000
0010
0000
,  // measure 29
0100
0000
0000
0000
1000
0000
0000
0000
0001
0000
1000
0000
0000
0100
0000
0000
,  // measure 30
1100
0000
0000
0000
0001
0000
0000
0000
1001
0000
0000
0000
0000
0100
0000
0000
,  // measure 31
1000
0000
0001
0000
,  // measure 32
0011
0000
0000
0000
0000
0000
0010
0000
0000
1000
0000
0000
0000
0001
0000
0000
,  // measure 33
0000
1000
0000
0000
0000
0100
0000
0000
1001
0000
0001
0000
0000
0100
0000
0000
,  // measure 34
0001
0000
0000
0000
0000
0010
0000
0000
0000
0100
0000
0000
0000
1000
0000
0000
,  // measure 35
1100
0000
0001
0000
,  // measure 36
1000
0100
0001
0100
1000
0000
0001
0100
,  // measure 37
0010
0100
0001
0000
1000
0100
0010
0000
,  // measure 38
1000
0010
0001
1000
0001
0010
0100
0000
,  // measure 39
1100
0101
1100
0101
,  // measure 40
0000
0000
0000
0001
0000
0000
0001
0000
1000
0000
0000
0000
0000
0000
0100
0000
0000
0000
0000
0000
1000
0000
0000
0000
,  // measure 41
0000
0001
0000
0000
1000
0000
0000
0100
0000
0000
0010
0000
,  // measure 42
0001
0010
0000
0000
0001
0000
0000
1000
0000
0000
0001
0000
,  // measure 43
0000
0100
0000
0000
0001
0000
0000
1000
0000
1001
0000
0000
,  // measure 44
1000
0001
1000
0000
1001
0000
0002
0000
,  // measure 45
0000
0203
0000
0000
0310
0100
0002
0000
,  // measure 46
1003
0000
0100
0000
0010
0100
2000
0000
,  // measure 47
0000
3002
0000
0000
0013
0100
2000
0000
,  // measure 48
3001
0010
0001
0000
1000
0000
0200
0000
,  // measure 49
0000
0320
0000
0000
1030
0010
0002
0000
,  // measure 50
1003
0000
0001
0010
0100
0000
2000
0000
,  // measure 51
3001
0100
0010
1000
0100
0010
0001
0000
,  // measure 52
0011
0000
0010
0100
1000
0001
0200
0000
,  // measure 53
0000
0302
0000
0000
0013
0100
2000
0000
,  // measure 54
3001
0000
1000
0100
0001
0100
2000
0000
,  // measure 55
0000
3020
0000
0000
0031
0010
2000
0000
,  // measure 56
3001
0000
0100
0001
1000
0100
0020
0000
,  // measure 57
0000
0230
0000
0000
0301
0100
2000
0000
,  // measure 58
3001
0000
0100
0001
1000
0001
0010
0000
,  // measure 59
0011
1010
0011
1010
,  // measure 60
1000
0000
0000
1000
,  // measure 61
0010
0000
0000
0010
,  // measure 62
0100
0000
0000
0100
,  // measure 63
0001
0000
0000
0001
,  // measure 64
0010
0000
0000
0000
0000
0000
0000
0100
0000
0000
0000
0000
0000
0000
0000
0000
,  // measure 65
1000
0000
0000
0000
0000
0000
0000
0001
0000
0000
0000
0000
0000
0000
0000
0000
,  // measure 66
1000
0000
0000
0000
0000
0000
0000
0100
0000
0000
0000
0000
0000
0000
0000
0000
,  // measure 67
1000
0000
0002
2000
,  // measure 68
3003
0000
0000
0000
;

//---------------dance-single - ----------------
#NOTEDATA:;
#CHARTNAME:X-Scale 13;
#STEPSTYPE:dance-single;
#DESCRIPTION:;
#CHARTSTYLE:;
#DIFFICULTY:Hard;
#METER:9;
#RADARVALUES:0.524136,0.632344,0.304337,0.321244,0.418463,434.000000,398.000000,36.000000,38.000000,0.000000,0.000000,0.000000,0.000000,0.000000,0.524136,0.632344,0.304337,0.321244,0.418463,434.000000,398.000000,36.000000,38.000000,0.000000,0.000000,0.000000,0.000000,0.000000;
#CREDIT:iamthek3n;
#NOTES:
// measure 0
0000
0000
0000
0000
,  // measure 1
0000
0000
0000
0000
,  // measure 2
0000
0000
0000
0000
,  // measure 3
0000
0000
0000
0000
,  // measure 4
1001
0000
0010
0000
1000
0000
0100
0010
,  // measure 5
0001
1000
0001
0100
,  // measure 6
0101
1000
1001
0010
,  // measure 7
0011
1010
1001
1010
,  // measure 8
0110
0000
0000
0100
0001
0000
1000
0000
0010
0000
0100
0000
0002
0000
0000
0000
,  // measure 9
0013
0100
0000
0000
1001
0000
0001
0000
1000
0000
0001
0000
0000
0100
0000
0000
,  // measure 10
0101
0000
0001
0100
1000
0100
0002
0000
,  // measure 11
1003
0100
0000
0000
1001
0000
1000
0000
0100
0010
0000
0000
0010
0001
0000
0000
,  // measure 12
0010
0010
0010
1000
0010
0100
2000
0000
,  // measure 13
3001
0100
0000
0000
1001
0000
0010
0000
1000
0000
0001
0000
1000
0010
0000
0000
,  // measure 14
1001
0000
0000
1000
0001
0000
0100
0000
1000
0000
0100
0000
0002
0000
0000
0000
,  // measure 15
0103
0010
0000
0100
0001
0000
1000
0000
0010
0000
0010
0000
0010
1000
0001
1000
,  // measure 16
0010
0000
1000
0100
0001
0100
1000
0001
,  // measure 17
0100
0001
0000
0000
0010
0100
1000
0000
0001
0000
1000
0000
0020
0000
0000
0000
,  // measure 18
0130
0001
0000
0000
1000
0001
0100
0000
0010
0000
0100
0000
0001
0000
0010
0000
,  // measure 19
0100
1000
0000
0000
0001
1000
0010
0000
1000
0000
0100
0000
0020
0000
0000
0000
,  // measure 20
0031
0010
1000
0010
0100
1000
0002
0000
,  // measure 21
0103
0001
0000
0000
1000
0100
1000
0000
0001
0000
0100
0000
0020
0000
0000
0000
,  // measure 22
1030
0001
0100
0001
1000
0100
0010
0000
,  // measure 23
0011
0110
1001
1010
,  // measure 24
0011
0000
0000
1000
0001
0000
0010
0000
,  // measure 25
0100
1000
0000
0000
0000
0001
0000
0000
1000
0000
0010
0000
0000
1000
0000
0000
,  // measure 26
1001
0000
0000
0000
0000
0100
0000
0000
0001
0000
0000
0000
0000
0100
0000
0000
,  // measure 27
0001
0000
0000
0000
0000
0000
0000
0000
0000
0000
0000
0001
1000
0000
0000
0000
0000
0000
0010
0000
0000
0000
0000
0000
,  // measure 28
1010
0000
0000
1000
0000
0001
0000
0000
0100
0001
0000
0000
0000
0010
0000
0000
,  // measure 29
0100
0000
1000
0000
0000
0000
0000
0000
0000
0000
0001
0000
0000
0000
1000
0000
0000
0000
0000
0010
0000
0000
0000
0000
0000
0000
1000
0000
0000
0000
0000
0000
,  // measure 30
1001
0000
0000
0000
1000
0100
0000
0000
1000
0001
0000
0000
0000
0001
0000
0000
,  // measure 31
0010
0000
0000
0000
0000
0000
0000
0000
0000
0000
0000
0001
0200
0000
0000
0000
0000
0000
0000
0000
0000
0300
0000
0000
,  // measure 32
0110
0000
0000
0000
0010
0000
1000
0000
0001
1000
0000
0000
0100
0000
0000
0000
,  // measure 33
0010
0100
0000
0000
0010
0000
0000
0001
0010
0000
0001
0000
0000
1000
0000
0000
,  // measure 34
0001
1000
0000
0000
0000
0100
0000
0000
0010
0001
0000
0000
0000
0001
0000
0000
,  // measure 35
1000
0000
0001
0000
0100
0000
0001
0000
1000
0001
0000
0000
1000
0000
0000
0000
,  // measure 36
0001
0100
1000
0100
0002
0000
1003
0001
,  // measure 37
0100
0001
0000
0000
1000
0100
0000
0100
0010
0000
0100
0000
1000
0001
1000
0000
,  // measure 38
0010
0000
0100
0000
0001
0100
0000
0000
0101
0000
0001
0000
1000
0000
0100
0000
,  // measure 39
1100
0000
0000
0000
0000
1000
0100
0000
0000
0000
0000
0001
0100
0000
0000
0000
0000
1000
0100
0000
0000
0020
0000
0000
,  // measure 40
0030
0000
0000
0001
0000
0000
0102
0000
0000
0000
0003
0000
0000
0000
0200
0000
0300
0000
0000
0000
2000
0000
3000
0000
,  // measure 41
0000
0020
0030
0000
0002
0003
0000
2000
3000
0000
0002
0003
,  // measure 42
2001
0000
3000
0000
0200
0300
0000
0002
0003
0000
0020
0030
,  // measure 43
0000
0000
0000
0000
2000
0000
0000
0000
3000
0000
0000
0000
0000
0000
0000
0000
0002
0000
0000
0000
0003
0000
0000
0000
0000
0000
0000
0000
2000
0000
0000
0000
3000
0000
0000
0000
1001
0000
0000
0000
0000
0000
0000
0000
0000
1000
0000
0000
,  // measure 44
0002
0003
0002
0003
0002
0003
0000
0000
1001
0000
0010
0000
2000
0000
0000
0000
,  // measure 45
0010
0000
3020
0000
1000
0000
0000
0000
0031
0000
0010
0000
1000
0000
0000
1000
,  // measure 46
0010
0000
0000
0000
1000
0100
0010
0000
0100
0000
1000
0000
0002
0100
0000
0000
,  // measure 47
1000
0003
2000
0000
0010
0000
0000
0000
3001
0000
1000
0000
0001
0000
0000
0001
,  // measure 48
0010
0000
0010
0000
0010
0000
0100
0000
1000
0001
1000
0000
0020
0000
0000
0000
,  // measure 49
0100
0230
0010
0000
1300
0100
0001
0000
,  // measure 50
1000
0100
0000
0000
0100
1000
0001
0000
0100
0000
1000
0000
0200
0000
0000
0000
,  // measure 51
0301
0100
1000
0001
0010
1000
0001
0000
,  // measure 52
1000
0100
0000
0000
1000
0001
0100
0000
0001
0000
0010
0000
1000
0000
0010
0000
,  // measure 53
0100
1000
0000
0000
0001
0100
0000
0000
0100
0000
0010
0000
1000
0001
0000
0000
,  // measure 54
0011
0000
0000
0000
0001
1000
0000
0000
0100
0000
0010
0000
0001
0010
0000
0000
,  // measure 55
0001
1000
0000
0000
0010
1000
0010
0000
0100
0000
0010
0000
1000
0001
0000
0000
,  // measure 56
1001
0000
0000
0000
1000
0001
1000
0000
0100
0000
0010
0000
0001
0000
1000
0000
,  // measure 57
0001
0100
0000
0000
0010
1000
0010
0000
1000
0000
0100
0000
0010
0000
0000
0000
,  // measure 58
0011
0000
0000
0000
0010
0001
0010
0000
0100
0000
1000
0000
0020
0000
0030
0000
,  // measure 59
1010
0001
1001
0100
0110
1000
1100
0001
,  // measure 60
1001
0000
0000
0000
0000
0000
0000
1000
0000
0000
0000
0000
0001
0000
0000
0000
,  // measure 61
0100
0000
0000
0000
0000
0000
0000
0001
0000
0000
0000
0000
0010
0000
0000
0000
,  // measure 62
0100
0000
0000
0000
0000
0000
0000
1000
0000
0000
0000
0000
0001
0000
0000
0000
,  // measure 63
1000
0000
0000
0000
0000
0000
0000
0100
0000
0000
0000
0000
0010
0000
0000
0000
,  // measure 64
0001
0000
0000
0000
0000
0000
0000
0100
0000
0000
0000
0000
0010
0000
0000
0000
,  // measure 65
1000
0000
0000
0000
0000
0000
0000
0100
0000
0000
0000
0000
0010
0000
0000
0000
,  // measure 66
0001
0000
0000
0000
0000
0000
0000
0010
0000
0000
0000
0000
0100
0000
0000
0000
,  // measure 67
1000
0000
0000
0000
0000
0000
0001
0010
0200
0000
0000
0000
2000
0000
0000
0000
,  // measure 68
3300
0000
0000
0000
;
