#VERSION:0.83;
#TITLE:NE\:ONE;
#SUBTITLE:;
#ARTIST:Survive Said the Prophet;
#TITLETRANSLIT:;
#SUBTITLETRANSLIT:;
#ARTISTTRANSLIT:;
#GENRE:Post-Hardcore;
#ORIGIN:;
#CREDIT:;
#BANNER:NEONE-bn.png;
#BACKGROUND:NEONE-bg.png;
#PREVIEWVID:;
#JACKET:NEONE-jacket.png;
#CDIMAGE:;
#DISCIMAGE:;
#LYRICSPATH:;
#CDTITLE:cdtitle.png;
#MUSIC:NEONE.ogg;
#OFFSET:-0.005000;
#SAMPLESTART:77.974998;
#SAMPLELENGTH:24.000000;
#SELECTABLE:YES;
#BPMS:0.000=80.000,
48.000=160.000,
80.000=80.000,
96.000=160.000,
140.000=80.000,
142.000=160.000,
202.000=80.000,
204.000=160.000,
268.000=80.000;
#STOPS:;
#DELAYS:;
#WARPS:;
#TIMESIGNATURES:0.000=4=4;
#TICKCOUNTS:0.000=4;
#COMBOS:0.000=1;
#SPEEDS:0.000=1.000=0.000=0;
#SCROLLS:0.000=1.000,
45.750=0.000,
47.500=1.000,
140.000=2.000,
140.250=1.800,
140.500=1.600,
140.750=1.400,
141.000=1.200,
141.250=1.000,
141.500=0.750,
141.750=0.500,
142.000=1.000,
202.000=2.000,
202.250=1.800,
202.500=1.600,
202.750=1.400,
203.000=1.200,
203.250=1.000,
203.500=0.750,
203.750=0.500,
204.000=1.000;
#FAKES:;
#LABELS:0.000=Song Start;
#BGCHANGES:0.000=NEONE.avi=1.000=1=0=0=StretchNoLoop==CrossFade==,
99999=-nosongbg-=1.000=0=0=0 // don't automatically add -songbackground-
;
#KEYSOUNDS:;
#ATTACKS:
;

//---------------dance-single - ----------------
#NOTEDATA:;
#CHARTNAME:X-Scale 16;
#STEPSTYPE:dance-single;
#DESCRIPTION:;
#CHARTSTYLE:;
#DIFFICULTY:Hard;
#METER:11;
#RADARVALUES:0.714514,0.756862,0.225929,0.334998,0.631043,642.000000,613.000000,29.000000,43.000000,0.000000,0.000000,0.000000,0.000000,0.000000,0.714514,0.756862,0.225929,0.334998,0.631043,642.000000,613.000000,29.000000,43.000000,0.000000,0.000000,0.000000,0.000000,0.000000;
#CREDIT:iamthek3n;
#NOTES:
// measure 0
0000
0000
0000
0000
,  // measure 1
0000
0000
0000
0000
,  // measure 2
1000
0100
0010
0001
0000
1000
0100
0010
0001
0100
0000
0010
0000
0100
0000
0010
,  // measure 3
1000
0010
0100
0001
0000
1000
0010
0100
0001
1000
0000
0010
0000
0200
0000
0000
,  // measure 4
0301
0100
0001
0000
0001
0100
0010
2000
0000
3002
0000
2003
0000
3100
0020
0000
,  // measure 5
0031
0001
0100
0001
0010
1000
0010
0001
0100
0010
1000
0200
0000
2300
0000
3000
,  // measure 6
0002
0000
0203
0000
0301
1000
0100
2000
0000
3020
0000
2030
0000
3001
0010
2000
,  // measure 7
0000
3000
0100
0020
0000
0030
1000
0002
0000
0003
0010
0200
0000
0300
1000
0001
,  // measure 8
1000
0000
0010
1000
0001
0000
1000
0010
0100
1000
0100
0010
0100
0001
0010
0001
,  // measure 9
1000
0000
0001
0010
0100
0000
1000
0010
0100
0000
0001
0100
0010
1000
0100
0010
,  // measure 10
0001
0000
1000
0010
0001
0000
1000
0100
0001
1000
0001
0010
1000
0010
0100
1000
,  // measure 11
0001
0000
1000
0010
0001
1000
0100
0001
0000
0000
0000
0000
0000
0000
0000
0000
,  // measure 12
1001
0000
0001
0010
0001
0000
1000
0000
0001
0000
0100
0000
0001
0000
1000
0100
,  // measure 13
1000
0000
0100
0000
0010
0000
0001
0000
0100
0000
0010
0000
1000
0000
0010
1000
,  // measure 14
0010
0100
0001
0010
1000
0010
0001
0100
,  // measure 15
0001
0000
0010
0001
0010
0000
0100
0000
1000
0010
1000
0001
1000
0010
1000
0001
,  // measure 16
1000
0000
0010
0100
0010
0000
1000
0000
0010
0000
1000
0000
0100
0000
0010
0001
,  // measure 17
0010
0000
0001
0000
0100
0000
1000
0000
0100
0000
0001
0000
0100
0000
0010
0100
,  // measure 18
0010
1000
0100
1000
0010
0001
0010
1000
,  // measure 19
0100
0000
0010
0100
0010
0000
0001
0000
1000
0100
0010
0100
1000
0100
0010
0100
,  // measure 20
1000
0000
0001
0100
0001
0010
0001
0100
0000
0001
0000
1000
0010
0100
0010
0001
,  // measure 21
0000
0000
0001
0010
0100
0010
1000
0001
0000
1000
0000
1000
0100
0010
0001
2000
,  // measure 22
0000
3020
0000
0230
0000
0302
0000
0023
0001
0030
0001
0010
1000
0010
0001
0200
,  // measure 23
0000
0320
0000
2030
0000
3002
0000
2003
0100
3000
0100
1000
0010
0100
0001
0100
,  // measure 24
0101
0000
0000
0001
1000
0000
0000
1000
0001
0000
0010
0000
0100
0000
2000
0000
,  // measure 25
0000
3001
0100
0020
0000
0031
0010
1000
,  // measure 26
0100
0000
0000
1000
0001
0000
0000
0001
0010
0000
0100
0000
1000
0000
0020
0000
,  // measure 27
0000
0000
0031
0000
0010
0000
2000
0000
0001
0000
3001
0000
1000
0100
0010
0001
,  // measure 28
0010
0000
0000
0100
0010
0000
0000
0010
0001
0000
1000
0000
0001
0000
0200
0000
,  // measure 29
0000
1300
0100
0002
0000
0013
1000
0010
,  // measure 30
0100
0010
0001
1000
1010
0000
0001
0011
,  // measure 31
0000
0000
1000
0000
0001
0000
1000
0000
0100
0000
0010
0100
0010
0000
0001
1000
,  // measure 32
0001
0000
1000
0000
0001
0000
1000
0000
0010
0000
0100
0010
0100
0000
0001
0000
,  // measure 33
1000
0010
0100
0100
0001
0010
0100
0100
,  // measure 34
1000
0000
0100
0000
0010
0000
0001
0000
1000
0010
1000
0010
1000
0010
1000
0010
,  // measure 35
2000
0000
0010
0010
0000
0000
0001
3001
1001
0000
1000
0000
1100
0000
0100
0000
,  // measure 36
0010
0001
0011
1000
0001
0010
0110
1000
,  // measure 37
0001
0100
0101
0001
1000
1000
1100
0001
,  // measure 38
0100
0001
1001
0001
0010
0100
1000
1100
,  // measure 39
0000
0000
1001
0000
0000
0000
1000
0001
1000
0000
0001
0000
0101
0000
1000
0000
,  // measure 40
0001
0010
0110
1000
0010
1000
1100
0001
,  // measure 41
1000
0001
0101
0200
0010
0310
1010
2000
,  // measure 42
0100
0000
3100
0000
1001
0000
0001
0000
1000
0001
0010
0001
1000
0000
0010
0100
,  // measure 43
0010
1000
0001
1000
1001
0001
0001
0000
,  // measure 44
0101
0000
0000
0000
1000
0000
1010
0000
0000
0000
1100
0000
0000
0000
0100
1000
,  // measure 45
0001
0010
0001
2000
0100
3100
0100
0020
,  // measure 46
0001
0000
0030
0000
0001
0000
0200
0000
0000
0000
0301
0000
1000
0000
1000
0001
,  // measure 47
1000
0000
0010
0000
0100
0000
0001
0010
0001
0000
0001
0000
0001
0000
0000
0000
,  // measure 48
1001
0000
0000
0000
0100
0000
1100
0000
0000
0000
1001
0000
0000
0000
0001
1000
,  // measure 49
0001
0100
1000
0100
0001
0001
0001
0100
,  // measure 50
0001
0000
0010
0100
1000
0000
0020
0000
2000
0000
0000
0000
0000
0000
3030
0000
,  // measure 51
1001
1000
1000
0100
0001
1000
0010
0001
,  // measure 52
0000
0000
0100
0000
0010
0000
1000
0100
0010
0000
0001
0000
0100
0000
0002
0000
,  // measure 53
1000
1003
1000
0200
0010
0310
0010
0002
,  // measure 54
1000
0000
1003
0001
1000
0000
0001
1000
0001
0100
0001
1000
0001
0100
0001
1000
,  // measure 55
0001
0010
1000
0001
0010
1000
0001
1000
,  // measure 56
0000
0000
0001
0000
0100
0000
0001
0100
0001
0000
1000
0000
0010
0000
0100
0000
,  // measure 57
0001
0000
0001
0000
1000
0000
1000
0000
0010
0000
0100
0000
0001
0100
0001
0000
,  // measure 58
1000
0000
0010
0100
0010
0000
1000
0000
0100
0010
0001
0000
1000
0001
0010
0001
,  // measure 59
1000
0100
0001
0100
0010
0001
1000
0001
,  // measure 60
0000
0000
0100
0000
0001
0000
1000
0001
1000
0000
0001
0010
0100
1000
0001
0000
,  // measure 61
1000
1000
0100
0100
0010
0001
1000
0001
,  // measure 62
0010
0000
0100
1000
0100
0000
1000
0100
0010
0000
0001
0000
1000
0000
0001
0000
,  // measure 63
0010
0100
1000
0100
0010
0100
1000
0100
0010
0000
0001
0000
1000
0000
0010
0000
,  // measure 64
0000
0000
0100
0000
0001
0000
1000
0100
0010
0001
0100
0010
1000
0001
0010
0100
,  // measure 65
1000
1000
0001
0001
1001
1000
1000
1001
,  // measure 66
0001
0010
0001
0010
0001
0000
1000
0010
0100
0010
1000
0001
0010
0001
1000
0001
,  // measure 67
0010
0000
0000
0000
;

//---------------dance-single - ----------------
#NOTEDATA:;
#CHARTNAME:X-Scale 11;
#STEPSTYPE:dance-single;
#DESCRIPTION:;
#CHARTSTYLE:;
#DIFFICULTY:Medium;
#METER:8;
#RADARVALUES:0.471891,0.626368,0.210348,0.553136,0.268777,424.000000,397.000000,27.000000,71.000000,0.000000,0.000000,0.000000,0.000000,0.000000,0.471891,0.626368,0.210348,0.553136,0.268777,424.000000,397.000000,27.000000,71.000000,0.000000,0.000000,0.000000,0.000000,0.000000;
#CREDIT:iamthek3n;
#NOTES:
// measure 0
0000
0000
0000
0000
,  // measure 1
0000
0000
0000
0000
,  // measure 2
1000
0000
0100
1000
0000
0000
1000
0100
0000
0010
0000
0100
0000
0010
0000
0000
,  // measure 3
0001
0000
0100
0001
0000
0000
0010
0100
0000
1000
0000
0001
0000
1000
0000
0000
,  // measure 4
0010
0100
0010
0000
1000
0010
0100
0010
0000
1000
0000
0001
0000
0010
0100
0000
,  // measure 5
0010
0010
0000
0001
1000
0001
0010
1000
0010
0100
1000
0100
0000
0010
0000
0000
,  // measure 6
0001
0000
1000
0000
0001
0100
0010
0100
0000
0001
0000
1000
0000
0010
0100
0010
,  // measure 7
0000
0000
1000
0100
0000
0000
0100
0001
0000
0000
0001
0100
0000
0000
0100
1000
,  // measure 8
1100
0100
1000
0010
0001
1000
0001
0010
,  // measure 9
1000
0100
0001
0100
1000
0010
0100
0001
,  // measure 10
0010
0000
0100
0010
0100
0000
1000
0000
0001
0000
0100
0010
0100
0000
0001
0000
,  // measure 11
0101
0000
0100
0001
0000
0000
0010
0100
0000
0000
1000
0001
0000
0000
0010
0200
,  // measure 12
1000
0000
0000
0010
0000
0010
0000
0000
,  // measure 13
1300
0100
1000
1100
0000
0001
1001
0000
,  // measure 14
1000
0000
0010
1000
0001
0100
0010
1000
,  // measure 15
0100
0001
0100
0010
0001
1000
0020
0000
,  // measure 16
0130
0010
1000
1010
0000
1001
0000
0001
,  // measure 17
0100
0001
1000
1100
0000
1000
1001
0000
,  // measure 18
0001
0010
1000
0010
0001
0100
1000
0100
,  // measure 19
0001
1000
0020
0000
0001
0000
0230
0000
,  // measure 20
1000
0000
0000
0000
0010
0000
0000
0001
0000
0010
0000
0000
0301
0000
0000
0100
,  // measure 21
0000
0000
0000
0000
0001
1000
0001
0100
0000
0010
0000
0000
1000
0100
0010
0002
,  // measure 22
0000
0023
0000
2030
0000
3200
0000
0302
0000
0003
0000
1000
0010
0001
0010
0200
,  // measure 23
0000
0320
0000
2030
0000
3002
0000
0023
0000
0030
0000
0000
0100
0000
0000
0000
,  // measure 24
1100
0000
1000
0000
0001
0100
0001
0020
,  // measure 25
0000
0130
0110
0000
0010
0001
1000
0020
,  // measure 26
0000
1030
2010
0000
3001
0010
0100
2000
,  // measure 27
0000
3002
0000
0003
0100
0001
1000
0020
,  // measure 28
0000
0032
0000
0203
0000
2300
0000
3002
,  // measure 29
0000
0103
0101
0001
0100
1000
0100
0002
,  // measure 30
0000
0023
0000
2030
0000
3020
0000
0032
,  // measure 31
0000
1000
1000
0000
0000
0100
0100
0003
,  // measure 32
1001
0000
1000
0010
1000
0000
0001
0010
,  // measure 33
0001
0100
0000
0010
0000
0100
0000
0000
,  // measure 34
0001
0010
0100
1000
0010
0100
0001
1000
,  // measure 35
0200
0000
0000
0300
1010
1000
0010
0100
,  // measure 36
0001
0010
0100
2000
0000
3002
0000
2003
,  // measure 37
0000
3010
1000
0000
0100
0100
0010
0001
,  // measure 38
1000
0010
0100
0001
0010
1000
0010
0200
,  // measure 39
0000
2300
0000
3000
1100
0000
1001
0000
,  // measure 40
0101
0100
0001
2000
0000
3002
0000
0203
,  // measure 41
0000
0310
0100
2000
0000
0000
3100
0002
,  // measure 42
0000
0000
0013
0200
0000
0000
1300
0200
,  // measure 43
0000
0000
0310
0001
0011
0000
0010
0100
,  // measure 44
1000
0000
0000
0000
0001
0000
1000
0000
0010
0000
0000
1000
0000
0000
0001
0000
,  // measure 45
0000
1000
0000
0000
0100
0000
0000
0010
0001
0000
0000
0100
0000
0000
0001
0000
,  // measure 46
0000
1000
0000
0000
0010
0000
1000
0000
0001
0000
0000
0010
0000
0000
0100
0000
,  // measure 47
0010
0000
0001
0000
0000
0000
1000
0001
1000
0000
0010
0000
0100
0000
0010
0000
,  // measure 48
1000
0000
0000
0000
0001
0000
0100
0000
0001
0000
0000
0010
0000
0000
1000
0000
,  // measure 49
0000
0100
0000
0000
0001
0000
1000
0000
0001
0000
0000
0100
0000
0000
0010
0000
,  // measure 50
0000
1000
0000
0000
0100
0000
1000
0000
0002
0000
0000
0000
0000
0000
0003
0000
,  // measure 51
1001
0000
1000
0000
0010
1000
0001
2000
,  // measure 52
0000
3200
0000
0320
0100
0100
0000
0030
,  // measure 53
0011
0000
0001
2000
0000
0000
3010
0200
,  // measure 54
0000
0000
1300
0200
0000
0000
0301
0100
,  // measure 55
0001
0000
1000
0000
0010
1000
0001
2000
,  // measure 56
0000
3200
0000
0320
0001
0001
0000
0030
,  // measure 57
0101
0000
0001
2000
0000
0000
3010
0200
,  // measure 58
0000
0000
0301
0020
0000
0000
0130
0010
,  // measure 59
0001
1000
0001
0000
1001
0000
1000
0020
,  // measure 60
0000
2030
0000
3002
0100
0100
0000
0003
,  // measure 61
1001
0000
1000
0020
0000
0000
0031
0020
,  // measure 62
0000
0000
0130
0020
0000
0000
1030
0100
,  // measure 63
0010
0100
1000
0000
0001
0100
0010
2000
,  // measure 64
0000
3002
0000
0203
0020
0000
0000
0330
,  // measure 65
0110
0010
0100
0001
1000
0010
1000
2200
,  // measure 66
3300
0202
0303
0022
0000
0000
0000
0000
,  // measure 67
0033
0000
0000
0000
;

//---------------dance-single - ----------------
#NOTEDATA:;
#CHARTNAME:X-Scale 7;
#STEPSTYPE:dance-single;
#DESCRIPTION:;
#CHARTSTYLE:;
#DIFFICULTY:Easy;
#METER:5;
#RADARVALUES:0.321643,0.469776,0.077907,0.483020,0.000000,289.000000,279.000000,10.000000,62.000000,0.000000,0.000000,0.000000,0.000000,0.000000,0.321643,0.469776,0.077907,0.483020,0.000000,289.000000,279.000000,10.000000,62.000000,0.000000,0.000000,0.000000,0.000000,0.000000;
#CREDIT:iamthek3n;
#NOTES:
// measure 0
0000
0000
0000
0000
,  // measure 1
0000
0000
0000
0000
,  // measure 2
0002
0010
2003
0100
,  // measure 3
3002
0010
2003
0100
,  // measure 4
3001
1000
0010
0100
,  // measure 5
0001
0010
0100
0010
,  // measure 6
0001
1000
0010
1000
,  // measure 7
0001
0010
0100
1000
,  // measure 8
1100
0100
1000
0001
0100
0010
0100
0001
,  // measure 9
1000
0001
0100
0010
1000
0100
0010
0100
,  // measure 10
1000
0001
0010
0001
1000
0010
0100
0010
,  // measure 11
1000
0001
0010
0001
0000
0000
0000
0000
,  // measure 12
1001
0000
0000
0001
0000
0001
0000
0000
,  // measure 13
1000
0000
0000
0010
0100
0001
2000
0000
,  // measure 14
3010
0000
0000
1000
0000
1000
0000
0000
,  // measure 15
0100
1000
0002
0000
0203
0000
0302
0000
,  // measure 16
0013
0000
0000
0001
0000
0001
0000
0000
,  // measure 17
1000
0000
0000
0010
1000
0001
0200
0000
,  // measure 18
0301
0000
0000
1000
0000
1000
0000
0000
,  // measure 19
0100
1000
0002
0000
0013
0100
2000
0000
,  // measure 20
0001
0000
0010
0000
,  // measure 21
3100
0000
1000
0000
,  // measure 22
0001
0010
0100
1000
,  // measure 23
0010
0100
0001
1000
,  // measure 24
0001
0000
0001
0000
0010
0200
0300
2000
,  // measure 25
0000
3002
0000
0203
0000
0301
0001
0000
,  // measure 26
1000
0000
0100
0000
1000
0002
0003
0200
,  // measure 27
0000
0320
0000
2030
0000
3001
0001
2000
,  // measure 28
0000
3200
0000
2300
0000
3002
0000
0203
,  // measure 29
0000
0300
0000
0000
0010
0100
0001
2000
,  // measure 30
0000
3200
0000
0320
0000
0230
0000
2300
,  // measure 31
0000
0010
0001
0010
,  // measure 32
3001
0000
1000
0010
0000
0000
1000
0010
,  // measure 33
0000
0010
0000
0010
0000
0010
0000
0000
,  // measure 34
0100
0000
0001
0010
0000
0000
0001
0010
,  // measure 35
0000
0000
1001
1000
,  // measure 36
0010
0000
1000
0001
0000
0100
0000
0001
,  // measure 37
0000
0010
0100
0000
1000
0000
0100
1000
,  // measure 38
0001
0000
0100
0000
0001
0100
0001
0020
,  // measure 39
0000
0230
0000
0300
1100
0000
1000
0000
,  // measure 40
0001
0000
0100
0001
0000
1000
0000
0001
,  // measure 41
0000
0010
0100
2000
0000
0000
3100
0020
,  // measure 42
0000
0000
0031
0200
0000
0000
0301
2000
,  // measure 43
0000
0000
3100
0020
0001
0000
0000
0000
,  // measure 44
0100
0000
0000
0001
0030
0001
0000
0001
,  // measure 45
0010
0100
0000
1000
0010
0000
1000
0001
,  // measure 46
0000
0000
0010
0100
0000
0000
1000
0100
,  // measure 47
0000
0000
0010
0002
1000
0000
0000
0000
,  // measure 48
0100
0000
0000
2003
0000
0001
0000
0000
,  // measure 49
0010
0000
0001
0000
,  // measure 50
0100
0000
0000
3100
2000
0000
0000
3000
,  // measure 51
1001
0000
0110
0000
1001
0000
0000
0010
,  // measure 52
0000
0001
0000
0020
0000
0000
0030
0000
,  // measure 53
0110
0000
0100
2000
0001
0000
3010
0200
,  // measure 54
0001
0000
0310
2000
0001
0000
3100
0020
,  // measure 55
0001
0000
1000
0000
0100
0000
0001
0032
,  // measure 56
0000
0023
0000
0230
0000
0000
0000
0300
,  // measure 57
0110
0000
0100
2000
0001
0000
3100
0020
,  // measure 58
0001
0000
0130
2000
0001
0000
3010
0200
,  // measure 59
0001
0000
1000
0000
0001
0000
0010
0320
,  // measure 60
0000
1000
0000
2000
0030
0000
0000
3000
,  // measure 61
1001
0000
0001
0200
0010
0000
0301
0020
,  // measure 62
0100
0000
0031
2000
0100
0000
3001
0200
,  // measure 63
0010
0000
0001
0000
0010
0310
1000
2000
,  // measure 64
0000
0001
0000
0020
3000
0000
0000
0000
,  // measure 65
0130
0000
0001
1000
0001
0000
1000
0002
,  // measure 66
0000
2003
0000
3020
0000
0000
0000
0000
,  // measure 67
0030
0000
0000
0000
;
