#TITLE:N-Sao?;
#SUBTITLE:;
#ARTIST:Suboi;
#TITLETRANSLIT:;
#SUBTITLETRANSLIT:;
#ARTISTTRANSLIT:;
#GENRE:V-Hip-Hop;
#CREDIT:;
#BANNER:N-SAO-bn.png;
#BACKGROUND:N-SAO-bg.png;
#LYRICSPATH:;
#CDTITLE:cdtitle.png;
#MUSIC:N-SAO.ogg;
#OFFSET:-0.041000;
#SAMPLESTART:42.394001;
#SAMPLELENGTH:14.000000;
#SELECTABLE:YES;
#BPMS:0.000000=136.000000
;
#STOPS:92.000000=0.221000,
92.500000=0.221000,
93.000000=0.221000,
93.500000=0.110000,
93.750000=0.110000,
246.000000=0.221000,
246.500000=0.221000,
247.000000=0.221000,
247.500000=0.221000
;
#BGCHANGES:0.000=N-SAO.avi=1.000=0=0=0=StretchNoLoop====,
99999=-nosongbg-=1.000=0=0=0 // don't automatically add -songbackground-
;
#KEYSOUNDS:;
#ATTACKS:;

//---------------dance-single - ----------------
#NOTES:
     dance-single:
     X-Scale 13:
     Hard:
     9:
     0.648064,0.726822,0.141543,0.141543,0.498938,641.000000,621.000000,20.000000,20.000000,0.000000,0.000000,0.648064,0.726822,0.141543,0.141543,0.498938,641.000000,621.000000,20.000000,20.000000,0.000000,0.000000:
// measure 0
0000
0000
0000
0000
,  // measure 1
0000
0000
0000
0000
,  // measure 2
0000
0000
0000
0000
,  // measure 3
0000
0000
0000
0000
,  // measure 4
1000
0000
0000
0001
0010
0000
0001
0000
,  // measure 5
0000
0001
0000
0000
0001
0100
0020
0000
,  // measure 6
0030
2000
3000
2000
,  // measure 7
3000
0000
2000
0000
3001
2000
0000
3000
,  // measure 8
0101
0000
0000
0010
0000
0000
0001
0010
0001
0000
0010
0000
1000
0000
0010
0000
,  // measure 9
0001
0000
0100
0000
0000
0001
0100
0001
0100
0000
0010
0000
1000
0000
0100
0000
,  // measure 10
0100
0000
0100
0000
0000
0000
1000
0010
1000
0000
0100
0000
0001
0000
0100
0000
,  // measure 11
0010
0000
0000
0000
0000
0000
0001
0000
0000
0000
0000
0000
0000
0000
0000
0000
0000
0000
0001
0000
0000
0010
0000
0000
0100
0000
0000
0000
0000
0000
0010
0000
0000
0000
0000
0000
0001
0000
0000
0000
0100
0000
0000
0000
0010
0000
0000
0000
,  // measure 12
1000
0000
0000
0100
0000
0000
1000
0100
0010
0000
0100
0000
0001
0000
0100
0000
,  // measure 13
1000
0000
0010
1000
0000
0001
0100
0001
0100
0000
0010
0000
1000
0000
0100
0000
,  // measure 14
0100
0000
0100
0000
0000
0000
1000
0001
0010
0000
0001
0000
0100
0000
0010
0000
,  // measure 15
0100
0000
0001
0000
0000
0000
1000
0100
1000
0000
0010
0000
0100
0000
0100
0000
,  // measure 16
0100
0000
0001
0000
1000
0000
0100
0000
1000
0000
0010
0100
0001
0100
0010
1000
,  // measure 17
0001
0000
0010
0000
0100
1000
0100
0000
1000
0000
0010
0000
0100
0001
0100
0000
,  // measure 18
0010
0000
0010
0000
1000
0000
0100
0010
0100
0000
1000
0000
0001
0100
0001
0100
,  // measure 19
0001
0000
0000
0000
0000
0000
0010
0000
0000
0000
0000
0000
0100
0000
0000
0010
0000
0000
0001
0000
0000
1000
0000
0000
0001
0000
0000
0000
0000
0000
0100
0000
0000
0000
0000
0000
0010
0000
0000
0000
1000
0000
0000
0000
0001
0000
0000
0000
,  // measure 20
1000
0000
0100
0000
1000
0100
0010
0000
0001
0000
0100
0000
0001
0000
0000
0000
,  // measure 21
1000
0000
0000
0000
0010
0000
0000
0000
1000
0000
0000
0000
0000
0000
0000
0001
0000
0000
1000
0000
0000
0000
0000
0000
0100
0000
0000
0000
0000
0000
0010
0000
0000
0000
0000
0000
0001
0000
0000
0000
0000
0000
0000
0000
0000
0100
0000
0000
,  // measure 22
0001
0100
0010
0100
0001
0000
0010
0100
1000
0000
0010
0000
0100
0000
0001
0000
,  // measure 23
0101
0000
1001
0000
1100
0000
0110
0010
0011
0000
0000
0001
0010
0000
0000
0001
,  // measure 24
0010
0000
0000
0001
0010
0100
1000
0000
0010
0000
1000
0000
0010
0100
0001
0000
,  // measure 25
0001
0000
0000
1000
0100
0010
0100
1000
0010
0000
0100
0000
0001
0000
1000
0001
,  // measure 26
1000
0000
0000
0001
0100
0001
1000
0000
1000
0000
0100
0000
1000
0000
0000
0001
,  // measure 27
0100
0000
0000
0000
0000
0000
0001
0000
0000
0000
0000
0000
1000
0000
0000
0000
0010
0000
0000
0000
0100
0000
0000
0000
0001
0000
0000
0000
0000
0000
0000
0000
0000
0100
0000
0000
0010
0000
0000
0000
0000
0000
0010
0000
0000
0000
0000
0000
,  // measure 28
0010
0000
0000
1000
0100
0010
0001
0100
0001
0000
0010
0000
0001
0010
0001
0000
,  // measure 29
0100
0000
0000
0010
1000
0100
1000
0010
1000
0000
0100
0000
0010
0000
0001
0000
,  // measure 30
0100
0000
0000
0001
0010
0001
0100
0001
0010
0000
0100
0000
1000
0000
0010
0000
,  // measure 31
1000
0000
0000
0100
0010
0000
0010
0000
0010
0000
0000
0000
0001
0000
0100
0000
,  // measure 32
1000
0000
0100
0000
0001
0000
0100
0000
0010
0000
0100
0010
0000
0000
1000
0000
,  // measure 33
0010
0000
0100
0000
0001
0000
0000
0000
1000
0000
0000
0000
0010
0000
0100
0010
,  // measure 34
0100
0000
0001
0000
0010
0000
0001
0000
1000
0000
0010
1000
0000
0001
1000
0000
,  // measure 35
0100
0010
0001
0000
0100
0000
0000
0000
0001
0000
0010
0001
0000
0000
1000
0100
,  // measure 36
0010
0000
0001
0100
0010
0000
0010
0000
1000
0000
0001
1000
0000
0100
0000
0010
,  // measure 37
0001
0000
0100
0001
0100
0000
0001
0000
0010
0001
0000
0100
0000
0001
0000
0010
,  // measure 38
0100
0000
1000
0000
0100
0000
0000
1000
0010
0000
1000
0000
0100
0000
0010
0001
,  // measure 39
0010
0000
0001
0100
0000
0001
0000
0000
1000
0000
0000
0000
0000
0000
0100
1000
,  // measure 40
0100
0000
0010
0001
0000
0010
0000
0000
0000
0000
0001
0000
0000
0000
1000
0100
,  // measure 41
1000
0000
0010
0100
0000
0010
0000
0000
1000
0000
0000
0000
0000
0000
0001
0100
,  // measure 42
0001
0000
0010
0100
0000
0010
0000
0000
0000
0000
0001
0000
0000
0000
0000
0000
,  // measure 43
1000
0000
0100
0000
0020
0000
1000
0000
0031
0000
0010
0001
0000
0000
1000
0000
,  // measure 44
0010
0000
0001
0000
1000
0000
0100
0000
0001
0000
1000
0001
0000
0000
0010
0000
,  // measure 45
0100
0000
1000
0000
0010
1000
0001
1000
0010
0000
0100
0010
0000
0000
0100
0000
,  // measure 46
0001
0000
0100
0000
1000
0000
0100
0000
0001
0000
1000
0100
0000
0000
1000
0000
,  // measure 47
0101
0000
0000
0000
0000
0000
0000
0000
0000
0000
0000
0000
1000
0000
0000
0000
0100
0000
0000
0000
0010
0000
0000
0000
0001
0000
0000
0000
0000
0000
1000
0000
0000
0010
0000
0000
1000
0000
0000
0000
0000
0000
0100
0000
0000
0000
0000
0000
,  // measure 48
0010
0000
0001
0100
0010
0000
0010
0000
1000
0000
0100
0010
0001
0000
1000
0010
,  // measure 49
0100
0000
0001
0000
0100
0000
0010
0000
1000
0000
0000
0000
0001
1000
0001
0000
,  // measure 50
1000
0100
0010
0000
0001
0000
0100
0000
0001
0010
0100
0010
0001
0000
1000
0000
,  // measure 51
0100
0000
1000
0000
0010
0000
0010
0000
0100
0001
0000
1000
0001
0000
1000
0000
,  // measure 52
0100
0000
1000
0010
0000
0000
0100
0000
0001
0000
0000
0010
0001
0000
0001
0000
,  // measure 53
1000
0000
0000
0100
0000
0000
0010
0000
0000
0001
0000
0000
1000
0000
0000
0000
0000
0000
0100
0000
0000
0000
0000
0000
1000
0000
0000
0000
0000
0000
0000
0000
0000
0010
0000
0000
0100
0000
0000
0000
0001
0000
0000
0000
1000
0000
0000
0000
,  // measure 54
0001
0000
0000
0100
0001
0000
1000
0100
0010
0000
0000
0100
0010
0000
0001
0000
,  // measure 55
1000
0000
0001
0000
1000
0000
0100
0000
0000
0000
0000
0000
0011
0000
0000
0100
0000
0000
0002
0000
0000
0000
0000
0000
,  // measure 56
0013
0100
1000
0001
1000
0100
0010
0001
,  // measure 57
0100
0000
0001
0000
1000
0000
0000
0000
0010
0000
0000
1000
0001
0000
0001
0000
,  // measure 58
0011
0000
1010
0000
1000
0100
0010
0001
,  // measure 59
0011
0000
0000
0100
0000
0000
0001
0000
1000
0000
0100
0000
1010
0000
0000
1000
0000
0000
0002
0000
0000
0000
0000
0000
,  // measure 60
0103
0001
0010
0001
1000
0100
1000
0010
,  // measure 61
0100
0000
0001
0000
1000
0001
1000
0001
1001
0000
1100
0000
0101
0000
1001
0000
,  // measure 62
0100
0010
0100
0010
0040
0000
1030
1000
,  // measure 63
1020
0000
0001
0000
1030
0010
0200
0001
,  // measure 64
0301
0000
0100
0000
0001
0100
0001
0000
1000
0000
0010
0000
2000
0000
0000
0000
,  // measure 65
3200
0000
0001
0010
1300
0100
0020
0000
,  // measure 66
0031
0000
0000
0010
0000
0000
0001
0000
0000
0000
0000
0000
1000
0000
0000
0010
0000
0000
1000
0000
0100
0000
0010
0000
,  // measure 67
0002
0000
1000
0000
0013
0001
0200
0000
,  // measure 68
0310
0000
0100
0000
0010
0100
0010
0000
1000
0000
0001
0000
2000
0000
0001
0000
,  // measure 69
3020
0000
0001
0100
1030
0010
2000
0000
,  // measure 70
3002
0000
1000
0010
1003
0001
0011
0011
,  // measure 71
0011
0000
1000
0000
0001
0000
0010
0000
0100
0000
1000
0000
0000
0000
0001
1000
,  // measure 72
0001
0000
0100
0000
0010
1000
0010
0000
0010
0000
0010
0000
0100
0000
0001
0100
,  // measure 73
0001
0000
0000
0000
0010
0000
0000
0000
0001
0000
0000
0000
4000
0000
0000
0000
3010
0000
0000
0000
0400
0000
0000
0000
0301
0000
0000
0000
4000
0000
0100
3000
,  // measure 74
1000
0000
0000
0001
0000
0000
0100
0000
0000
0010
0000
0000
0001
0000
0000
0010
0000
0000
1000
0000
0010
0000
0100
0000
,  // measure 75
0001
0000
0010
0000
0100
0000
1000
0000
0001
0000
1000
0000
0000
0000
0100
0010
,  // measure 76
0100
0000
1000
0000
0001
0000
0010
0100
0010
0000
0010
0000
0000
0000
0001
0010
,  // measure 77
0001
0000
0000
0000
1000
0000
0000
0000
0010
0000
0000
0000
0100
0000
0000
0000
1000
0000
0000
0000
0400
0000
0000
0000
0310
0000
0000
0000
4000
0000
0001
3000
,  // measure 78
1000
0000
0100
0000
0010
0000
0000
0010
0001
0000
4000
0000
3200
0000
0000
0000
,  // measure 79
0300
0000
0000
0000
;

//---------------dance-single - ----------------
#NOTES:
     dance-single:
     X-Scale 10:
     Medium:
     7:
     0.517642,0.615004,0.099080,0.176929,0.187544,512.000000,498.000000,14.000000,25.000000,0.000000,0.000000,0.517642,0.615004,0.099080,0.176929,0.187544,512.000000,498.000000,14.000000,25.000000,0.000000,0.000000:
// measure 0
0000
0000
0000
0000
,  // measure 1
0000
0000
0000
0000
,  // measure 2
0000
0000
0000
0000
,  // measure 3
0000
0000
0000
0000
,  // measure 4
0001
0000
0000
1000
0001
0000
0010
0000
,  // measure 5
0000
0010
0000
0000
0100
0010
0001
0000
,  // measure 6
0000
1000
0000
1000
,  // measure 7
0000
0000
0000
0000
1000
0000
0000
0000
1001
0000
0002
0000
0000
0000
0000
0003
,  // measure 8
0101
0000
0000
0100
0000
0000
0010
0000
0100
0000
1000
0000
0100
0000
0001
0000
,  // measure 9
1000
0001
0000
0100
0010
0001
0010
1000
,  // measure 10
1000
0000
1000
0000
0000
0000
0001
0100
0001
0000
0100
0000
0010
0000
1000
0000
,  // measure 11
0100
0010
0000
0001
1000
0100
1000
0001
,  // measure 12
1000
0000
0000
0100
0010
0001
1000
0001
,  // measure 13
0100
0010
0000
1000
0100
0010
0001
1000
,  // measure 14
1000
0000
1000
0000
0000
0000
0001
0100
0001
0000
0100
0000
1000
0000
0100
0000
,  // measure 15
0010
0100
0000
0001
0010
0100
1000
1000
,  // measure 16
1001
0000
0100
0001
1000
0000
0010
0100
,  // measure 17
0001
0000
1000
0000
1000
0100
1000
0000
0001
0000
0100
0000
0010
0000
1000
0000
,  // measure 18
0001
0010
0100
0010
0001
1000
0010
0100
,  // measure 19
0001
0000
0000
0010
0000
0000
0100
0000
0000
1000
0000
0000
0001
0000
0000
1000
0000
0000
0100
0000
1000
0000
0001
0000
,  // measure 20
1000
0000
0100
0000
0010
0001
0010
0000
0001
0000
2000
0000
0000
0000
3000
0000
,  // measure 21
0010
0000
0000
0000
1000
0000
0000
0000
0001
0000
0000
0000
0000
0000
0000
0010
0000
0000
0001
0000
0000
0000
0000
0000
1000
0000
0000
0000
0000
0000
0200
0000
0000
0000
0000
0000
0000
0000
0000
0000
0000
0000
0300
0000
0000
0000
0000
0000
,  // measure 22
0010
0001
2000
0000
3010
1000
0002
0000
,  // measure 23
0013
0000
1100
0000
0011
0000
1100
1000
0001
0000
0000
1000
0010
0000
0000
1000
,  // measure 24
0010
0000
0000
1000
0010
0000
1000
0000
0001
0000
0010
0000
0100
0010
0100
0000
,  // measure 25
1000
0000
0000
0001
0010
0000
0001
0000
1000
0000
0001
0000
0100
0000
0010
0100
,  // measure 26
0010
0000
0000
0000
1000
0000
0000
0000
0001
0000
0010
0000
0100
0000
0000
1000
,  // measure 27
0100
0000
0000
0000
0000
0000
1000
0000
0000
0000
0000
0000
0001
0000
0000
0000
0100
0000
0000
0000
0001
0000
0000
0000
1000
0000
0000
0000
0000
0000
0000
0000
0000
0010
0000
0000
1000
0000
0000
0000
0000
0000
1000
0000
0000
0000
0000
0000
,  // measure 28
1000
0100
0010
0001
1000
0001
0100
0010
,  // measure 29
1000
0000
0000
0001
0100
0001
1000
0000
0100
0000
0010
0000
0001
0000
1000
0000
,  // measure 30
0001
0000
0000
0100
0010
1000
0010
0100
0010
0000
1000
0000
0100
0000
0010
0000
,  // measure 31
0001
0000
1000
1000
1010
0000
0010
0000
,  // measure 32
0100
0000
0000
0000
0010
0000
0000
0000
1000
0000
0001
1000
0000
0000
0001
0000
,  // measure 33
0010
0100
1000
0000
0001
0000
0100
0000
,  // measure 34
0001
0000
0000
0000
1000
0000
0000
0000
0100
0000
0010
0100
0000
0000
0010
0000
,  // measure 35
0001
1000
0001
0000
1000
0000
0000
0000
0010
0000
0000
0000
1000
0000
0001
0000
,  // measure 36
1000
0000
0100
0100
0000
1000
0000
0000
,  // measure 37
0001
0000
0010
0001
0010
0000
0001
0000
1000
0000
0000
0000
0010
0000
0000
0000
,  // measure 38
0000
0100
0000
0010
,  // measure 39
0000
0000
0010
0000
1000
0000
0000
0001
,  // measure 40
0010
0000
0001
1000
0100
1000
0000
0000
,  // measure 41
0010
0100
0001
0000
1000
0000
0000
0010
,  // measure 42
0100
0000
0001
1000
0100
1000
0000
0000
,  // measure 43
0001
0100
0002
0000
1003
0100
0010
0001
,  // measure 44
1000
0100
0010
0001
1000
0100
0010
0001
,  // measure 45
1000
0100
0010
0001
1000
0100
0010
0001
,  // measure 46
1000
0100
0010
0001
1000
0100
0010
0001
,  // measure 47
0011
0000
0000
0000
0000
0000
1000
0000
0001
0000
1000
0000
0001
0000
0000
0010
0000
0000
0100
0000
0000
1000
0000
0000
,  // measure 48
0010
0000
0100
0010
0100
0000
0100
0000
0001
0000
1000
0000
0010
0000
0100
0000
,  // measure 49
0001
0000
1000
0001
1000
0000
1000
0000
0100
0000
0010
0000
0100
0000
1000
0000
,  // measure 50
0001
0000
0010
0100
0010
0000
0010
0000
0001
0000
1000
0000
0100
0000
1000
0000
,  // measure 51
0010
0000
0100
0010
0100
0000
0100
0000
0001
0000
0000
0010
0001
0000
1000
0000
,  // measure 52
0010
0000
0100
0010
0100
0000
0100
0000
0001
0000
0000
0010
0100
0000
0010
0000
,  // measure 53
0001
0000
1000
0001
1000
0000
1000
0000
0010
0000
0000
0100
0010
0000
0100
0000
,  // measure 54
0001
0000
0010
0100
0010
0000
0010
0000
0001
0000
0000
1000
0001
0000
1000
0000
,  // measure 55
1001
0000
0000
0000
0110
0100
2000
0000
,  // measure 56
3001
1000
0100
0010
0001
0100
0010
2000
,  // measure 57
0000
3001
0200
0300
0002
0003
0200
0300
,  // measure 58
0020
0030
2000
3000
0001
0010
1000
0010
,  // measure 59
0010
0000
0000
0001
0000
0000
0100
0000
0001
0000
0100
0000
0001
0000
0000
0010
0000
0000
0200
0000
0000
0000
0000
0000
,  // measure 60
1300
0100
0001
0100
0010
0001
1000
0010
,  // measure 61
1000
0100
0010
0000
0110
1001
0110
1001
,  // measure 62
1000
0100
0001
0010
2000
0000
3020
0000
,  // measure 63
0230
0000
0000
0000
0301
0100
0020
1000
,  // measure 64
0000
1000
0000
0000
0130
0010
2000
0000
,  // measure 65
0010
0000
0000
0100
3100
1000
0002
0100
,  // measure 66
0000
0000
0000
0100
0000
0000
0000
0000
0000
0000
0000
0000
0013
0000
0000
0100
0000
0000
1000
0000
0001
0000
1000
0000
,  // measure 67
0002
0000
0000
0000
0013
0001
0200
1000
,  // measure 68
0000
1000
0000
0000
0310
0100
0002
0000
,  // measure 69
1000
0000
0000
0010
0013
0001
0200
1000
,  // measure 70
0000
1000
0000
0000
0310
0100
0001
0001
,  // measure 71
0001
0000
0100
0000
0010
0100
0001
0000
,  // measure 72
1000
0000
0000
0000
0100
1000
0100
0000
0010
0000
0010
0000
0001
0000
0000
0000
,  // measure 73
1000
0000
0010
0100
0001
1000
0001
0100
,  // measure 74
0010
0000
0000
1000
0000
0000
0100
0000
0000
1000
0100
1000
,  // measure 75
0100
0000
0010
0001
1000
0001
0000
0010
,  // measure 76
0100
0000
1000
0000
0100
0000
0010
0000
0010
0000
0010
0000
0000
0000
0001
0010
,  // measure 77
0001
0000
1000
0000
0010
0000
0100
0000
0010
0000
1000
0000
0000
0000
0001
0100
,  // measure 78
0001
0000
1000
0000
0100
0000
0000
0010
0001
0000
0000
0000
0020
0000
0000
0000
,  // measure 79
0030
0000
0000
0000
;

//---------------dance-single - ----------------
#NOTES:
     dance-single:
     X-Scale 6:
     Easy:
     4:
     0.322515,0.362836,0.042463,0.219391,0.000000,319.000000,313.000000,6.000000,31.000000,0.000000,0.000000,0.322515,0.362836,0.042463,0.219391,0.000000,319.000000,313.000000,6.000000,31.000000,0.000000,0.000000:
// measure 0
0000
0000
0000
0000
,  // measure 1
0000
0000
0000
0000
,  // measure 2
0000
0000
0000
0000
,  // measure 3
0000
0000
0000
0000
,  // measure 4
1000
0000
0100
1000
,  // measure 5
0000
0001
0000
0000
2000
0000
0000
0000
,  // measure 6
3000
0010
0000
0010
,  // measure 7
0000
0010
1010
0000
,  // measure 8
1001
0000
1000
0100
,  // measure 9
1000
0002
0003
0000
1000
0100
0010
0000
,  // measure 10
0001
0000
0000
1000
0100
0000
1000
0000
,  // measure 11
0001
0200
0300
0000
0010
0000
1000
0010
,  // measure 12
1000
0000
0000
0001
1000
0000
0010
0000
,  // measure 13
1000
0002
0003
0000
0010
0100
1000
0000
,  // measure 14
0001
0000
0000
0010
0100
0000
1000
0000
,  // measure 15
0001
0200
0300
0000
0001
0000
1000
1000
,  // measure 16
1000
0000
0100
0010
0001
0000
1000
0000
,  // measure 17
0000
0001
0000
0000
1000
0001
0010
0000
,  // measure 18
0100
0000
0000
1000
0001
0000
1000
0000
,  // measure 19
0010
0100
0010
0000
1000
0100
0010
0000
,  // measure 20
0001
0000
0000
0100
0010
1000
0000
0000
,  // measure 21
0001
0000
0100
0000
0010
0100
0001
0000
,  // measure 22
1000
0200
0310
0002
,  // measure 23
1003
1000
1000
1000
0001
0000
0000
0100
,  // measure 24
0001
0000
1000
0000
0000
0100
0000
0000
,  // measure 25
1000
0100
0010
0000
0001
0000
0000
0100
,  // measure 26
0001
0000
1000
0000
0000
0001
0000
0000
,  // measure 27
1000
0010
0100
0000
0001
0000
1000
0001
,  // measure 28
1000
0000
0010
0000
0100
0000
0001
0010
,  // measure 29
0100
0000
1000
0000
0001
0000
1000
0010
,  // measure 30
0100
0000
0001
0000
1000
0100
0010
0100
,  // measure 31
2000
3000
0002
0003
0010
0000
0100
0000
,  // measure 32
1000
0001
1000
0100
,  // measure 33
0010
0001
0100
0001
,  // measure 34
0010
0100
0010
0001
,  // measure 35
2000
0000
0000
0000
3001
0000
0000
1000
,  // measure 36
0010
0000
1000
0000
0000
0001
0000
0000
,  // measure 37
0100
0010
1000
0000
0000
0000
0002
0000
,  // measure 38
0003
0200
0300
0002
,  // measure 39
0003
0000
0002
0000
1003
0000
0000
0001
,  // measure 40
1000
0000
0010
0000
0000
0010
0000
0000
,  // measure 41
0010
0100
0001
0000
1000
0000
0000
0100
,  // measure 42
0010
0000
0001
0000
0000
0001
0000
0000
,  // measure 43
0001
1000
0200
0300
1000
0100
0010
0001
,  // measure 44
0000
0000
0000
0001
1000
0100
0010
0001
,  // measure 45
0000
0000
0000
0001
1000
0100
0010
0001
,  // measure 46
0000
0000
0000
0001
1000
0100
0010
0001
,  // measure 47
0011
0000
1001
0001
,  // measure 48
1000
0000
0001
0010
0100
0000
0010
0000
,  // measure 49
0100
0000
1000
0010
0100
0000
0001
0000
,  // measure 50
0100
0000
0001
0010
0100
0000
1000
0000
,  // measure 51
0001
0000
0100
0100
0100
0000
0010
0000
,  // measure 52
1000
0000
0001
0010
0100
0000
1000
0000
,  // measure 53
0001
0000
1000
0010
0100
0000
0001
0000
,  // measure 54
1000
0000
0001
0010
0100
0000
0010
0001
,  // measure 55
0011
0000
0000
0000
1010
1000
0002
0000
,  // measure 56
0013
0000
0100
0000
1000
0100
0010
0001
,  // measure 57
0000
0100
0001
0000
1000
0000
0100
0000
,  // measure 58
0010
0000
0001
0000
1000
0000
0001
0100
,  // measure 59
0100
0010
0100
0000
0001
0010
0200
0000
,  // measure 60
1300
0000
0001
0000
1000
0100
0010
0001
,  // measure 61
0000
0100
0001
0000
1000
0010
0100
0001
,  // measure 62
2000
3000
2000
3000
2000
3000
2000
0000
,  // measure 63
3020
0000
0000
0000
0130
0010
2000
0000
,  // measure 64
0000
0000
0000
0000
3100
0010
0002
0000
,  // measure 65
0000
0000
0000
0000
0013
0100
2000
0000
,  // measure 66
0000
0000
0000
0000
3010
0100
0002
0000
,  // measure 67
0000
0000
0000
0000
1003
0100
0020
0000
,  // measure 68
0000
0000
0000
0000
0031
1000
0200
0000
,  // measure 69
0000
0000
0000
0000
0310
0100
2000
0000
,  // measure 70
0000
0000
0000
0000
3001
1000
0020
0000
,  // measure 71
0130
0010
0100
0010
,  // measure 72
1000
0001
1000
0001
,  // measure 73
0010
0100
0010
0100
,  // measure 74
1000
0010
1000
0010
,  // measure 75
0100
0000
0000
0000
0001
0000
0000
1000
,  // measure 76
0000
1000
0000
0000
0100
0000
0000
0000
,  // measure 77
0010
0100
0010
0100
,  // measure 78
1000
0000
0001
0000
1000
0000
0002
0003
;

//---------------dance-single - ----------------
#NOTES:
     dance-single:
     X-Scale 2:
     Beginner:
     1:
     0.112223,0.166667,0.014154,0.000000,0.000000,111.000000,109.000000,2.000000,0.000000,0.000000,0.000000,0.112223,0.166667,0.014154,0.000000,0.000000,111.000000,109.000000,2.000000,0.000000,0.000000,0.000000:
// measure 0
0000
0000
0000
0000
,  // measure 1
0000
0000
0000
0000
,  // measure 2
0000
0000
0000
0000
,  // measure 3
0000
0000
0000
0000
,  // measure 4
0000
0000
0001
0000
,  // measure 5
0000
0000
1000
0000
,  // measure 6
0000
0000
0000
0000
,  // measure 7
0000
0000
0000
0000
,  // measure 8
1001
0000
1000
0000
,  // measure 9
0000
0000
0001
0000
,  // measure 10
0000
0000
1000
0000
,  // measure 11
0000
0000
0001
0000
,  // measure 12
0010
0000
0100
0000
,  // measure 13
0000
0000
0010
0000
,  // measure 14
0000
0000
0100
0000
,  // measure 15
0000
0000
0010
0000
,  // measure 16
0001
0000
0010
0000
,  // measure 17
0001
0000
0010
0000
,  // measure 18
0100
0000
1000
0000
,  // measure 19
0100
0000
1000
0000
,  // measure 20
0001
0000
1000
0000
,  // measure 21
0001
0000
0100
0000
,  // measure 22
0010
0000
0100
0000
,  // measure 23
0010
0000
0000
0000
,  // measure 24
0001
0000
0000
0000
,  // measure 25
1000
0000
0000
0000
,  // measure 26
0001
0000
0000
0000
,  // measure 27
1000
0000
0001
0000
,  // measure 28
1000
0000
0100
0000
,  // measure 29
1000
0000
0100
0000
,  // measure 30
0010
0000
0001
0000
,  // measure 31
0010
0000
0001
0000
,  // measure 32
0010
0000
0000
0000
,  // measure 33
0100
0000
0000
0000
,  // measure 34
1000
0000
0000
0000
,  // measure 35
0001
0000
0000
0000
,  // measure 36
1000
0000
0000
0000
,  // measure 37
0100
0000
0000
0000
,  // measure 38
0000
0000
0000
0000
,  // measure 39
0000
0000
0000
0000
,  // measure 40
0001
0000
0000
0000
,  // measure 41
0001
0000
0000
0000
,  // measure 42
1000
0000
0000
0000
,  // measure 43
1000
0000
0001
0000
,  // measure 44
1000
0000
0001
0000
,  // measure 45
0010
0000
0100
0000
,  // measure 46
0010
0000
0100
0000
,  // measure 47
1000
0000
0010
0000
,  // measure 48
1000
0000
0010
0000
,  // measure 49
1000
0000
0100
0000
,  // measure 50
0010
0000
0100
0000
,  // measure 51
0010
0000
0001
0000
,  // measure 52
1000
0000
0001
0000
,  // measure 53
1000
0000
0100
0000
,  // measure 54
0010
0000
0001
0000
,  // measure 55
1000
0000
1001
0000
,  // measure 56
1000
0000
0000
0000
,  // measure 57
0001
0000
0000
0000
,  // measure 58
0100
0000
0000
0000
,  // measure 59
0010
0000
1000
0000
,  // measure 60
0001
0000
1000
0000
,  // measure 61
0010
0000
1000
0000
,  // measure 62
1000
0000
0001
0000
,  // measure 63
1000
0000
0100
0000
,  // measure 64
0000
0000
1000
0000
,  // measure 65
0000
0000
0001
0000
,  // measure 66
0000
0000
1000
0000
,  // measure 67
0001
0000
1000
0000
,  // measure 68
0000
0000
0010
0000
,  // measure 69
0000
0000
1000
0000
,  // measure 70
0000
0000
0010
0000
,  // measure 71
1000
0000
0100
0000
,  // measure 72
0010
0000
0001
0000
,  // measure 73
1000
0000
0100
0000
,  // measure 74
0010
0000
0001
0000
,  // measure 75
1000
0000
0001
0000
,  // measure 76
0000
0000
1000
0000
,  // measure 77
0000
0000
0001
0000
,  // measure 78
0000
0000
1000
0000
;
