#VERSION:0.83;
#TITLE:My Heart Is Refusing Me;
#SUBTITLE:;
#ARTIST:Loreen;
#TITLETRANSLIT:;
#SUBTITLETRANSLIT:;
#ARTISTTRANSLIT:;
#GENRE:Dance Pop;
#ORIGIN:;
#CREDIT:;
#BANNER:My Heart Is Refusing Me-bn.png;
#BACKGROUND:My Heart Is Refusing Me-bg.png;
#PREVIEWVID:;
#JACKET:My Heart Is Refusing Me-jacket.png;
#CDIMAGE:;
#DISCIMAGE:;
#LYRICSPATH:;
#CDTITLE:cdtitle.png;
#MUSIC:My Heart Is Refusing Me.ogg;
#OFFSET:-0.003000;
#SAMPLESTART:45.002998;
#SAMPLELENGTH:15.238000;
#SELECTABLE:YES;
#BPMS:0.000=126.000;
#STOPS:;
#DELAYS:;
#WARPS:;
#TIMESIGNATURES:0.000=4=4;
#TICKCOUNTS:0.000=4;
#COMBOS:0.000=1;
#SPEEDS:0.000=1.000=0.000=0;
#SCROLLS:0.000=1.000;
#FAKES:;
#LABELS:0.000=Song Start;
#BGCHANGES:;
#KEYSOUNDS:;
#ATTACKS:
;

//---------------dance-single - ----------------
#NOTEDATA:;
#CHARTNAME:X-Scale 12;
#STEPSTYPE:dance-single;
#DESCRIPTION:;
#CHARTSTYLE:;
#DIFFICULTY:Hard;
#METER:8;
#RADARVALUES:0.447951,0.521341,0.068497,0.304433,0.213103,412.000000,403.000000,9.000000,40.000000,0.000000,0.000000,0.000000,0.000000,0.000000,0.447951,0.521341,0.068497,0.304433,0.213103,412.000000,403.000000,9.000000,40.000000,0.000000,0.000000,0.000000,0.000000,0.000000;
#CREDIT:;
#NOTES:
// measure 0
0000
0000
0000
0000
,  // measure 1
0000
0000
0000
0000
,  // measure 2
0000
0000
0000
0000
,  // measure 3
0000
0000
0000
0000
,  // measure 4
0000
0000
0000
0000
,  // measure 5
0000
0000
0000
0000
,  // measure 6
0000
0000
0000
0000
,  // measure 7
0000
0000
0000
0000
,  // measure 8
1010
0000
0000
1000
0010
0000
1000
0000
0001
0000
0010
0000
1000
0000
0010
0000
,  // measure 9
0100
1000
0001
1000
0010
0000
2000
0000
,  // measure 10
3001
0000
0010
0001
1000
0100
0001
0100
,  // measure 11
0010
0000
0000
0001
0010
0000
0001
0000
2000
0000
0000
0000
3100
0000
0010
0000
,  // measure 12
0001
0000
0000
0100
0001
0000
1000
0000
0010
0000
0000
0100
0020
0000
0000
0000
,  // measure 13
1030
0000
0000
0001
0100
0000
0001
0000
1000
0000
0100
0000
0020
0000
0000
0000
,  // measure 14
0031
0000
0000
0010
0100
0000
0010
0000
0001
0000
1000
0000
0010
0000
0001
0000
,  // measure 15
0010
1000
0100
0020
0000
0031
2000
0000
,  // measure 16
3020
0000
0000
0000
0000
0000
0130
0002
,  // measure 17
0000
0000
0003
1000
0010
0100
0001
0020
,  // measure 18
0000
0000
0000
0130
0000
0000
2000
0000
0000
0000
0000
0000
3001
0000
0000
0000
0000
0000
1000
0000
0100
0000
0010
0000
,  // measure 19
0002
0000
0003
2000
0000
3010
1000
0000
,  // measure 20
0200
0000
0000
0000
0000
0000
0310
0002
,  // measure 21
0000
0000
0003
1000
0100
0001
0100
2000
,  // measure 22
0000
3001
0200
0000
0000
0000
0310
0000
,  // measure 23
1000
0000
0001
0000
0010
0100
0010
0100
,  // measure 24
1010
0000
0000
1000
0001
0000
1000
0000
0000
0000
0100
0000
0010
0000
0001
0010
,  // measure 25
0001
0000
0000
0100
0010
0000
0100
0000
0000
0000
0001
0000
0010
0000
0100
0000
,  // measure 26
1100
0000
0000
1000
0001
0000
1000
0000
0100
0000
0001
0000
0100
0000
0010
0000
,  // measure 27
0001
0000
0000
1000
0001
0000
0100
0000
0010
0000
0100
0000
1000
0000
0100
0000
,  // measure 28
0110
0000
0000
0010
1000
0000
0001
0000
0000
0000
0100
0000
0010
0000
1000
0001
,  // measure 29
1000
0000
0000
0100
0010
0000
0100
0000
0000
0000
1000
0000
0001
0000
0100
0000
,  // measure 30
0110
0000
0000
0100
0001
0000
0010
0000
1000
0000
0010
0000
0100
0000
1000
0000
,  // measure 31
0001
0000
1000
0000
0100
0000
0000
0000
0010
0000
0100
1000
0001
1000
0100
0000
,  // measure 32
1100
0000
0000
1000
0000
0000
0001
0000
0010
0000
0000
0100
0020
0000
0000
0000
,  // measure 33
0031
0000
0000
1000
0000
0000
0001
0000
0010
0000
0000
0100
2000
0000
0000
0000
,  // measure 34
3001
0000
0000
0100
0010
0000
0100
0000
0001
0000
1000
0000
0010
0000
0002
0000
,  // measure 35
0000
0023
0000
2030
0000
3200
0000
0320
,  // measure 36
0001
0000
0030
0001
0010
0000
0100
0000
1000
0000
0001
0000
1000
0000
0010
1000
,  // measure 37
0010
0100
1000
0100
0001
1000
0100
0010
,  // measure 38
0001
0000
0000
0100
0001
0000
1000
0000
0001
0000
0100
0000
0010
0000
0100
0001
,  // measure 39
0100
0000
0000
0010
1000
0000
0001
0000
0100
0000
0010
0000
1000
0000
0001
0000
,  // measure 40
1001
0000
0000
1000
0010
0000
0100
0000
1000
0000
0100
0000
0001
0000
0100
0001
,  // measure 41
1000
0000
0000
1000
0001
0000
0100
0000
0010
0000
0100
0000
1000
0000
0100
0000
,  // measure 42
0001
0000
0000
1000
0010
0000
1000
0000
0001
0000
0100
0000
0010
0000
1000
0100
,  // measure 43
1000
0000
0000
0001
0010
0000
0100
0000
0010
0000
0001
0000
1000
0000
0001
0000
,  // measure 44
0100
0000
0000
0001
0010
0000
0001
0000
1000
0000
0100
0000
0010
0000
0001
0100
,  // measure 45
0001
0000
0000
0010
0100
0000
0010
0000
0001
0000
1000
0000
0010
0000
0100
0000
,  // measure 46
0010
0000
0000
1000
0100
0000
1000
0000
0001
0000
0100
0000
0010
0000
1000
0001
,  // measure 47
0010
0100
0010
0002
0000
1003
0020
0000
,  // measure 48
0230
0000
0010
0000
1000
0000
0310
0100
,  // measure 49
0001
0000
0000
0100
0000
0000
0010
0000
0100
0000
0001
0000
1000
0000
0200
0000
,  // measure 50
0000
0000
0310
0000
0002
0000
1000
0000
0000
1000
0003
0000
0001
0000
1000
0000
,  // measure 51
0001
0000
0000
0010
0000
0000
0010
0000
0000
0010
0000
0000
0100
0000
1000
0000
,  // measure 52
0020
0000
0001
0000
0100
0000
1030
0010
,  // measure 53
1000
0000
0000
0100
0000
0000
0010
0000
0100
0000
1000
0000
0001
0000
0200
0000
,  // measure 54
0000
0000
0310
0000
2000
0000
0100
0000
0000
0100
0000
0000
3010
0000
1000
0000
,  // measure 55
0001
0000
0000
0001
0000
0000
0010
0000
0100
0000
1000
0000
0100
0000
1000
0000
,  // measure 56
1100
0000
0000
1000
0001
0000
1000
0000
0010
0000
0001
0000
0010
0000
1000
0000
,  // measure 57
0100
0000
0000
0010
0100
0000
0010
0000
0001
0000
1000
0000
0010
0000
1000
0000
,  // measure 58
0001
0000
0000
0010
0100
0000
0010
0000
0001
0000
0100
0000
1000
0000
0100
0000
,  // measure 59
0001
0000
0000
0010
0100
0000
0010
0000
0001
0000
1000
0000
0001
0000
0100
0000
,  // measure 60
0001
0000
0000
0010
0100
0000
1000
0000
0010
0000
0001
0000
0010
0000
1000
0000
,  // measure 61
0001
0000
0000
0100
0010
0000
0100
0000
0001
0000
0010
0000
1000
0000
0010
0000
,  // measure 62
0001
0000
0000
1000
0100
0000
1000
0000
0001
0000
0010
0000
0100
0000
2000
0000
,  // measure 63
0000
3001
0200
0000
1300
0100
0010
0100
,  // measure 64
0101
0000
0000
0000
0000
0000
0000
0000
0001
0000
0000
0010
0200
0000
0000
0000
,  // measure 65
0300
0000
0000
0000
0000
0000
0000
0000
1000
0000
0000
0010
0200
0000
0000
0000
,  // measure 66
0300
0000
0000
0000
0000
0001
0010
0200
,  // measure 67
0300
0020
0030
0002
0003
2000
3000
0002
,  // measure 68
0000
0000
0003
0000
;

//---------------dance-single - ----------------
#NOTEDATA:;
#CHARTNAME:X-Scale 10;
#STEPSTYPE:dance-single;
#DESCRIPTION:;
#CHARTSTYLE:;
#DIFFICULTY:Medium;
#METER:7;
#RADARVALUES:0.349010,0.391006,0.045665,0.251157,0.163632,321.000000,315.000000,6.000000,33.000000,0.000000,0.000000,0.000000,0.000000,0.000000,0.349010,0.391006,0.045665,0.251157,0.163632,321.000000,315.000000,6.000000,33.000000,0.000000,0.000000,0.000000,0.000000,0.000000;
#CREDIT:;
#NOTES:
0000
0000
0000
0000
,
0000
0000
0000
0000
,
0000
0000
0000
0000
,
0000
0000
0000
0000
,
0000
0000
0000
0000
,
0000
0000
0000
0000
,
0000
0000
0000
0000
,
0000
0000
0000
0000
,
0001
0000
0000
0010
0000
0000
0001
0000
0000
1000
0000
0000
0100
0000
0010
0000
,
0001
0000
0000
1000
0000
0000
0001
0000
0000
0010
0000
0000
0100
0000
0000
0000
,
0010
0000
0000
0001
0000
0000
1000
0000
0000
0010
0000
0000
1000
0000
0100
0000
,
0010
0000
0000
0100
0000
0000
1000
0000
0002
0000
0000
0000
0013
0000
0100
0000
,
1000
0000
0001
0100
0001
0000
0100
0010
,
0100
0000
0001
0010
0001
0000
1000
0010
,
1000
0000
0100
0010
0100
0000
1000
0100
,
0001
0100
0010
0002
0000
1003
0020
0000
,
0230
0000
0000
0302
,
1000
0000
0003
0001
0100
1000
0100
0010
,
0000
1000
0002
0000
0003
0000
0000
0000
,
1000
0100
0010
0001
0000
0010
0100
0000
,
2000
0000
0000
3002
,
1000
0000
0003
1000
0100
0001
0100
1000
,
0000
0010
0200
0000
0000
0000
0300
0000
,
0001
0010
0100
1000
,
1100
0000
0000
1000
0000
0000
0001
0000
0000
0100
0000
0000
0010
0000
0000
0000
,
1000
0000
0000
0100
0000
0000
0001
0000
0000
0100
0000
0000
1000
0000
0000
0000
,
0001
0000
0000
0010
0000
0000
0100
0000
0010
0000
0001
0000
1000
0000
0001
0000
,
0000
0010
0200
0000
1000
0300
0100
0000
,
1100
0000
0000
1000
0000
0000
0001
0000
0000
0010
0000
0000
0100
0000
0000
0000
,
0010
0000
0000
0001
0000
0000
1000
0000
0000
0001
0000
0000
0100
0000
0000
0000
,
0001
0000
0000
1000
0000
0000
0001
0000
0100
0000
1000
0000
0100
0000
0001
0000
,
0000
0010
0200
0000
1000
0300
0000
0000
,
1001
0000
0000
0001
0000
0000
0010
0000
0001
0000
0000
1000
0200
0000
0000
0000
,
0310
0000
0000
0100
0000
0000
1000
0000
0001
0000
0000
0100
0002
0000
0000
0000
,
0013
0000
0000
0100
0000
0000
1000
0000
0000
0000
0001
0000
1000
0000
0020
0000
,
0000
2030
0000
3200
0000
0320
0000
0032
,
1000
0000
0003
0001
0000
0000
0010
0000
0100
0000
0000
0000
1010
0000
0000
0000
,
1000
0000
0000
0001
0000
0000
0100
0000
0010
0000
1000
0000
0002
0000
0000
0000
,
0013
0000
0000
0100
0000
0000
1000
0000
0000
0000
0001
0000
1000
0000
0020
0000
,
0000
2030
0000
3002
0000
0023
0000
0230
,
1000
0300
0100
0010
0001
1000
0001
0010
,
1000
0010
0100
1000
0001
0000
0100
0000
,
0001
1000
0100
1000
0010
0100
0001
1000
,
0010
0001
0010
1000
0200
0000
0320
0000
,
0031
0000
0010
0100
1000
0001
2000
0000
,
3100
0000
0010
0001
1000
0010
0200
0000
,
1000
0000
0301
0100
0010
0000
1000
0001
,
0010
1000
0010
0002
0000
1003
0200
0000
,
0310
0000
0001
0000
1000
0000
0001
0100
,
0001
0000
1000
0000
0100
0000
1000
0001
,
1000
0000
0010
0000
0100
0000
0001
0010
,
0001
1000
0010
1000
0000
0100
0010
0000
,
0001
0000
1000
0000
0010
0000
1000
0100
,
1000
0000
0001
0000
0010
0000
0100
0010
,
0100
0000
1000
0000
0001
0000
0100
0010
,
0100
0000
0001
0000
0010
0000
0001
0010
,
0011
0000
0000
0001
0000
0000
1000
0000
0000
0100
0000
0000
0010
0000
0100
0000
,
1000
0000
0000
0001
0000
0000
0100
0000
0000
0001
0000
0000
1000
0000
0010
0000
,
0100
0000
0000
0010
0000
0000
0001
0000
0000
0010
0000
0000
1000
0000
0001
0000
,
0100
0000
0000
0010
0000
0000
1000
0000
0000
0100
0000
0000
0001
0000
0100
0000
,
1000
0000
0000
0001
0000
0000
0100
0000
0000
0001
0000
0000
0010
0000
0100
0000
,
1000
0000
0000
0010
0000
0000
0001
0000
0000
0010
0000
0000
1000
0000
0100
0000
,
0010
0000
0000
0001
0000
0000
1000
0000
0000
0001
0000
0000
0010
0000
0100
0000
,
1000
0000
0000
0001
0000
0000
0100
0000
0000
0010
0000
0000
0100
0000
0001
0000
,
1001
0000
0000
0000
0000
0000
0000
0000
1000
0000
0000
0100
0020
0000
0000
0000
,
0030
0000
0000
0000
0000
0000
0000
0000
0001
0000
0000
0100
0020
0000
0000
0000
,
0030
0000
0000
0000
0000
1000
0001
0010
,
0000
0100
0000
1000
0000
0001
0000
2000
,
0000
0000
3000
0000
;

//---------------dance-single - ----------------
#NOTEDATA:;
#CHARTNAME:X-Scale 6;
#STEPSTYPE:dance-single;
#DESCRIPTION:;
#CHARTSTYLE:;
#DIFFICULTY:Easy;
#METER:4;
#RADARVALUES:0.266378,0.361609,0.045665,0.000000,0.000000,245.000000,239.000000,6.000000,0.000000,0.000000,0.000000,0.000000,0.000000,0.000000,0.266378,0.361609,0.045665,0.000000,0.000000,245.000000,239.000000,6.000000,0.000000,0.000000,0.000000,0.000000,0.000000,0.000000;
#CREDIT:;
#NOTES:
0000
0000
0000
0000
,
0000
0000
0000
0000
,
0000
0000
0000
0000
,
0000
0000
0000
0000
,
0000
0000
0000
0000
,
0000
0000
0000
0000
,
0000
0000
0000
0000
,
0000
0000
0000
0000
,
1000
0100
0010
0001
,
1000
0100
0010
0001
,
1000
0010
0100
0001
,
1000
0010
0100
0001
,
1000
0000
0001
0010
0100
0000
0010
0000
,
0001
0000
1000
0100
0010
0000
0100
0000
,
1000
0000
0001
0100
0010
0000
0100
0000
,
0001
0000
1000
0100
0010
0000
0100
0000
,
1100
0000
0000
0000
,
0001
0000
1000
0000
,
0010
0000
0000
0000
,
0100
0000
0000
0001
0000
0000
1000
0000
,
0001
0000
0000
0000
,
0100
0000
0001
0000
,
1000
0000
0000
0000
,
0001
0000
0010
0000
0000
1000
0100
1000
,
0100
0000
0000
0000
0000
0001
0100
0001
,
0100
0000
0000
0000
0000
1000
0100
1000
,
0100
0000
0000
0000
0010
0000
0100
1000
,
0000
0001
1000
0000
0000
0001
0010
0001
,
0010
0000
0000
0000
0000
1000
0010
1000
,
0010
0000
0000
0000
0000
0001
0010
0001
,
0010
0000
0000
0000
0001
0000
1000
0010
,
0000
0100
0001
0000
1001
0000
0000
0000
,
0110
0000
0010
1000
,
0001
0000
1000
0001
,
0010
0000
0000
0000
0000
1000
0100
0010
,
0000
0100
0000
1000
0000
0001
0000
0100
,
0001
0000
1000
0001
,
0100
0000
0010
0100
,
0001
0000
0000
0000
0000
0010
0100
1000
,
0000
0001
0000
1000
0000
0100
0000
1000
,
0001
1000
0010
0100
,
0001
1000
0010
0100
,
0001
0010
0100
1000
,
0001
0010
0100
1000
,
0001
0000
0100
0001
1000
0000
0010
1000
,
0001
0000
0100
0001
1000
0000
0010
1000
,
0001
0000
0010
0100
1000
0000
0001
0010
,
0001
1000
0010
1000
0000
0100
0010
0000
,
0110
0100
1000
0001
,
1000
0100
1000
0001
,
0010
0100
0010
0001
,
0010
0100
0010
0001
,
1000
0010
0100
0001
,
1000
0010
0100
0001
,
1000
0100
0010
0001
,
1000
0100
0010
0001
,
0011
0000
0010
0000
0001
1000
0010
1000
,
0001
0000
0010
0000
0100
1000
0001
1000
,
0100
0000
0010
0000
0100
1000
0001
1000
,
0000
0100
0010
0000
0100
0000
1000
0000
,
0001
0000
0100
0000
0001
0010
0100
0010
,
0001
0000
1000
0000
0010
0100
0001
0100
,
0010
0000
1000
0100
1000
0001
0010
0100
,
0000
0010
0001
0000
1000
0000
0100
0000
,
1100
0000
0000
0000
,
0001
0000
0000
0000
,
1000
0000
0000
0000
0000
0100
0010
0001
,
0000
1000
0000
0001
0000
0010
0000
0100
;

//---------------dance-single - ----------------
#NOTEDATA:;
#CHARTNAME:X-Scale 1;
#STEPSTYPE:dance-single;
#DESCRIPTION:;
#CHARTSTYLE:;
#DIFFICULTY:Beginner;
#METER:1;
#RADARVALUES:0.105464,0.155261,0.015222,0.000000,0.000000,97.000000,95.000000,2.000000,0.000000,0.000000,0.000000,0.000000,0.000000,0.000000,0.105464,0.155261,0.015222,0.000000,0.000000,97.000000,95.000000,2.000000,0.000000,0.000000,0.000000,0.000000,0.000000,0.000000;
#CREDIT:;
#NOTES:
0000
0000
0000
0000
,
0000
0000
0000
0000
,
0000
0000
0000
0000
,
0000
0000
0000
0000
,
0000
0000
0000
0000
,
0000
0000
0000
0000
,
0000
0000
0000
0000
,
0000
0000
0000
0000
,
0001
0000
0010
0000
,
0001
0000
0010
0100
,
1000
0000
0010
0000
,
1000
0000
0010
1000
,
0001
0000
0010
0000
,
0100
0000
1000
0000
,
0010
0000
0100
0000
,
0001
0000
1000
0000
,
0001
0000
0000
0000
,
0010
0000
0000
0000
,
0100
0000
0000
0000
,
1000
0000
0000
0000
,
0010
0000
0000
0000
,
0100
0000
0000
0000
,
0001
0000
0000
0000
,
1000
0000
0000
0000
,
1001
0000
0000
0000
,
0100
0000
0000
0000
,
1000
0000
0000
0000
,
0001
0000
0010
0000
,
0001
0000
0000
0000
,
0100
0000
0000
0000
,
0010
0000
0000
0000
,
1000
0000
0001
0000
,
1000
0000
0000
0000
,
0100
0000
0000
0000
,
0010
0000
0000
0000
,
0001
0000
0100
0000
,
0001
0000
0000
0000
,
1000
0000
0000
0000
,
0010
0000
0000
0000
,
1000
0000
0001
0000
,
1000
0000
0100
0000
,
1000
0000
0100
0010
,
0001
0000
0100
0000
,
0001
0000
0100
0001
,
1000
0000
0100
0000
,
0010
0000
0001
0000
,
0100
0000
0010
0000
,
1000
0000
0001
0000
,
1001
0000
0000
0000
,
0100
0000
0000
0000
,
1000
0000
0000
0000
,
0001
0000
0100
0000
,
0001
0000
0000
0000
,
0010
0000
0000
0000
,
0100
0000
0000
0000
,
1000
0000
0001
0000
,
1000
0000
0100
0000
,
0010
0000
0001
0000
,
1000
0000
0100
0000
,
0010
0000
0001
0000
,
1000
0000
0010
0000
,
0100
0000
0001
0000
,
1000
0000
0010
0000
,
0100
0000
0001
0000
,
1000
0000
0000
0000
,
0100
0000
0000
0000
,
1000
0000
0000
0000
,
0001
0000
0000
0000
,
0010
0000
0000
0000
;
