#VERSION:0.83;
#TITLE:My Agenda;
#SUBTITLE:;
#ARTIST:Dorian Electra feat. Village People & Pussy Riot;
#TITLETRANSLIT:;
#SUBTITLETRANSLIT:;
#ARTISTTRANSLIT:;
#GENRE:Industrial Hyperpop;
#ORIGIN:;
#CREDIT:;
#BANNER:My Agenda-bn.png;
#BACKGROUND:My Agenda-bg.png;
#PREVIEWVID:;
#JACKET:My Agenda-jacket.png;
#CDIMAGE:;
#DISCIMAGE:;
#LYRICSPATH:;
#CDTITLE:cdtitle.png;
#MUSIC:My Agenda.ogg;
#OFFSET:-0.008000;
#SAMPLESTART:28.037001;
#SAMPLELENGTH:14.015000;
#SELECTABLE:YES;
#BPMS:0.000=137.000;
#STOPS:;
#DELAYS:;
#WARPS:;
#TIMESIGNATURES:0.000=4=4;
#TICKCOUNTS:0.000=4;
#COMBOS:0.000=1;
#SPEEDS:0.000=1.000=0.000=0;
#SCROLLS:0.000=1.000;
#FAKES:;
#LABELS:0.000=Song Start;
#BGCHANGES:0.000=My Agenda.avi=1.000=1=0=0=StretchNoLoop==CrossFade==,
99999=-nosongbg-=1.000=0=0=0 // don't automatically add -songbackground-
;
#KEYSOUNDS:;
#ATTACKS:
;

//---------------dance-single - ----------------
#NOTEDATA:;
#CHARTNAME:X-Scale 14;
#STEPSTYPE:dance-single;
#DESCRIPTION:;
#CHARTSTYLE:;
#DIFFICULTY:Hard;
#METER:9;
#RADARVALUES:0.581301,0.729764,0.390509,0.265546,0.370984,521.000000,471.000000,50.000000,34.000000,0.000000,0.000000,9.000000,0.000000,0.000000,0.581301,0.729764,0.390509,0.265546,0.370984,521.000000,471.000000,50.000000,34.000000,0.000000,0.000000,9.000000,0.000000,0.000000;
#CREDIT:iamthek3n -ZOOMER MOMENT-;
#NOTES:
// measure 0
0000
0000
0000
0000
,  // measure 1
0000
0000
0000
0000
,  // measure 2
0000
0000
0000
0000
,  // measure 3
0000
0000
0000
0000
,  // measure 4
1001
0000
0000
1000
0010
0100
0001
1000
,  // measure 5
0001
0000
0000
0000
0000
0000
1000
0000
0010
0100
0000
0000
0002
0000
0000
0000
,  // measure 6
0013
0000
0000
0000
0000
0000
0100
0000
0020
0000
0000
0000
0031
0100
0000
0000
,  // measure 7
0001
0010
0100
1000
0010
0100
0001
0000
,  // measure 8
0101
0000
0000
1000
1001
0001
0010
0100
,  // measure 9
1100
0000
0000
0000
0000
0000
1000
0000
0100
0010
0000
0000
0002
0000
0000
0000
,  // measure 10
1003
0000
0000
0000
0000
0000
0100
0000
1000
0010
0000
0000
0010
0100
0000
0000
,  // measure 11
0100
0001
0000
0000
0001
0000
0010
0100
1000
0000
0100
0000
0010
0000
0100
0000
,  // measure 12
1001
0000
0000
0001
0011
0000
1000
0010
,  // measure 13
1010
0000
0000
0001
0011
0001
0001
0001
,  // measure 14
1001
0000
1000
0000
0100
0000
0001
0000
0010
0000
1000
0000
,  // measure 15
0100
1000
0100
0000
0010
0000
0001
0000
0100
0000
0001
0000
0101
0000
0000
0000
1001
0000
0000
0000
0000
0100
0000
0000
,  // measure 16
1100
1000
0001
0100
0101
0000
0000
0001
,  // measure 17
0010
0100
1000
0000
0001
0000
0100
0000
0001
0000
2000
0000
0000
0000
3100
0000
,  // measure 18
1100
1000
0010
1000
1010
0000
0001
0010
,  // measure 19
0001
1000
0100
0000
1000
0000
0010
0000
0100
0000
0002
0000
0000
0000
0103
0000
,  // measure 20
0101
1000
0001
1000
1100
0000
0000
0001
,  // measure 21
1000
0001
1000
0000
0010
0000
0001
0000
0010
0000
2000
0000
0000
0000
3010
0000
,  // measure 22
1010
1000
0100
0010
0011
0000
0000
0001
,  // measure 23
1000
0000
0010
0000
0100
0000
0001
0010
0100
0000
0100
0000
1000
0000
1000
0000
,  // measure 24
0001
0000
0000
0000
0000
0000
0000
0000
0000
0100
0000
0000
0001
0000
0000
0000
1000
0000
0000
0000
0010
0000
0000
0000
0100
0000
0000
0000
0000
0000
0000
0000
0000
0001
0000
0000
0010
0000
0000
0000
0000
0000
0100
0000
0000
0000
0000
0000
,  // measure 25
1000
0000
0000
0000
0000
0000
0000
0000
0000
0010
0000
0000
1000
0000
0000
0000
0001
0000
0000
0000
0100
0000
0000
0000
0010
0000
0000
0000
1000
0000
0000
0000
0001
0000
0000
0000
0100
0000
0000
0000
0000
0000
0001
0000
0000
0000
0000
0000
,  // measure 26
0100
0010
0100
0001
0010
0100
1000
0010
0100
1000
0100
0001
,  // measure 27
0100
0000
0000
0000
0010
0000
0000
0000
1000
0000
0000
0000
0001
0000
0000
0000
0000
0000
0000
0000
0010
0000
0000
0000
0000
0000
0000
0000
0100
0000
0000
0000
0010
0000
0000
0000
0001
0000
0000
0000
0000
0000
1000
0000
0000
0010
0000
0000
,  // measure 28
1000
0000
0000
0001
0010
0000
0100
0000
0100
0000
0000
1000
0001
0000
0010
0001
,  // measure 29
0010
0000
0001
0000
1000
0000
0001
0000
0000
0010
0000
0000
0100
0000
1000
0000
0001
0000
0100
0000
0000
0010
0000
0000
,  // measure 30
1000
0000
0100
0000
0010
0000
0001
0000
0000
1000
0000
0000
0010
0000
0100
0000
0001
0000
1000
0000
0100
0000
0010
0000
,  // measure 31
0001
0100
0000
0000
0100
0000
0100
0000
0100
0400
0000
0000
0300
0000
0000
0000
,  // measure 32
1001
0000
0000
0001
0000
0000
1000
0000
0000
1000
0000
0000
0100
0000
0100
0000
0100
0000
1100
0000
0000
0000
0000
0000
,  // measure 33
1000
0100
0010
0001
0100
0010
1000
0000
,  // measure 34
1020
0000
0000
1030
1001
0001
0200
0000
,  // measure 35
0000
0000
0310
1000
4004
3003
0440
0330
,  // measure 36
1001
1000
0010
0100
0110
0001
0101
0000
,  // measure 37
0001
0010
0100
1000
0010
0100
0001
0000
,  // measure 38
0201
0000
0000
1300
0100
0001
1001
0000
,  // measure 39
1000
0000
0100
0000
0001
0000
0100
0000
1000
0000
0100
0000
0010
0001
0010
0001
0010
0001
0010
0000
0100
0000
1000
0000
,  // measure 40
1100
1000
0010
1000
1001
0000
0000
0100
,  // measure 41
0001
1000
0001
0010
0011
0000
0000
0000
,  // measure 42
1010
1000
0001
0100
0101
0000
0000
0001
,  // measure 43
0100
0010
0001
1000
0100
0020
0000
1030
,  // measure 44
1001
0001
0100
0001
0101
0000
0000
1000
,  // measure 45
0010
0001
0010
1000
1100
0000
0000
0000
,  // measure 46
1001
1000
0100
0010
0001
0000
0000
0001
,  // measure 47
0010
0000
1000
0000
0010
0000
0001
0100
0001
0000
0001
0000
1000
0000
1000
0000
,  // measure 48
0010
0100
1000
0001
0010
0100
0000
0001
,  // measure 49
1000
0010
1000
0000
0001
0000
1000
0000
0100
0000
1000
0000
0001
0000
0000
0000
,  // measure 50
1001
0100
1000
0001
0100
0000
0001
0010
,  // measure 51
0001
1000
0001
0000
0100
0000
0010
0000
1000
0000
0100
0000
1000
0000
0000
0000
,  // measure 52
0010
0100
1000
0001
0010
0100
0000
0001
,  // measure 53
0010
0100
0010
0000
0001
0000
0100
0000
0001
0000
2000
0000
0000
0000
3001
0000
,  // measure 54
1001
1000
0010
0001
0010
1000
0100
1000
,  // measure 55
0001
0000
0001
0000
1000
0000
0010
1000
0100
0000
0100
0000
0010
0000
0010
0000
,  // measure 56
0011
0000
0000
0000
1000
0000
0100
0000
1000
0001
0000
0000
0010
0000
0100
0000
,  // measure 57
1000
0000
0000
0000
0001
0000
0100
0000
0010
0100
0000
0000
0002
0000
0000
0000
,  // measure 58
2003
0000
0000
0000
3000
0000
0001
0000
1000
0100
0000
0000
0100
0010
0000
0000
,  // measure 59
0010
0001
0000
0000
0001
1000
0000
0000
1000
0010
0000
0000
0200
0000
0000
0000
,  // measure 60
0302
0000
0000
0000
0003
0000
0010
0000
0100
0000
0010
0000
0001
0100
0000
0000
,  // measure 61
0001
0000
0000
0000
0000
0000
1000
0000
0001
0100
0000
0000
0002
0000
0000
0000
,  // measure 62
2003
0000
0000
0000
3000
0000
1000
0000
0001
0100
0000
0000
0100
0010
0000
0000
,  // measure 63
0100
0000
0000
0000
0001
0100
0000
0000
0100
0000
0010
0000
2000
0000
0000
0000
,  // measure 64
3002
0000
0000
0000
0013
0100
0000
0000
1010
0000
1000
0000
2001
0000
0000
0000
,  // measure 65
0020
0030
0020
0030
0020
0030
0020
3030
,  // measure 66
0000
0000
0000
0000
1000
0100
0000
0000
1100
0000
0001
0000
0201
0000
0000
0000
,  // measure 67
0020
0030
0020
0030
0340
4030
3400
4300
,  // measure 68
3000
0000
0000
0000
0001
0100
0000
0000
1001
0000
0010
0000
0021
0000
0000
0000
,  // measure 69
0002
0003
0200
0300
2000
3000
0002
0033
,  // measure 70
0000
0000
0000
0000
0010
0001
0000
0000
1001
0000
0100
0000
2100
0000
0000
0000
,  // measure 71
0020
0000
0000
0000
0000
0000
0030
0000
3010
1000
0000
0001
0000
0010
0100
0000
;

//---------------dance-single - ----------------
#NOTEDATA:;
#CHARTNAME:X-Scale 11;
#STEPSTYPE:dance-single;
#DESCRIPTION:;
#CHARTSTYLE:;
#DIFFICULTY:Medium;
#METER:8;
#RADARVALUES:0.440717,0.506100,0.359268,0.226495,0.121058,395.000000,349.000000,46.000000,29.000000,0.000000,0.000000,0.000000,0.000000,0.000000,0.440717,0.506100,0.359268,0.226495,0.121058,395.000000,349.000000,46.000000,29.000000,0.000000,0.000000,0.000000,0.000000,0.000000;
#CREDIT:iamthek3n;
#NOTES:
0000
0000
0000
0000
,
0000
0000
0000
0000
,
0000
0000
0000
0000
,
0000
0000
0000
0000
,
0010
0000
0110
0000
,
1000
0000
1001
0001
,
0010
0000
0011
0000
,
1000
0000
1001
0010
,
0101
0000
0000
1000
1100
0000
0100
0010
,
0001
0000
0000
0100
0101
0000
0001
0000
,
1001
0000
0000
1000
1100
0000
0001
0000
,
1001
0000
1000
0100
0001
0100
0010
0001
,
0011
0000
0000
0001
1001
0000
1000
0010
,
1000
0000
0000
0001
0010
0100
0010
0001
,
0010
0100
0000
0010
0001
0000
0010
0100
,
1000
0001
1000
0001
1000
0001
1001
0000
1001
0000
0000
0000
,
0110
0000
0100
0001
1000
0020
0000
0030
,
0100
0000
0001
0010
0100
2000
0000
3000
,
1001
0000
0110
0000
1010
0010
0100
0001
,
0000
0010
0100
1000
0001
0200
0000
0300
,
0110
0000
0001
1000
0100
0020
0000
0030
,
0001
0100
1000
0001
0010
2000
0000
3000
,
1100
0000
0101
0000
1100
1000
0100
1000
,
0002
0000
0100
0000
1003
0001
1000
0001
,
0010
0000
0000
0001
0000
0000
1000
0000
1000
0000
0000
0010
0000
0000
0100
0000
,
0100
0000
0000
0001
0000
0000
0010
0000
0010
0000
0000
0100
0000
0000
1000
0000
,
1000
0000
0000
0001
0000
0000
0100
0000
0100
0000
0000
0001
0000
0000
0010
0000
,
0010
0000
0000
0100
0000
0000
1000
0000
1000
0000
0000
0001
0000
0000
0010
0100
,
0010
0000
0000
0010
0000
0000
0001
0000
0001
0000
0000
1000
0000
0000
0010
0000
,
0010
0000
0000
1000
0000
0000
0001
0000
0001
0000
0000
0010
0000
0000
0100
0000
,
0100
0000
0000
1000
0000
0000
0001
0000
0001
0000
0000
1000
0000
0000
0100
0000
,
0100
1000
0000
0000
0001
0000
0100
0000
0001
0020
0000
0000
0030
0000
0000
0000
,
0011
0000
0001
0100
0101
0000
1100
0000
,
0001
0100
1000
0100
0001
0000
0010
0000
,
0102
0000
0000
0010
0013
0100
2000
0000
,
0000
0000
3001
1000
1100
0000
0110
0000
,
1001
0000
1000
0100
1100
0000
0101
0000
,
1000
0010
0001
0010
1000
0000
0001
0000
,
0201
0000
0000
0001
0301
0010
0100
0000
,
1000
0100
0010
0001
0100
0010
2000
0000
0000
3001
1000
0001
,
1001
0000
0001
1000
0100
2000
0000
3100
,
0000
0100
0010
0100
1000
0002
0000
0003
,
1001
0000
0110
0000
0010
0100
0001
0010
,
0000
0100
0010
0001
1000
0002
0000
0003
,
1001
0000
1000
0010
1000
0002
0000
0010
,
0003
0010
0001
0010
0100
2000
0000
3000
,
1100
0000
0101
0000
0001
1000
0010
1000
,
0002
0000
0010
0000
1003
0001
0100
0001
,
1000
0100
0001
0100
1000
0000
0000
0001
,
1001
1000
0100
1000
0001
0010
0100
0000
,
0010
0001
1000
0001
0010
0000
0100
1000
,
0001
1000
0100
0001
0100
2000
0000
0000
,
3010
0100
1000
0100
0001
0000
0000
0001
,
0100
0010
1000
0100
0010
0001
0000
0000
,
0101
0100
0001
1000
0010
0000
1000
0100
,
0001
0000
0100
0000
1000
0000
0010
0100
0010
0000
0100
0000
0001
0000
0001
0000
,
0020
1000
0100
0001
,
0032
0000
0100
1000
,
2003
0000
0100
0010
,
3002
0000
0010
0000
0103
0001
0010
0000
,
2001
0000
0010
0001
,
3200
0000
0001
0010
,
2300
0000
0100
0001
,
3020
0000
0000
0000
1030
0010
0200
0000
,
0302
0003
1001
1000
,
0010
0001
0100
1000
,
0000
0000
0011
0001
,
0100
0000
1000
0000
0001
0010
0100
0001
,
0000
0000
1010
1000
,
0100
0001
0010
1000
,
0000
0000
0011
1010
,
2000
0000
0000
0000
0000
0000
0000
0000
0010
0000
0000
0001
0000
0100
0100
0000
,
3000
0000
0000
0000
;

//---------------dance-single - ----------------
#NOTEDATA:;
#CHARTNAME:X-Scale 5;
#STEPSTYPE:dance-single;
#DESCRIPTION:;
#CHARTSTYLE:;
#DIFFICULTY:Easy;
#METER:3;
#RADARVALUES:0.222032,0.337400,0.148393,0.093722,0.000000,199.000000,180.000000,19.000000,12.000000,0.000000,0.000000,0.000000,0.000000,0.000000,0.222032,0.337400,0.148393,0.093722,0.000000,199.000000,180.000000,19.000000,12.000000,0.000000,0.000000,0.000000,0.000000,0.000000;
#CREDIT:iamthek3n;
#NOTES:
0000
0000
0000
0000
,
0000
0000
0000
0000
,
0000
0000
0000
0000
,
0000
0000
0000
0000
,
0001
0000
0000
0000
,
0010
0000
0000
0000
,
0100
0000
0000
0000
,
1000
0000
0001
1000
,
1001
0000
0100
0000
,
1000
0000
0001
0000
,
0010
0000
0001
0000
,
0100
0000
0001
1000
,
1001
0000
1000
0000
,
0100
0000
0010
0000
,
0001
0000
1000
0000
,
0001
0000
1000
0000
,
1001
0000
0001
0000
,
0010
0100
1000
0000
,
1100
0000
1000
0000
,
0001
1000
0010
0000
,
0110
0000
1000
0000
,
0001
1000
0010
0000
,
1001
0000
0010
0000
,
1000
0002
0100
0000
,
1003
0000
0100
0000
,
0010
0000
0001
0000
,
0100
0000
0010
0000
,
1000
0000
0001
0000
,
1000
0000
0010
1000
0001
0000
0020
0000
,
0001
0130
1000
0001
,
0100
0001
1000
0001
,
0010
0000
0100
0000
,
1001
0000
0001
1000
0100
0000
1000
0000
,
0001
0010
0001
1000
,
1001
0000
0000
0010
0001
0000
1000
0000
,
0000
0000
0010
1000
0002
0000
0023
0000
,
0130
0000
0010
0100
1000
0000
0001
0000
,
1000
0001
0010
0001
,
1000
0000
0000
0010
0100
0000
0020
0000
,
1030
0000
0100
0000
,
1001
0000
1000
0000
,
0100
0010
0001
0000
,
1001
0000
0010
0000
,
1000
0001
0100
0000
,
0101
0000
0001
0000
,
1000
0100
0010
0000
,
1001
1000
0100
0010
,
0100
2000
0001
0000
,
3010
0000
1000
0100
1000
0000
0000
0000
,
0001
0000
0100
0010
0100
0000
0000
0000
,
0001
0000
0010
0000
0001
0000
1000
0100
,
1000
0010
1000
0000
,
0001
0000
0010
0100
0010
0000
0000
0000
,
0001
0000
1000
0010
1000
0000
0000
0000
,
1001
0000
0001
0010
0001
0000
1000
0000
,
0100
0020
0001
0000
,
0031
0000
0000
0000
,
0010
0000
0000
0000
,
0110
0000
0000
0000
,
1000
0000
0000
0000
,
1001
0000
0001
0000
,
0010
0000
0100
0000
,
1000
0000
0010
0000
,
0100
0000
0001
0000
,
0100
0000
1001
2000
,
0010
0000
0010
0000
,
3000
0000
1001
0002
,
0100
0000
0100
0000
,
0003
0000
0110
0020
,
1000
0000
1000
0000
,
0030
0000
1001
0002
,
0020
0000
0003
0000
,
0030
0000
0000
0000
;

//---------------dance-single - ----------------
#NOTEDATA:;
#CHARTNAME:X-Scale 2;
#STEPSTYPE:dance-single;
#DESCRIPTION:;
#CHARTSTYLE:;
#DIFFICULTY:Beginner;
#METER:1;
#RADARVALUES:0.099301,0.165185,0.023431,0.000000,0.000000,89.000000,86.000000,3.000000,0.000000,0.000000,0.000000,0.000000,0.000000,0.000000,0.099301,0.165185,0.023431,0.000000,0.000000,89.000000,86.000000,3.000000,0.000000,0.000000,0.000000,0.000000,0.000000,0.000000;
#CREDIT:iamthek3n;
#NOTES:
0000
0000
0000
0000
,
0000
0000
0000
0000
,
0000
0000
0000
0000
,
0000
0000
0000
0000
,
1000
0000
0000
0000
,
0001
0000
0000
0000
,
1000
0000
0000
0000
,
0001
0000
0000
0000
,
0010
0000
0000
0000
,
0100
0000
0000
0000
,
0010
0000
0000
0000
,
0100
0000
0000
0000
,
1000
0000
0000
0000
,
0010
0000
0000
0000
,
0100
0000
0000
0000
,
0001
0000
0000
0000
,
1001
0000
1000
0000
,
0001
0000
1000
0000
,
0001
0000
0100
0000
,
0010
0000
0100
0000
,
0010
0000
1000
0000
,
0001
0000
1000
0000
,
0010
0000
1000
0000
,
0001
0000
0000
0000
,
1000
0000
0000
0000
,
0100
0000
0000
0000
,
0010
0000
0000
0000
,
0001
0000
0000
0000
,
0100
0000
0000
0000
,
0010
0000
0000
0000
,
1000
0000
0000
0000
,
0001
0000
0000
0000
,
1001
0000
1000
0000
,
0000
0000
0001
0000
,
0000
0000
0100
0000
,
0000
0000
0001
0000
,
1000
0000
0001
0000
,
0000
0000
0100
0000
,
0000
0000
0001
0000
,
0000
0000
0000
0000
,
1001
0000
1000
0000
,
0001
0000
1000
0000
,
0001
0000
0100
0000
,
0010
0000
0100
0000
,
0010
0000
1000
0000
,
0100
0000
1000
0000
,
0010
0000
1000
0000
,
0100
0000
0000
0000
,
1000
0000
0001
0000
,
1000
0000
0001
0000
,
0010
0000
0100
0000
,
0010
0000
0100
0000
,
1000
0000
0001
0000
,
1000
0000
0010
0000
,
1000
0000
0001
0000
,
1000
0000
0000
0000
,
0001
0000
0000
0000
,
0010
0000
0000
0000
,
0100
0000
0000
0000
,
1000
0000
0000
0000
,
0100
0000
0000
0000
,
0010
0000
0000
0000
,
0001
0000
0000
0000
,
1000
0000
0000
0000
,
0000
0000
0001
0000
,
0000
0000
0000
0000
,
0000
0000
1000
0000
,
0000
0000
0000
0000
,
0000
0000
0001
0000
,
0000
0000
0000
0000
,
0000
0000
1000
0000
;
