#VERSION:0.83;
#TITLE:Moteur Action (SOPHIE & A. G. Cook Remix);
#SUBTITLE:;
#ARTIST:YELLE;
#TITLETRANSLIT:;
#SUBTITLETRANSLIT:;
#ARTISTTRANSLIT:;
#GENRE:Hyperpop;
#ORIGIN:;
#CREDIT:;
#BANNER:MA_SAGR-bn.png;
#BACKGROUND:MA_SAGR-bg.png;
#PREVIEWVID:;
#JACKET:MA_SAGR-jacket.png;
#CDIMAGE:;
#DISCIMAGE:;
#LYRICSPATH:;
#CDTITLE:cdtitle.png;
#MUSIC:MA_SAGR.ogg;
#OFFSET:-0.005000;
#SAMPLESTART:17.523001;
#SAMPLELENGTH:14.015000;
#SELECTABLE:YES;
#BPMS:0.000=137.000;
#STOPS:;
#DELAYS:;
#WARPS:;
#TIMESIGNATURES:0.000=4=4;
#TICKCOUNTS:0.000=4;
#COMBOS:0.000=1;
#SPEEDS:0.000=1.000=0.000=0;
#SCROLLS:0.000=1.000;
#FAKES:;
#LABELS:0.000=Song Start;
#BGCHANGES:;
#KEYSOUNDS:;
#ATTACKS:
;

//---------------dance-single - ----------------
#NOTEDATA:;
#CHARTNAME:X-Scale 7;
#STEPSTYPE:dance-single;
#DESCRIPTION:;
#CHARTSTYLE:;
#DIFFICULTY:Easy;
#METER:5;
#RADARVALUES:0.273670,0.339711,0.081173,0.186699,0.000000,236.000000,226.000000,10.000000,23.000000,0.000000,0.000000,0.000000,0.000000,0.000000,0.273670,0.339711,0.081173,0.186699,0.000000,236.000000,226.000000,10.000000,23.000000,0.000000,0.000000,0.000000,0.000000,0.000000;
#CREDIT:iamthek3n;
#NOTES:
// measure 0
0000
0000
0000
0000
,  // measure 1
0000
0000
0000
0000
,  // measure 2
1000
0000
0000
0000
1000
0000
0000
0001
,  // measure 3
0000
0000
0100
0000
0000
0001
0000
0000
,  // measure 4
1000
0000
0000
0000
1000
0000
0000
0100
,  // measure 5
0000
0000
0010
0000
0000
0001
0000
0000
,  // measure 6
1000
0000
0000
0000
1000
0000
0000
0010
,  // measure 7
0000
0000
0100
0000
0000
0001
0000
0000
,  // measure 8
0010
0000
0000
0000
0010
0000
0000
0100
,  // measure 9
0000
0000
1000
0000
0000
0001
0000
0000
,  // measure 10
1001
1000
0010
0100
,  // measure 11
0001
0010
0100
0010
,  // measure 12
0001
1000
0010
0100
,  // measure 13
0001
1000
0001
0000
,  // measure 14
0010
0100
1000
0001
,  // measure 15
0100
0010
0100
0001
,  // measure 16
1000
0100
0010
0100
,  // measure 17
2000
0000
0000
0000
0000
3000
0000
0000
,  // measure 18
1001
0000
0001
0000
0100
0001
0100
0000
,  // measure 19
0010
0000
1000
0000
0100
1000
0100
0000
,  // measure 20
0010
0000
0001
0000
0100
0000
0010
1000
,  // measure 21
0001
0000
0010
0000
0100
0010
0001
0000
,  // measure 22
0000
0000
0011
0000
0001
0000
1000
0010
,  // measure 23
1000
0000
0001
0000
0010
0100
1000
0000
,  // measure 24
0100
0000
1000
0000
0001
0000
0100
0001
,  // measure 25
0100
0000
0010
0000
1000
0000
0002
0003
,  // measure 26
0100
0000
0000
0100
0000
0000
0000
0001
,  // measure 27
0000
0000
0000
1000
0000
0000
0000
0001
,  // measure 28
0000
0000
0000
0010
0000
0000
0000
0200
,  // measure 29
0000
0000
0000
0300
0000
0100
0000
0000
,  // measure 30
1000
0000
0000
0001
0000
0000
0000
0100
,  // measure 31
0000
0000
0000
0001
0000
0000
0000
1000
,  // measure 32
0000
0000
0000
0100
0000
0000
0000
0020
,  // measure 33
0000
0000
0000
0030
0000
0001
0000
0000
,  // measure 34
1000
0000
0000
0001
0000
0100
0000
0001
,  // measure 35
0000
0000
0000
1000
0000
0100
0000
1000
,  // measure 36
0000
0000
0000
0010
0000
0100
0000
0020
,  // measure 37
0000
0000
0000
0030
0000
1000
0001
0100
,  // measure 38
0001
0000
0000
0010
0000
0100
0000
1000
,  // measure 39
0000
0000
0000
0100
0000
0010
0000
0001
,  // measure 40
0000
0000
0000
1000
0000
0001
0000
2002
,  // measure 41
0000
0000
0000
3003
0000
0000
0000
2200
,  // measure 42
0000
3300
0000
2002
0000
3003
0000
0022
,  // measure 43
0000
0033
0000
0220
0000
0330
0000
1000
,  // measure 44
0000
0100
0000
0010
0000
0001
0000
0100
,  // measure 45
0001
1000
0001
0100
0002
0000
2000
3003
,  // measure 46
0000
0000
0000
0000
,  // measure 47
0110
0000
0000
0000
0000
0000
2000
3000
,  // measure 48
0000
0000
0000
0000
,  // measure 49
0001
1000
0001
0000
,  // measure 50
1001
0000
0020
0000
1030
0000
0001
0010
,  // measure 51
0100
0000
1000
0000
0010
0100
0001
0000
,  // measure 52
1000
0000
0020
0000
1030
0000
0001
0100
,  // measure 53
0010
1000
0100
1000
,  // measure 54
0001
0000
0020
0000
0130
0000
0010
0100
,  // measure 55
1000
0000
0001
0000
0010
0001
1000
0000
,  // measure 56
0010
0000
0200
0000
0310
0000
0100
0001
,  // measure 57
1000
0000
0010
0000
1000
0100
0010
0000
,  // measure 58
0001
0010
0100
0010
,  // measure 59
0001
1000
0010
0100
,  // measure 60
0001
0010
0100
1000
,  // measure 61
0001
0000
1000
0000
0010
1000
0010
0000
,  // measure 62
0100
0001
1000
0001
,  // measure 63
0100
0010
1000
0001
,  // measure 64
0100
0001
0010
0100
,  // measure 65
1000
0001
1000
0000
,  // measure 66
0010
0100
0010
0000
,  // measure 67
1000
0010
1000
0000
,  // measure 68
0001
0100
0001
0000
,  // measure 69
0020
0000
0000
0030
;

//---------------dance-single - ----------------
#NOTEDATA:;
#CHARTNAME:X-Scale 11;
#STEPSTYPE:dance-single;
#DESCRIPTION:;
#CHARTSTYLE:;
#DIFFICULTY:Medium;
#METER:8;
#RADARVALUES:0.456891,0.509566,0.194816,0.373398,0.292224,394.000000,370.000000,24.000000,46.000000,0.000000,0.000000,0.000000,0.000000,0.000000,0.456891,0.509566,0.194816,0.373398,0.292224,394.000000,370.000000,24.000000,46.000000,0.000000,0.000000,0.000000,0.000000,0.000000;
#CREDIT:iamthek3n;
#NOTES:
// measure 0
0000
0000
0000
0000
,  // measure 1
0000
0000
0000
0000
,  // measure 2
1000
0000
0000
0000
1000
0000
0000
0000
0001
0000
0000
0100
0000
0000
0001
0000
,  // measure 3
0000
1000
0000
0000
0100
0000
0000
0010
0000
0000
0001
0000
0000
0100
0000
0000
,  // measure 4
0001
0000
0000
0000
0001
0000
0000
0000
0001
0000
0000
0010
0000
0000
1000
0000
,  // measure 5
0000
0010
0000
0000
0001
0000
0000
0010
0000
0000
0100
0000
0000
1000
0000
0000
,  // measure 6
0010
0000
0000
0000
1000
0000
0000
0000
0001
0000
0000
0100
0000
0000
0001
0000
,  // measure 7
0000
1000
0000
0000
0100
0000
0000
0010
0000
0000
0001
0000
0000
1000
0000
0000
,  // measure 8
0010
0000
0000
0000
0010
0000
0000
0000
1000
0000
0000
0001
0000
0000
0100
0000
,  // measure 9
0000
0010
0000
0000
1000
0000
0000
0001
0000
0000
1000
0000
0000
0000
0000
0000
,  // measure 10
2001
0000
3200
0000
0320
0000
0031
0200
,  // measure 11
0000
1300
0100
0002
0000
0013
0100
2000
,  // measure 12
0000
3010
1000
0200
0000
0301
0100
2000
,  // measure 13
0000
0010
0000
0000
0010
0000
3000
0010
0000
0000
1000
0000
0000
1000
0000
0000
,  // measure 14
1001
0000
0000
0001
0020
0000
0000
0000
0032
0000
0000
0000
1003
0000
0200
0000
,  // measure 15
0000
0301
0100
2000
0000
3010
1000
0002
,  // measure 16
0000
0103
0001
0020
0000
1030
0010
0002
,  // measure 17
0100
0000
0000
1000
0000
0000
0103
0000
0000
0000
0001
0000
1000
0000
0000
0000
,  // measure 18
1001
0000
0000
0000
1000
0000
0000
0000
0100
0000
1000
0100
0000
0000
0100
0000
,  // measure 19
0010
0000
0000
0000
0001
0000
0000
0100
0000
0000
0001
0010
0001
0000
0000
0000
,  // measure 20
0011
0000
0000
0000
0020
0000
0000
0000
0130
0000
0010
0100
0000
0000
0100
0000
,  // measure 21
1001
0000
0000
0110
0000
0000
1010
0000
0000
0000
1000
0000
0001
0000
0000
0000
,  // measure 22
0020
0000
0000
0000
0230
0000
0000
0000
1300
0000
1000
0100
0000
0000
1000
0000
,  // measure 23
0001
0000
0000
0000
0100
0000
0000
0001
0000
0000
1000
0010
2000
0000
0000
0000
,  // measure 24
3020
0000
0000
0000
0032
0000
0000
0000
0013
0000
0010
0100
0000
0000
0100
0000
,  // measure 25
1001
0000
0000
0000
0000
0000
0000
0000
0000
1100
0000
0000
0000
0000
0000
0000
0000
0000
0101
0000
0000
0000
0000
0000
0001
0000
0000
0000
1000
0000
0000
0000
0001
0000
0000
0000
2000
0000
0000
0000
0000
0000
3000
0000
0000
0000
0000
0000
,  // measure 26
0100
0000
1000
0001
0000
0100
0000
0001
,  // measure 27
0000
0010
0000
0100
0000
1000
0000
0001
,  // measure 28
0000
0000
0100
0001
0000
2000
0000
0200
,  // measure 29
0000
0000
0000
3300
0000
0100
0010
0001
,  // measure 30
1000
0000
0001
0100
0000
0010
0000
0001
,  // measure 31
0000
0010
0000
1000
0000
0100
0010
0100
,  // measure 32
0010
0000
0010
0001
0000
2000
0000
0002
,  // measure 33
0000
0000
0000
3003
0000
0001
0100
0010
,  // measure 34
1000
0000
0001
0100
0000
0010
0000
0100
,  // measure 35
0000
1000
0000
0100
0000
0001
0000
0010
,  // measure 36
0000
0000
0100
1000
0000
0002
0000
0200
,  // measure 37
0000
0000
0000
0303
0000
0100
0001
1000
,  // measure 38
0010
0000
0100
0001
0000
0010
0000
1000
,  // measure 39
0000
0100
0000
0001
0000
1000
0001
0100
,  // measure 40
0010
0000
0010
1000
0000
0001
0000
2002
,  // measure 41
0000
0000
0000
3003
0000
0000
0000
2100
,  // measure 42
0100
3000
0000
0102
0100
0003
0000
0210
,  // measure 43
0010
0300
0000
1020
1000
0030
0000
1000
,  // measure 44
0100
0010
0001
0010
0100
1000
0000
0001
,  // measure 45
1000
0000
0010
0000
1000
0000
0001
0000
1000
0001
1000
0001
2000
0000
3000
0000
,  // measure 46
0000
0000
0000
0000
,  // measure 47
1001
0000
0000
0000
0101
0000
0000
0101
0000
0000
0000
0000
0000
0000
0000
0000
,  // measure 48
2000
3020
0030
0000
,  // measure 49
0001
0001
0001
0000
,  // measure 50
1001
0000
0000
0000
1000
0000
0000
0010
0000
0000
0010
0100
0000
0000
0100
0000
,  // measure 51
0001
0000
1000
0000
0010
0000
0001
0000
0010
0000
1000
0100
1000
0000
0000
0000
,  // measure 52
1100
0000
0000
0000
0100
0000
0000
0010
0000
0000
0010
0001
0000
0000
0001
0000
,  // measure 53
0100
1000
0001
0010
1000
0001
1001
0000
,  // measure 54
0110
0000
0000
0000
0100
0000
0000
0001
0000
0000
1000
0100
0000
0000
0100
0000
,  // measure 55
0010
0000
0100
0000
1000
0000
0001
0000
0100
0000
0001
0010
0100
0000
0000
0000
,  // measure 56
0110
0000
0000
0000
1000
0000
0000
0100
0000
0000
1000
0001
0000
0000
0001
0000
,  // measure 57
0100
0000
0000
1000
0000
0000
0100
0000
0000
0001
0000
0000
1000
0000
0001
0000
1000
0000
0001
0000
0000
0000
0000
0000
,  // measure 58
0100
0000
0010
0000
2000
0000
0000
0001
0000
3000
1000
0001
0010
0000
0001
0000
,  // measure 59
0100
0000
1000
0000
0100
0000
0001
0000
1000
0000
0100
0010
0001
0000
0000
0000
,  // measure 60
0001
0000
0010
0000
0200
0000
0000
0010
0000
0300
0100
1000
0001
0000
1000
0000
,  // measure 61
0100
0000
0000
0000
0000
0000
0000
0000
0000
0010
0000
0000
0100
0000
0000
0000
0000
0000
1000
0000
0000
0000
0000
0000
0001
0000
0000
0000
0100
0000
0000
0000
0001
0000
0000
0000
0100
0000
0000
0000
0000
0000
0000
0000
0000
0000
0000
0000
,  // measure 62
1001
0000
1000
0000
0200
0000
0000
0000
0310
0000
0010
0100
0000
0000
1000
0000
,  // measure 63
1000
0000
0000
0000
0001
0000
0000
0100
0000
0000
0001
0010
0100
0000
0000
0000
,  // measure 64
1000
0000
0010
0000
0200
0000
0000
0000
0301
0000
0001
0100
0000
0000
0010
0000
,  // measure 65
1000
0000
0000
0000
1000
0000
0010
0000
0000
0000
0010
0000
0100
0000
0000
0000
0100
0000
0002
0000
0000
0003
0000
0000
,  // measure 66
0010
0000
0000
0000
0010
0000
0100
0000
0000
0000
0100
0000
1000
0000
0000
0000
1000
0000
0020
0000
0000
0030
0000
0000
,  // measure 67
0100
0000
0000
0000
0100
0000
0001
0000
0000
0000
0001
0000
0010
0000
0000
0000
0010
0000
0200
0000
0000
0300
0000
0000
,  // measure 68
1000
0000
0000
0000
1000
0000
0001
0000
0000
0000
0001
0000
0100
0000
0000
0000
0100
0000
0020
0000
0000
0030
0000
0000
,  // measure 69
1000
0000
0000
0100
0000
0000
0020
0000
0000
0000
0130
0000
1000
0000
0000
0000
;

//---------------dance-single - ----------------
#NOTEDATA:;
#CHARTNAME:X-Scale 13;
#STEPSTYPE:dance-single;
#DESCRIPTION:;
#CHARTSTYLE:;
#DIFFICULTY:Hard;
#METER:9;
#RADARVALUES:0.564735,0.623919,0.462689,0.511393,0.357163,487.000000,430.000000,57.000000,63.000000,0.000000,0.000000,0.000000,0.000000,0.000000,0.564735,0.623919,0.462689,0.511393,0.357163,487.000000,430.000000,57.000000,63.000000,0.000000,0.000000,0.000000,0.000000,0.000000;
#CREDIT:iamthek3n;
#NOTES:
// measure 0
0000
0000
0000
0000
,  // measure 1
0000
0000
0000
0000
,  // measure 2
0000
0000
0000
0001
0010
0100
2000
0000
,  // measure 3
3000
0000
0000
0010
1000
0001
0200
0000
,  // measure 4
0300
0000
0000
0001
0010
1000
0001
0100
,  // measure 5
2000
0000
3010
0100
0001
0010
0002
0000
,  // measure 6
0003
0000
0000
1000
0010
1000
0200
0000
,  // measure 7
0300
0000
0000
0010
0100
1000
0002
0200
,  // measure 8
0003
0300
0000
0001
0100
1000
0001
0010
,  // measure 9
2000
0000
3100
0010
0001
1000
0020
0030
,  // measure 10
1010
0000
0000
1000
0001
0000
0000
0010
0100
0000
0000
0110
0000
0000
1001
0000
,  // measure 11
0000
1100
0000
0000
0101
0000
0000
0110
0000
0000
1100
0000
0000
1001
0000
0000
,  // measure 12
0001
0000
0000
0010
0001
0000
0000
0010
0100
0000
0000
1100
0000
0000
0101
0000
,  // measure 13
0000
0011
0000
0000
1001
0000
0000
0110
0000
0000
1010
0000
0000
0010
1000
0000
,  // measure 14
1001
0000
0000
0100
0001
0000
0000
0010
0001
0000
0000
0011
0000
0000
1001
0000
,  // measure 15
0000
1100
0000
0000
0110
0000
0000
0101
0000
0000
1001
0000
0000
1010
0000
0000
,  // measure 16
0010
0000
0000
1000
0100
0000
0000
1000
0001
0000
0000
0011
0000
0000
1001
0000
,  // measure 17
2000
0000
3000
0020
0000
0030
0200
0000
0000
0000
0302
0000
0023
0000
0030
0000
,  // measure 18
0011
0000
0000
0000
1001
0000
0000
1000
0100
0000
0100
0010
0100
0000
1000
0000
,  // measure 19
1000
0000
0000
0000
1100
0000
0000
1000
0001
0000
0010
0100
1000
0000
0000
0000
,  // measure 20
1010
0000
0000
0000
0011
0000
0000
0001
1000
0000
0010
1000
0001
0000
0100
0000
,  // measure 21
1000
0000
0000
0100
0010
0000
0100
0000
0001
0000
0020
0000
0230
0000
0300
0000
,  // measure 22
1000
0000
0000
0000
1001
0000
0000
1000
0010
0000
1000
0100
0010
0000
0001
0000
,  // measure 23
0001
0000
0000
0000
1001
0000
0000
1000
0001
0000
0100
0001
2000
0000
0000
0000
,  // measure 24
3010
0000
0000
0000
1001
0000
0000
0001
0100
0000
0010
0100
0001
0000
1000
0000
,  // measure 25
0100
0000
0000
0000
0000
0000
0000
0000
0000
0010
0000
0000
0100
0000
0000
0000
0000
0000
1000
0000
0000
0000
0000
0000
0001
0000
0000
0000
0100
0000
0000
0000
0001
0000
0000
0000
0200
0000
0000
0000
0000
0000
0300
0000
0000
0000
0000
0000
,  // measure 26
0002
0000
0013
2000
0000
3002
0000
0203
,  // measure 27
0000
0320
0000
0032
0000
2003
0000
3020
,  // measure 28
0000
0000
0130
0002
0000
0023
0000
0230
,  // measure 29
0000
0000
0000
0000
0000
0301
0100
1000
,  // measure 30
0020
0000
0130
0002
0000
2003
0000
3200
,  // measure 31
0000
0302
0000
0023
0000
1030
0001
0100
,  // measure 32
0002
0000
0013
0200
0000
2300
0000
3002
,  // measure 33
0000
0000
0000
0000
0000
0103
0001
1000
,  // measure 34
1010
0000
1000
1001
0000
0001
0000
0011
,  // measure 35
0000
0010
0000
0101
0000
1000
0000
1001
,  // measure 36
0000
0000
0001
0101
0000
0100
0000
0220
,  // measure 37
0000
0000
0000
0330
0000
1010
1000
0001
,  // measure 38
1000
0000
0100
1100
0000
0001
0000
1001
,  // measure 39
0000
0100
0000
0101
0000
0001
1000
1001
,  // measure 40
0001
0000
0100
0110
0000
0010
0000
2002
,  // measure 41
0000
0000
3003
0000
0000
1000
0100
1000
,  // measure 42
1001
0000
0001
0010
1000
0000
0001
0100
,  // measure 43
1000
0000
0001
0010
1000
0000
0001
0100
,  // measure 44
1000
0010
0001
0010
1000
0100
0010
0001
,  // measure 45
0001
0000
0001
0000
0001
0000
0001
0000
0001
1000
0010
1000
0002
0000
0003
0000
,  // measure 46
0000
0020
0030
0000
,  // measure 47
1001
0000
0000
0000
1000
0000
0000
1000
0000
0000
0000
0000
2200
0000
3300
0000
,  // measure 48
0002
0000
0000
0000
0203
0000
0000
0000
0300
0000
0010
0100
0000
0000
0100
0000
,  // measure 49
0001
0000
0001
0000
0001
2000
3200
0300
,  // measure 50
1100
0000
0000
0000
1000
0000
0000
1000
0001
0000
0010
0100
1000
0000
0001
0000
,  // measure 51
0100
0000
0000
0000
0110
0000
0000
1000
0010
0000
1000
0100
0010
0000
0000
0000
,  // measure 52
0011
0000
0000
0000
0001
0000
0010
0000
1000
0000
0010
0100
1000
0000
0001
0000
,  // measure 53
0100
0000
0000
0000
0010
0000
0000
1000
0001
0000
0100
0000
0010
0000
0100
0000
,  // measure 54
0001
0000
0010
0000
0100
0000
0000
0000
1000
0000
0100
1000
0001
0000
1000
0000
,  // measure 55
0010
0000
0100
0000
1000
0000
0100
0000
0001
0000
0010
0001
1000
0000
0000
0000
,  // measure 56
1001
0000
0000
0000
1000
0000
0000
0100
0010
0000
0001
0100
0001
0000
1000
0000
,  // measure 57
0010
0000
0000
0000
0000
0000
0000
0000
0000
0100
0000
0000
0001
0000
0000
0000
0000
0000
1000
0000
0000
0000
0000
0000
0001
0000
0000
0000
0010
0000
0000
0000
0100
0000
0000
0000
1000
0000
0000
0000
0000
0000
0000
0000
0000
0000
0000
0000
,  // measure 58
0001
0000
0010
0000
0100
0000
1000
0000
0001
0000
1000
0100
0010
0000
0100
0000
,  // measure 59
1000
0000
0001
0000
0100
0000
1000
0000
0100
0000
0001
0100
0001
0000
1000
0000
,  // measure 60
0100
0000
0001
0000
0100
0000
0010
0000
0001
0000
1000
0001
0010
0000
0100
0000
,  // measure 61
1000
0000
0000
0100
0000
0000
0001
0000
0000
0010
0000
0000
0100
0000
1000
0000
0001
0000
0100
0000
0000
0000
0000
0000
,  // measure 62
0101
0000
1000
0000
0001
0000
0010
0000
1000
0000
0010
0100
0010
0000
0001
0000
,  // measure 63
1000
0000
0010
0000
0100
0000
0001
0000
0010
0000
0100
0010
0001
0000
1000
0000
,  // measure 64
0010
0000
1000
0000
0001
0000
0100
0000
0001
0000
1000
0100
1000
0000
0001
0000
,  // measure 65
1000
0000
0100
0000
0010
0000
0001
0000
0100
0000
0010
0000
1000
0000
0001
0000
0010
0000
0200
0000
0000
0300
0000
0000
,  // measure 66
1000
0000
0100
0000
0001
0000
0100
0000
0010
0000
0001
0000
1000
0000
0010
0000
0100
0000
0002
0000
0000
0003
0000
0000
,  // measure 67
0010
0000
0001
0000
1000
0000
0010
0000
0001
0000
0010
0000
1000
0000
0001
0000
0100
0000
0020
0000
0000
0030
0000
0000
,  // measure 68
1000
0000
0100
0000
0001
0000
0100
0000
0010
0000
0100
0000
0001
0000
0100
0000
1000
0000
0002
0000
0000
0003
0000
0000
,  // measure 69
0022
0000
0033
0220
0000
0330
2002
0000
3000
0000
0023
0000
0230
0000
0300
0000
;
