#TITLE:Moonlight;
#SUBTITLE:feat. Danyka Nadeau & Badjack;
#ARTIST:Disco Fries;
#TITLETRANSLIT:;
#SUBTITLETRANSLIT:;
#ARTISTTRANSLIT:;
#GENRE:Electro House;
#CREDIT:;
#BANNER:Moonlight feat. Danyka Nadeau & Badjack-bn.png;
#BACKGROUND:Moonlight feat. Danyka Nadeau & Badjack-bg.png;
#LYRICSPATH:;
#CDTITLE:cdtitle.png;
#MUSIC:Moonlight feat. Danyka Nadeau & Badjack.ogg;
#OFFSET:-0.003000;
#SAMPLESTART:63.752998;
#SAMPLELENGTH:15.000000;
#SELECTABLE:YES;
#BPMS:0.000000=128.000000
;
#STOPS:
;
#BGCHANGES:0.000=Moonlight feat. Danyka Nadeau & Badjack.avi=1.000=1=0=0=StretchNoLoop==CrossFade==,
99999=-nosongbg-=1.000=0=0=0 // don't automatically add -songbackground-
;
#KEYSOUNDS:;
#ATTACKS:;

//---------------dance-single - ----------------
#NOTES:
     dance-single:
     X-Scale 12:
     Hard:
     8:
     0.543115,0.655101,0.062179,0.293130,0.408606,428.000000,421.000000,7.000000,33.000000,0.000000,0.000000,0.543115,0.655101,0.062179,0.293130,0.408606,428.000000,421.000000,7.000000,33.000000,0.000000,0.000000:
// measure 0
0000
0000
0000
0000
,  // measure 1
0000
0000
0000
0000
,  // measure 2
1000
0100
0010
0002
0010
0000
1000
0000
,  // measure 3
0013
0001
1000
0020
0000
0130
0002
0000
,  // measure 4
1000
0000
0100
0000
1000
0000
0010
0003
,  // measure 5
0001
0010
0100
1000
0001
0010
0100
1000
,  // measure 6
0001
0100
0010
2000
0010
0000
0001
0000
,  // measure 7
3010
1000
0001
0020
0000
0130
2000
0000
,  // measure 8
0001
0000
0100
0000
0010
0000
3100
0200
,  // measure 9
0001
0000
0010
0000
1300
0000
0100
1000
,  // measure 10
0002
0000
0003
0020
0000
0030
0100
2000
,  // measure 11
0000
0000
3001
1000
0001
1000
0100
0010
,  // measure 12
0002
0000
0003
2000
0000
3000
0020
0000
,  // measure 13
0001
0000
0130
0200
0000
0000
0301
0100
,  // measure 14
0002
0000
0003
0020
0000
0030
0200
0000
,  // measure 15
1000
0000
1300
0100
0010
0001
0100
0010
,  // measure 16
2000
0000
3001
0020
1000
0000
0100
0000
,  // measure 17
0001
0000
0100
0000
1000
0000
0031
0010
,  // measure 18
0101
0000
0000
0001
0010
0000
0001
0000
1000
0000
0000
0100
1000
0100
1000
0100
,  // measure 19
1000
0000
0000
0010
0100
0000
0010
0000
1000
0000
0000
0001
0100
0001
0100
0001
,  // measure 20
0100
0000
0000
0010
0100
0000
0010
0000
1000
0000
0000
0100
0010
0100
0010
0100
,  // measure 21
0010
0000
0000
0001
1000
0000
0001
0000
0100
0000
0000
0001
1000
0001
1000
0001
,  // measure 22
2000
0000
3000
0200
0000
0300
0020
0000
0031
0000
0000
0000
0000
1000
0001
1000
,  // measure 23
0100
0000
0000
0000
0000
0000
0010
0000
0001
0000
0000
0000
1000
0000
0000
0000
0001
0000
0000
0000
0000
0000
0010
0100
0010
0000
0100
0000
1000
0000
0001
0000
,  // measure 24
1000
0000
0000
0100
1000
0000
0001
0000
0100
0000
0000
0000
0001
0000
0000
0000
,  // measure 25
1001
0000
1000
0000
0000
1010
0000
0000
0011
0000
0100
0001
0000
0001
1000
0000
,  // measure 26
0010
0000
1000
0000
0000
0000
0001
0000
0100
0000
0010
0100
0000
0010
0100
0000
,  // measure 27
0001
0000
1000
0000
0000
0000
0100
0000
1000
0000
0100
0010
0000
0100
0010
0000
,  // measure 28
0001
0000
1000
0000
0000
0000
0100
0000
0010
0000
0001
0100
0000
0001
0100
0000
,  // measure 29
0010
0000
0100
0000
0000
0000
0001
0000
0010
0000
0100
1000
0000
0100
1000
0000
,  // measure 30
0001
1000
0001
0000
0000
0010
0100
0000
1000
0000
0010
0100
0000
0001
0010
0000
,  // measure 31
0100
0000
1000
0000
0001
1000
0001
0000
0010
0000
0100
0010
0000
0001
1000
0000
,  // measure 32
0010
1000
0001
0100
0010
1000
0001
0100
0010
1000
0100
0010
0004
0000
0000
0000
,  // measure 33
1003
0000
0000
0000
0000
0000
0010
0000
0011
0000
0001
0100
0000
0010
1000
0000
,  // measure 34
1100
0000
0001
0000
1000
0000
0100
0000
0010
0000
0001
0100
0000
0010
1000
0000
,  // measure 35
0100
0000
1000
0000
0001
0000
0100
0000
0010
0000
1000
0100
0000
0010
0001
0000
,  // measure 36
1000
0000
0010
0000
0100
0000
0001
0000
1000
0000
0010
0100
0000
0001
0010
0000
,  // measure 37
0100
0000
1000
0000
0001
0000
0100
0000
0010
0000
1000
0100
0000
0010
0001
0000
,  // measure 38
1000
0000
0010
0000
0100
0000
0001
0000
0010
0000
0100
1000
0000
0100
0010
0000
,  // measure 39
0100
0000
1000
0000
0001
0000
0100
0000
0010
0000
1000
0001
0000
1000
0010
0000
,  // measure 40
0100
0000
1000
0000
0100
0000
0001
0000
0010
0000
0100
0010
0000
0001
1000
0000
,  // measure 41
0010
0000
0100
0010
0000
0010
1000
0000
0100
0010
0001
1000
0000
0001
0100
0000
,  // measure 42
0101
0000
0100
0000
0010
0000
0100
0000
1000
0000
0100
0010
0000
0100
0001
0000
,  // measure 43
1000
0000
0001
0000
0010
0000
0100
0000
0010
0000
0001
0010
0000
0100
1000
0000
,  // measure 44
0010
0000
1000
0000
0001
0000
0010
0000
0100
0000
1000
0100
0000
0010
0100
0000
,  // measure 45
1000
0000
0001
0000
0100
0000
0001
0000
0010
0000
0100
1000
0000
0001
0100
0000
,  // measure 46
0010
0000
0001
0000
0010
0000
1000
0000
0001
0000
0100
0010
0000
0001
0010
0000
,  // measure 47
0100
0000
0001
0000
1000
0000
0100
0000
0010
0000
0001
0100
0000
0010
1000
0000
,  // measure 48
0001
0000
1000
0000
0100
0000
0010
0000
0001
0000
1000
0010
0000
0100
0010
0000
,  // measure 49
1000
0001
0100
0010
1000
0001
0100
0010
1000
0100
0010
0001
4000
0000
0000
0000
,  // measure 50
3001
1000
0001
0002
0000
0013
0200
0000
,  // measure 51
0310
0100
1000
0001
0200
0000
0310
0100
,  // measure 52
1000
0000
0000
0000
0000
0000
0100
0000
0000
0000
0000
0000
0001
0000
0000
0000
0000
0000
0020
0000
0000
0000
0000
0000
0000
0000
0000
0000
0000
0000
0000
0000
0000
0000
0000
0000
0000
0000
0000
0000
0000
0000
0000
0000
0000
0030
0100
0000
,  // measure 53
0010
0100
2000
0000
3002
0000
0013
0100
,  // measure 54
0010
0001
1000
0001
0200
0000
0320
0000
,  // measure 55
0031
0010
1000
0002
0000
0000
0103
0001
,  // measure 56
1000
0000
0000
0000
0000
0000
0100
0000
0000
0000
0000
0000
0001
0000
0000
0000
0000
0000
0100
0000
0000
0000
0000
0000
2000
0000
0000
0000
0000
0000
0000
0000
0000
0000
0000
0000
0000
0000
0000
0000
0000
0000
0000
0000
0000
3000
0100
0000
,  // measure 57
0020
0000
0000
0000
,  // measure 58
0000
0000
0000
0000
,  // measure 59
0030
0000
0000
0000
;

//---------------dance-single - ----------------
#NOTES:
     dance-single:
     X-Scale 10:
     Medium:
     7:
     0.427640,0.540958,0.035531,0.328661,0.248716,337.000000,333.000000,4.000000,37.000000,0.000000,0.000000,0.427640,0.540958,0.035531,0.328661,0.248716,337.000000,333.000000,4.000000,37.000000,0.000000,0.000000:
// measure 0
0000
0000
0000
0000
,  // measure 1
0000
0000
0000
0000
,  // measure 2
0100
0000
1000
0020
0000
0000
0001
0000
,  // measure 3
0130
0000
0010
0100
0000
0001
2000
0000
,  // measure 4
0000
0000
0100
0000
0000
0000
0100
3000
,  // measure 5
1000
0000
0010
1000
0001
0000
0010
0100
,  // measure 6
1000
0000
0001
0020
0000
0000
0100
0000
,  // measure 7
0130
0010
0001
1000
0000
0010
2000
0000
,  // measure 8
0000
0000
0001
0000
0000
0000
3001
0020
,  // measure 9
0000
0000
0100
0000
0030
0100
0010
0001
,  // measure 10
2000
0000
3000
0020
0000
0030
2000
0000
,  // measure 11
0000
0000
0001
0000
0000
0000
3001
1000
,  // measure 12
0200
0000
0300
0020
0000
0030
0002
0000
,  // measure 13
0000
0000
1003
2000
0000
3000
0010
1000
,  // measure 14
0002
0000
0003
0200
0000
0300
0020
0000
,  // measure 15
0000
0000
1000
0000
1030
0010
0001
0010
,  // measure 16
0100
0000
0001
2000
0000
0000
0010
0000
,  // measure 17
0000
0000
0001
0000
0000
0000
3010
1000
,  // measure 18
1010
0000
0000
0010
0000
0000
0100
0000
0001
0000
0000
1000
0001
0000
1000
0000
,  // measure 19
0010
0000
0000
0100
0000
0000
0010
0000
1000
0000
0000
0001
0010
0000
0001
0000
,  // measure 20
1000
0000
0000
0100
0000
0000
1000
0000
0001
0000
0000
0010
0100
0000
0010
0000
,  // measure 21
0001
0000
0000
1000
0000
0000
0010
0000
1000
0000
0000
0100
0010
0000
0100
0000
,  // measure 22
1000
0000
0000
0001
0000
0000
0100
0000
0020
0000
0000
0000
0001
0000
0000
0000
,  // measure 23
1000
0000
0000
0001
0000
0000
0100
0000
0100
0000
0000
0000
1000
0000
0000
0000
,  // measure 24
0001
0000
0000
0001
0000
0000
0100
0000
0100
0000
0000
0000
1000
0000
0030
0000
,  // measure 25
0010
0000
0100
0000
0000
0001
0000
0000
1000
0000
0100
0010
0000
0100
0010
0000
,  // measure 26
0110
0000
0001
0000
0000
0000
1000
0000
0001
0000
0000
0010
0000
0000
0001
0000
,  // measure 27
0100
0000
0010
0000
0000
0000
1000
0000
0100
0000
0000
1000
0000
0000
0001
0000
,  // measure 28
0100
0000
0010
0000
0000
0000
0100
0000
0001
0000
0000
1000
0000
0000
0001
0000
,  // measure 29
0010
0000
1000
0000
0000
0000
1000
0000
0010
0000
0000
0001
0000
0000
1000
0000
,  // measure 30
0001
0000
0010
0000
0000
0000
0001
0000
1000
0000
0000
0100
0000
0000
1000
0000
,  // measure 31
0001
0000
0100
0000
0000
0000
0010
0000
0100
0000
0000
1000
0000
0000
0100
0000
,  // measure 32
0001
0100
1000
0100
0001
0100
1000
0100
,  // measure 33
0001
0000
0000
1000
0000
0000
0100
0000
2000
0000
0000
0000
3002
0000
0000
0000
,  // measure 34
0010
0000
0023
0000
0130
0000
0010
0000
0001
0000
0000
1000
0000
1000
0001
0000
,  // measure 35
0010
0000
0100
0000
1000
0000
0001
0000
1000
0000
0000
0100
0000
0100
0010
0000
,  // measure 36
0100
0000
1000
0000
0001
0000
0100
0000
0010
0000
0000
0100
0000
0100
0001
0000
,  // measure 37
1000
0000
0100
0000
0001
0000
0100
0000
1000
0000
0000
0010
0000
0010
0001
0000
,  // measure 38
0011
0000
0010
0000
0100
0000
1000
0000
0001
0000
0000
1000
0000
1000
0010
0000
,  // measure 39
0100
0000
1000
0000
0100
0000
0001
0000
0100
0000
0000
0010
0000
0010
1000
0000
,  // measure 40
0100
0000
0001
0000
1000
0000
0010
0000
0001
0000
0000
0100
0000
0100
1000
0000
,  // measure 41
0001
0000
0000
0100
0000
0010
0100
0000
0001
1000
0001
1000
0000
0100
0010
0000
,  // measure 42
0110
0000
0010
0000
0001
0000
1000
0000
0001
0000
0100
0010
0000
0100
0010
0000
,  // measure 43
1000
0000
0001
0000
0010
0000
1000
0000
0010
0000
0001
0100
0000
0010
1000
0000
,  // measure 44
0100
0000
0001
0000
0100
0000
1000
0000
0001
0000
0010
0001
0000
1000
0001
0000
,  // measure 45
0010
0000
1000
0000
0010
0000
0001
0000
0100
0000
0010
0100
0000
0001
0010
0000
,  // measure 46
1000
0000
0010
0000
0001
0000
1000
0000
0010
0000
0100
0010
0000
0001
0010
0000
,  // measure 47
1000
0000
0100
0000
0010
0000
0001
0000
1000
0000
0001
0100
0000
0010
0100
0000
,  // measure 48
1000
0000
0100
0000
0001
0000
0100
0000
0010
0000
1000
0100
0000
0010
0001
0000
,  // measure 49
2000
0000
0000
0000
3000
0000
0100
0000
1000
0000
0001
0010
0000
0001
1000
0000
,  // measure 50
0200
0000
1300
0002
0000
0003
0020
0000
,  // measure 51
0230
0000
1300
0001
2000
0000
3100
0010
,  // measure 52
0002
0000
1003
0020
0000
0030
0000
0000
,  // measure 53
0100
0010
2000
0000
3002
0000
1003
0100
,  // measure 54
0020
0000
0031
0010
0200
0000
0320
0000
,  // measure 55
0032
0000
1003
0020
0000
0030
0100
0010
,  // measure 56
1000
0100
0001
0100
2000
0000
3000
0000
,  // measure 57
0002
0000
0000
0000
,  // measure 58
0003
0000
0000
0000
;

//---------------dance-single - ----------------
#NOTES:
     dance-single:
     X-Scale 6:
     Easy:
     3:
     0.275365,0.303789,0.053296,0.133241,0.000000,217.000000,211.000000,6.000000,15.000000,0.000000,0.000000,0.275365,0.303789,0.053296,0.133241,0.000000,217.000000,211.000000,6.000000,15.000000,0.000000,0.000000:
// measure 0
0000
0000
0000
0000
,  // measure 1
0000
0000
0000
0000
,  // measure 2
1000
0100
1000
0100
,  // measure 3
0010
0001
0010
0001
,  // measure 4
1000
0010
1000
0010
,  // measure 5
0100
0001
0100
0001
,  // measure 6
0010
0100
0010
0100
,  // measure 7
1000
0001
1000
0001
,  // measure 8
0010
0100
0010
0100
,  // measure 9
0010
0001
0010
0001
,  // measure 10
1000
0000
0000
0010
0000
0000
2000
0000
,  // measure 11
0000
0010
0000
3010
,  // measure 12
0100
0000
0000
0001
0000
0000
2000
0000
,  // measure 13
0000
0000
3010
0020
0000
0030
0100
0010
,  // measure 14
0100
0000
0000
0001
0000
0000
0020
0000
,  // measure 15
0000
0000
0100
0000
0030
0010
0100
2000
,  // measure 16
0000
3000
0100
0020
0000
0000
0001
0000
,  // measure 17
0000
0100
0000
0031
,  // measure 18
0012
0000
0003
2000
0000
3000
0020
0000
,  // measure 19
0000
0000
0130
0001
0000
1000
0100
2000
,  // measure 20
0000
3002
0000
0000
0013
0000
0100
0000
,  // measure 21
0010
0000
0100
0000
1000
0000
0001
0010
,  // measure 22
0100
0000
0010
0000
0100
0000
0010
0001
,  // measure 23
0010
0000
0001
0000
0010
0000
0001
1000
,  // measure 24
0001
1000
0001
1000
,  // measure 25
1001
0000
0110
0000
,  // measure 26
1001
0000
0000
0000
1000
0000
0100
1000
,  // measure 27
0100
0000
0000
0000
0010
0000
0001
0010
,  // measure 28
0001
0000
0000
0000
1000
0000
0010
1000
,  // measure 29
0010
0000
0000
0000
0100
0000
0010
0100
,  // measure 30
0010
0000
0000
1000
0010
0000
1000
0001
,  // measure 31
1000
0000
0000
0010
0100
0000
0010
0100
,  // measure 32
0010
1000
0001
0100
,  // measure 33
0001
0000
1000
0100
,  // measure 34
1100
1000
0001
0100
,  // measure 35
0010
1000
0001
0100
,  // measure 36
0010
1000
0100
0010
,  // measure 37
0001
1000
0100
0010
,  // measure 38
0001
1000
0010
0100
,  // measure 39
0001
1000
0010
0100
,  // measure 40
0001
0010
0100
1000
,  // measure 41
0002
0000
0000
0000
2000
0000
0000
3003
,  // measure 42
1001
0001
1000
0000
0001
0000
1000
0000
,  // measure 43
0100
0010
0100
0000
1000
0000
0010
0000
,  // measure 44
1000
0001
1000
0000
0010
0000
0100
0000
,  // measure 45
0010
0100
0010
0000
1000
0000
0100
0000
,  // measure 46
0010
0100
0010
0000
0001
0000
1000
0000
,  // measure 47
0001
0100
0001
0000
0010
0000
0100
0000
,  // measure 48
1000
0100
1000
0000
0001
0000
0010
0000
,  // measure 49
0200
0300
0020
0000
,  // measure 50
0031
0000
0000
1000
0000
0000
0100
0000
,  // measure 51
0010
0000
0001
1000
,  // measure 52
0001
0000
0000
0010
0000
0000
0000
0000
,  // measure 53
0100
0000
0010
0100
,  // measure 54
0010
0000
0000
0001
0010
0000
0001
0000
,  // measure 55
1000
0000
0000
0010
0000
0000
0100
0010
,  // measure 56
0100
0001
1000
0000
,  // measure 57
0100
0000
0000
0000
;

//---------------dance-single - ----------------
#NOTES:
     dance-single:
     X-Scale 1:
     Beginner:
     1:
     0.109131,0.151895,0.008883,0.000000,0.000000,86.000000,85.000000,1.000000,0.000000,0.000000,0.000000,0.109131,0.151895,0.008883,0.000000,0.000000,86.000000,85.000000,1.000000,0.000000,0.000000,0.000000:
// measure 0
0000
0000
0000
0000
,  // measure 1
0000
0000
0000
0000
,  // measure 2
1000
0000
0000
0000
,  // measure 3
0100
0000
0000
0000
,  // measure 4
0010
0000
0000
0000
,  // measure 5
0001
0000
0000
0000
,  // measure 6
1000
0000
0000
0000
,  // measure 7
0100
0000
0000
0000
,  // measure 8
0010
0000
0000
0000
,  // measure 9
0001
0000
0000
0000
,  // measure 10
1000
0000
0000
0000
,  // measure 11
0010
0000
0000
0000
,  // measure 12
0100
0000
0000
0000
,  // measure 13
0001
0000
0000
0000
,  // measure 14
1000
0000
0000
0000
,  // measure 15
0010
0000
0000
0000
,  // measure 16
0100
0000
0000
0000
,  // measure 17
0001
0000
0000
0000
,  // measure 18
1000
0000
0001
0000
,  // measure 19
1000
0000
0001
0000
,  // measure 20
0010
0000
0100
0000
,  // measure 21
0010
0000
0100
0000
,  // measure 22
1000
0000
0010
0000
,  // measure 23
1000
0000
0010
0000
,  // measure 24
0100
0000
0001
0000
,  // measure 25
0100
0000
0001
0000
,  // measure 26
1000
0000
0100
0000
,  // measure 27
0010
0000
0001
0000
,  // measure 28
1000
0000
0010
0000
,  // measure 29
0100
0000
0001
0000
,  // measure 30
1000
0000
0001
0000
,  // measure 31
0010
0000
0100
0000
,  // measure 32
1000
0000
0000
0000
,  // measure 33
0001
0000
0000
0000
,  // measure 34
1001
0000
1000
0000
,  // measure 35
0001
0000
0100
0000
,  // measure 36
0010
0000
1000
0000
,  // measure 37
0100
0000
0010
0000
,  // measure 38
0001
0000
0100
0000
,  // measure 39
0010
0000
1000
0000
,  // measure 40
0100
0000
1000
0000
,  // measure 41
0001
0000
0000
0000
,  // measure 42
0010
0000
0100
0000
,  // measure 43
0010
0000
0001
0000
,  // measure 44
1000
0000
0010
0000
,  // measure 45
0100
0000
0010
0000
,  // measure 46
1000
0000
0001
0000
,  // measure 47
0010
0000
0100
0000
,  // measure 48
1000
0000
0001
0000
,  // measure 49
1000
0000
0000
0000
,  // measure 50
0100
0000
0000
0000
,  // measure 51
1000
0000
0000
0000
,  // measure 52
0001
0000
0000
0000
,  // measure 53
0100
0000
0000
0000
,  // measure 54
0010
0000
1000
0000
,  // measure 55
0010
0000
0000
0000
,  // measure 56
0100
0000
0000
0000
,  // measure 57
0001
0000
0000
0000
;
